This file was generated by Ched 2.7.0.0.
#TITLE ""
#ARTIST ""
#DESIGNER ""
#DIFFICULTY 0
#PLAYLEVEL
#SONGID ""
#WAVE ""
#WAVEOFFSET 0
#JACKET ""
#REQUEST "ticks_per_beat 480"
#00002: 4
#BPM01: 123
#00008: 01
#TIL00: ""
#HISPEED 00
#MEASUREHS 00
#0011a:14
#00214:14
#00318:14
#00412:14
#0051a:14
#00614:14
#00718:14
#00812:14
#0091a:14
#00910:41
#0101a:14
#01114:14
#01214:14
#01318:14
#01418:14
#01512:14
#01612:14
#02512:0016
#02518:26
#02510:41
#02712:16
#02718:0016
#02918:16
#02912:0016
#03112:16
#03118:0016
#03212:16
#03218:0016
#03312:16
#03310:41
#03418:14
#03514:14
#0361a:14
#03712:14
#03818:14
#03914:14
#0401a:14
#04918:0016
#04912:26
#0491f:00210000
#05118:16
#05112:0016
#05312:16
#05318:0016
#05518:16
#05512:0016
#05618:16
#05612:0016
#05718:16
#05814:14
#05918:14
#06012:14
#0611a:14
#06214:14
#06210:41
#06318:14
#06412:14
#07218:0014
#0731a:14
#07312:14
#0411f:11
#05010:41
#01810:41
#0173a0:14
#0183a0:24
#019340:14
#020340:24
#021380:14
#022380:24
#023320:14
#024320:24
#026380:1626
#028320:1626
#030380:1626
#041320:14
#042320:24
#043380:14
#044380:24
#045340:14
#046340:24
#0473a0:14
#0483a0:24
#050320:1626
#052380:1626
#054320:1626
#0653a0:1434
#0663a0:24
#067340:1434
#068340:24
#069380:1434
#070380:24
#071320:1434
#072320:24
