This file was generated by Ched 2.7.0.0.
#TITLE ""
#ARTIST ""
#DESIGNER ""
#DIFFICULTY 0
#PLAYLEVEL
#SONGID ""
#WAVE ""
#WAVEOFFSET 0
#JACKET ""
#REQUEST "ticks_per_beat 480"
#00002: 4
#BPM01: 123
#00008: 01
#TIL00: ""
#HISPEED 00
#MEASUREHS 00
#00017:0000000000000013
#00012:0000000000000013
#0011b:1300001300130000
#00115:00000000000000130000001300000000
#00118:00001313
#00112:00000000000000000013000000001300
#00116:13
#00215:0013000000130000
#00218:00000013000000000013000000001300
#00212:00130013
#0021b:00000000000013000000001300000000
#0031b:00001300000000000013000000000000
#00315:00000013000000001300000013000000
#00312:00000000000013000000000000330000
#00318:00000000130000130000001300000000
#00415:00001300000000130013000000000000
#00412:00000000001300000000001300000000
#00418:0000001300130000
#0041b:0013
#00416:0000000000000013
#00512:0013001300001300
#0051b:00000000130000000013000000000000
#00517:00001300000000130000000000000000
#00515:00000000000000000000130000000013
#00518:00000000000000000000001300001300
#00516:00130000
#00617:0013000000000000
#0061b:13130000
#00618:0000001300130000
#00615:00000000000000130013000000001300
#00612:0013000000001300
#00616:00130000
#00715:00001300130000130000000000000000
#00718:00000013000000000000000000130013
#0071b:1300001300000000
#00712:000000000000000000000000000000002400000000130000
#0071a:0024
#00716:000000000000002400000000
#0081b:00000000000013000000000000130000
#00815:00000000001300130000000000001300
#00818:00000000000000000000000000000013
#00812:240024
#00816:002400000000002400000000
#0081a:002400240000
#00912:13
#00918:00001300000000000000131300000000
#00915:0000000000000013
#0091a:0000000000000000000000000000000000000000001300130000000000000000
#00910:41
#01012:1300130000130000
#01016:0013001300000013
#01019:0013
#01017:0000130000130000
#0101b:00001333003300000000000000001300
#01014:0013
#01112:0013000013000000
#01117:00000013000000000000000000000000
#01114:00130000
#01119:00000000001300000000000000000000
#01116:0000001300000000
#0111b:00000000000000130000000000000000
#01118:00000000000000000013000000000000
#01212:13000000000000130000000000000000
#01218:00130000000013000000000000000000
#01215:00001300001300000013000000000000
#0121b:0013
#01318:00000000000013000000001300000000
#01315:00000000000000130000000013000000
#0131b:00000000000000001300000000130000
#01312:0000000000130013
#0141b:00330000003300001300000013000000
#01415:00000000000000000013000000000000
#01418:0000000000130000
#01412:00000033000000330000001300001300
#01417:0000000000000013
#01516:1300130000130000
#01517:00001300000000130000000013000000
#0151b:00130000
#01519:0000000000000013
#01512:0013000000001300
#01514:0000000000000013
#0161b:1313000000001300
#01616:13001300000000130000000013000000
#01612:0000130000000013
#01617:0000130000130013
#01716:13
#0171b:00000013
#01712:0023
#01717:0023
#01818:001300000013000000000000
#01815:001313000000
#01817:00000013
#01816:0013
#01812:00230013
#0181b:2323
#01810:41
#0191b:130000000000000000000013
#01912:0013
#01917:0013
#0211b:0000130000000013
#02116:00000000001300000000000000000000
#02119:0000001300000000
#02114:00000000000000130000000000000000
#02117:0013
#02112:13000000000000000000130000000013
#02115:00000000000000000000000000130000
#0231b:00001300000000130000130000001300
#02315:2300000023000013
#02312:00000013000013000000001300000000
#02318:00230023
#02412:13000023
#02418:00130000000000000000000000001300
#02413:0013000000000000
#02419:00000013000000000000130000000000
#02414:0000130000130000
#0241a:00000000001300000000000000000000
#02415:00000000000013000000000000000013
#0241b:0013
#02416:0013
#02417:00000023
#02519:0013001300130013
#02517:00130013
#02516:00000000000000130000000000000000
#0251b:2313
#02512:00130013
#02510:41
#0261b:1313
#02617:00130013
#02616:2313
#02615:0000000000000013
#02618:00000000000000000000000000000013
#03015:0000000000000013
#03018:00000000000000000000000000000013
#0301b:2313
#03012:2313
#0311b:0013000000001300
#03117:0000130000000013
#03116:00001300000000130000000000000000
#03112:23000000130000000000333300001300
#0321b:13
#03219:0013000000000000
#03217:00000000130000000013000000000000
#03216:13000000000000130000000000000000
#03212:00130000
#03312:13000000000013000013000013000000
#03314:0013000000000000
#03316:0000130000000013
#03317:13000000000000130000001300000000
#0331b:0000000000000013
#03310:41
#03412:1300130000000013
#0341b:0013000000001300
#03417:0000130000130013
#03416:00001300000000130000000000000000
#0361b:1300001300001300
#03618:0013000000130000
#03615:00000000130000000000001300000000
#03616:00000000000000130000000000000000
#03617:0000000000000013
#03612:00000000000000000013000000001300
#03812:13000013
#0381b:00001300000000000013000000001300
#03817:00130000
#03818:00000000000013000000001300000000
#03815:0000000000130000
#03816:0000000000000013
#03912:13000000001300000000131300000000
#0391b:00001300000000001300000000130000
#03918:00000000130013000000000000000013
#03915:00000013000000130000000000001300
#04012:13000000001300000000000000000000
#04018:00000000000013000000331300000000
#04015:00000000000000130000131300000000
#0401b:00001313000000001300000000000000
#0411a:0000121212000000
#04116:00000000001200120000000000001200
#04114:0000000000120000
#04118:00000000000000000000001200000000
#0411f:11
#04214:1200121212000000
#04218:00000000001200120000000000001200
#0421a:0000000000120000
#04216:00000000000000000000001200000000
#04515:00000000001300000000001300000013
#04518:0000001300130013
#04512:00000000000000130000000000000000
#0451b:23232323
#04715:00000013000023000000001300002300
#04718:00002300000000130000230000000013
#0471b:23230023
#04712:2323
#04818:00002300000000130000000000001300
#04815:00000013000023000000000000000013
#04812:2323
#0481b:00230023
#04816:0000000000000000000000000000000000003300333333330000000000000000
#04914:0013000000000000
#04915:0000001313000000
#04918:23000000000000130000000000000000
#04916:0000000000130013
#04912:00230013
#04919:0013000000000000
#0491b:00230000
#0491f:00210000
#05217:00130013
#05218:0000000000000013
#05215:00000000000000000000000000000013
#05216:0013
#0521b:2313
#05212:00230013
#05319:0013000000000000
#05315:0000001300000000
#05318:00000000000000130000000000000000
#05312:00231300
#05314:0013000000130013
#0531b:23000013
#05316:00000013
#05317:00230000
#0541b:2313
#05412:2313
#05415:0000000000000013
#05418:00000000000000000000000000000013
#0551b:0013001300000000
#05516:00001300000000130000000000001300
#05517:0000230000131300
#05512:23000000230000000013001300000000
#05617:13000000000000130013000000000000
#05619:0013000000002400
#0561b:00130000
#05612:13
#05614:0013000000000000
#05616:00130000
#05613:0000000000240000
#06518:00001300000000130000001300000000
#06512:00000000130000000013000000001300
#06515:0000001300001300
#0651b:00000000130000000013000000001300
#06612:13000000130000000013000000000000
#06616:00001300000000130000000000000000
#0661b:0013001300000000
#06617:1300130000130000
#06615:00000013
#06618:00000013
#06712:1312
#06716:0012001200120012
#06714:00120000
#0671c:00000000000012000000000000120000
#06718:00000012000000001200001200000000
#0671a:00000000000000000000000000000012
#06814:12000000000000120000000000000000
#06818:00001212000012000000000000000000
#06812:00000000001200000000000000000000
#0681a:0012
#06816:00000000000000000000121200000000
#0691b:13000000130000000013000000001300
#06915:00001300000000130000001300000000
#06918:0000001300001300
#06912:00000000130000000013000000001300
#02015:001300000013000000000000
#02018:001313000000
#02016:00000013
#02017:0013
#0201b:00230013
#02012:2323
#02218:13000000000000000000000000130000
#02212:0000130000000013
#02217:00000000001300000000000000000000
#02214:0000001300000000
#02219:00000000000000130000000000000000
#02216:0013000013000000
#0221b:00001300000000000000130000000013
#02714:0013001300130013
#02716:00130013
#02717:00000000000000130000000000000000
#02712:2313
#0271b:00000013000000000000000013000000
#02812:1313
#02816:00130013
#02817:2313
#02818:0000000000000013
#02815:00000000000000000000000000000013
#02919:0013001300130013
#02917:00130013
#02916:00000000000000130000000000000000
#0291b:2313
#02912:00130013
#0351b:13000000000013000013000013000000
#03519:0013000000000000
#03517:0000130000000013
#03516:13000000000000130000001300000000
#03512:0000000000000013
#03712:1300001300001300
#03714:0013000000000000
#03716:0000130000000013
#03717:13000000000000130000001300000000
#0371b:00000000000000000013000000001300
#0431a:1200001200000000
#0431c:00120000
#04316:00000000001200000000120000001200
#04314:00000000000000120000000000000000
#04318:00000000000000001200001200000000
#04412:12120000
#04418:00000000001200000000120000001200
#04414:0000001200000000
#0441a:00000000000000120000000000000000
#04416:00000000000000001200001200000000
#05017:0013
#05016:00130013
#05012:2313
#0501b:00230013
#05015:0000000000000013
#05018:00000000000000000000000000000013
#05010:41
#04618:00000000001300000000001300000013
#04615:0000001300130013
#0461b:23000000000000130000000000000000
#04612:23232323
#05115:23000013000000130000000000000000
#05118:0013001313000000
#05117:0000000000130013
#0511b:00230013
#05112:00230000
#0571b:13000000000013000013000013000000
#05719:0013000000000000
#05717:0000130000000013
#05716:13000000000000130000001300000000
#05712:0000000000000013
#0581b:1300130000000013
#05812:0013000000001300
#05816:0000130000130013
#05817:00001300000000130000000000000000
#06012:1300001300001300
#06015:0013000000130000
#06018:00000000130000000000001300000000
#06017:00000000000000130000000000000000
#06016:0000000000000013
#0601b:00000000000000000013000000001300
#0621b:13000013
#06212:00001300000000000013000000001300
#06216:00130000
#06215:00000000000013000000001300000000
#06218:0000000000130000
#06217:0000000000000013
#06210:41
#0631b:13000000001300000000131300000000
#06312:00001300000000001300000000130000
#06315:00000000130013000000000000000013
#06318:00000013000000130000000000001300
#0641b:13000000001300000000000000000000
#06415:00000000000013000000331300000000
#06418:00000000000000130000131300000000
#06412:00001313000000001300000000000000
#05912:13000000000013000013000013000000
#05914:0013000000000000
#05916:0000130000000013
#05917:13000000000000130000001300000000
#0591b:0000000000000013
#0611b:1300001300001300
#06119:0013000000000000
#06117:0000130000000013
#06116:13000000000000130000001300000000
#06112:00000000000000000013000000001300
#0701b:13000000130000000013000000000000
#07017:00001300000000130000000000000000
#07012:0013001300000000
#07016:1300130000130000
#07018:00000013
#07015:00000013
#0711b:13
#07118:0012001200120012
#0711a:00120000
#07112:00000000000012000000000000120000
#07116:00000012000000001200001200000000
#07114:00000000000000000000000000000012
#0711c:0012
#0721a:12000000000000120000000000000000
#07216:00001212000012000000000000000000
#0721c:00000000001200000000000000000000
#07214:0012
#07218:00000000000000000000121200000000
#07312:12
#0545b:5353
#05452:5353
#05458:00430043
#05455:00330033
#00958:00001300000000000000636300000000
#0095a:0000000000000000000000000000000000000000002300230000000000000000
#00952:53
#00955:0013000000000000
#0015b:13
#00156:13
#00152:0000000000000013
#00158:00000053
#00252:00000053
#00258:0000000000000013
#00355:00000053
#0045b:1300000000000013
#00452:13
#00456:0000000000000013
#00552:00000013
#0065b:13
#00658:0000000000530000
#00652:00000013
#00655:0000000000000063
#0075b:13
#0105b:0053000000000000
#01057:0000230000130000
#01052:0000000000130000
#0135b:13
#01355:13
#0145b:00000053
#01457:0000000000000023
#01657:0000000000000023
#0165b:00000053
#01856:0053
#01852:00000053
#02057:0063
#0205b:00000063
#02152:13
#02157:13
#0195b:13
#01956:13
#02355:1313
#02358:00130013
#02652:00130013
#02656:5353
#02857:6363
#0285b:00130013
#0305b:5353
#03052:5353
#03058:00430043
#03055:00330033
#0335b:00130000
#03357:53
#03556:63
#03552:00130000
#03757:53
#0375b:00130000
#0395b:0053
#04052:63
#04058:00000000000000000000005300000000
#04055:00000000000000000000005300000000
#0405b:0023
#0415b:13
#04152:13
#04158:00000000000000000000005200000000
#04256:00000000000000000000006200000000
#04358:00000000000000000000005200000000
#04456:00000000000000000000006200000000
#0475b:00130013
#04752:1313
#04852:1363
#0485b:00130000
#05052:3333
#0505b:00430043
#0525b:4343
#05252:00330033
#05557:00000053
#05552:13
#06452:0023
#06458:00000000000000000000006300000000
#0645b:53
#06455:00000000000000000000006300000000
#06352:0063
#05756:63
#05752:00130000
#05957:53
#0595b:00130000
#06156:63
#06152:00130000
#06552:13
#0655b:13
#06658:00000053
#06854:52
#0685a:0062
#06856:00000000000000000000005200000000
#0695b:13
#06952:12
#0725a:62
#07254:0052
#07258:00000000000000000000006200000000
#07352:12
#0735c:12
#07055:00000063
#0255b:13
#02752:13
#0295b:13
#03152:13
#0535b:13
#04952:00130000
#0495b:00130000
#05155:13
#001380:00000013
#0013b0:0000000000000023
#002350:00000000000000130023000000000000
#002320:00000013
#002350:0000000000000023
#003350:00000013
#003320:00000000000000000000000000333300
#004320:23
#0033b1:0000000000000013
#0043b1:23
#004381:00000013002300000000000000000000
#0043b1:0000000000001323
#006381:0000000000130000
#0063b1:00000023
#006351:0000000000000013
#007321:23
#009321:13
#009351:0023000000000000
#009391:0000001200000000
#009381:000000000000000000000000000000000000000000000000000000000000000000000000000000000000000000000000000000000000000000000000000000000000000000000000000000000000000000000000000000000000000000000000000000000000000000000000000000000000000000000000000000000000000000000000000000000000000000000000000000000000000000000000000000000000000000000000000000000000000000000000000000000000000000000000000000000000000000000000000000000000000000000000000000000000000000000000000000000000000000000000000000000000000000000000000000000000000000000000000000000000000000000000000000000000000000000000000000000000000000000000000000000000000000000000000000000000000000000000000000000000000000000000000000000000000000000000000000000000000000000000000000000000000000000000000000000000000000000000000000000000000000000000000000000000000000000000000000000000000000000000000000000000000000000000000000000000000000000000000000000000000000000000000000000000000000000000000000000000000000000000000000000000000000000000000000000000000000000000000000000000000000000000000000000000000000000000000000000000000000000000000000000000000000000000000000000000000000000000000000000000000000000000000000000000000000000000000000000000000000000000000000000000000000000000000000000000000000000000000000000000000000000000000000000000000000000000000000000000000000000000000000000000000000000000000000000000000000000000000000000000000000000000000000000000000000000000000000000000000000000000000000000000000000000000000000000000000000000000000000000000000000000000000000000000000000000000000000000000000000000000000000000000000000000000000000000000000000000000000000000000000000000000000000000000000000000000000000000000000000000052000000000000000000000000000000000000000000000000000000000000000000000000000000000000000000000000000000000000000000000000000000000000000000000000000000000000000000000000000000000000000000000000000000000000000000000000000000000000000000000000000000000000000000000000000000000000000000000000000000000000000000000000000000000000000000000000000000000000000000000000000000000000000000000000000000000000000000000000000000000000000000000000000000000000000000000000000000000000000000000000000000000000000000000000000000000000000000000000000000000000000000000000000000000000000000000000000000000000000000000000000000000000000000000000000000000000000000000000000000000000000000000000000000000000000000000000000000000000000000000000000000000000000000000000000000000000000000000000000000000000000000000000000000000000000000000000000000000000000000000000000000000000000000000000000000000000000000000000000000000000000000000000000000000000000000000000000000000000000000000000000000000000000000000000000000000000000000000000000000000000000000000000000000000000000000000000000000000000000000000000000000000000000000000000000000000000000000000000000000000000000000000000000000000000000000000000000000000000000000000000000000000000000000000000000000000000000000000000000000000000000000000000000000000000000000000000000000000000000000000000000000000000000000000000000000000000000000000000000000000000000000000000000000000000000000000000000000000000000000000000000000000000000000000000000000000000000000000000000000000000000000000000000000000000000000000000000000000000000000000000000000000000000000000000000000000000000000000000000000000000000000000000000000000000000000000000000000000000000000000000000000000000000000000000000000000000000000000000000000000000000000000000000000000000000000000000000000000000000000000000000000000000000000000000000000000000000000000000000000000000000000000000000000000000000000000000000000000000000000000000000000000000000000000000000000000000000000000000000000000000000000000000000000000000000000000000000000000000000000000000000000000000000000000000000000000000000000000000000000000000000000000000000000000000000000000000000000000000000000000000
#009371:00000000000000532200000000000000
#009330:0000001200000000
#009340:000000000000000000000000000000000000000000000000000000000000000000000000000000000000000000000000000000000000000000000000000000000000000000000000000000000000000000000000000000000000000000000000000000000000000000000000000000000000000000000000000000000000000000000000000000000000000000000000000000000000000000000000000000000000000000000000000000000000000000000000000000000000000000000000000000000000000000000000000000000000000000000000000000000000000000000000000000000000000000000000000000000000000000000000000000000000000000000000000000000000000000000000000000000000000000000000000000000000000000000000000000000000000000000000000000000000000000000000000000000000000000000000000000000000000000000000000000000000000000000000000000000000000000000000000000000000000000000000000000000000000000000000000000000000000000000000000000000000000000000000000000000000000000000000000000000000000000000000000000000000000000000000000000000000000000000000000000000000000000000000000000000000000000000000000000000000000000000000000000000000000000000000000000000000000000000000000000000000000000000000000000000000000000000000000000000000000000000000000000000000000000000000000000000000000000000000000000000000000000000000000000000000000000000000000000000000000000000000000000000000000000000000000000000000000000000000000000000000000000000000000000000000000000000000000000000000000000000000000000000000000000000000000000000000000000000000000000000000000000000000000000000000000000000000000000000000000000000000000000000000000000000000000000000000000000000000000000000000000000000000000000000000000000000000000000000000000000000000000000000000000000000000000000000000000000000000000000000000000000000052530000000000000000000000000000000000000000000000000000000000000000000000000000000000000000000000000000000000000000000000000000000000000000000000000000000000000000000000000000000000000000000000000000000000000000000000000000000000000000000000000000000000000000000000000000000000000000000000000000000000000000000000000000000000000000000000000000000000000000000000000000000000000000000000000000000000000000000000000000000000000000000000000000000000000000000000000000000000000000000000000000000000000000000000000000000000000000000000000000000000000000000000000000000000000000000000000000000000000000000000000000000000000000000000000000000000000000000000000000000000000000000000000000000000000000000000000000000000000000000000000000000000000000000000000000000000000000000000000000000000000000000000000000000000000000000000000000000000000000000000000000000000000000000000000000000000000000000000000000000000000000000000000000000000000000000000000000000000000000000000000000000000000000000000000000000000000000000000000000000000000000000000000000000000000000000000000000000000000000000000000000000000000000000000000000000000000000000000000000000000000000000000000000000000000000000000000000000000000000000000000000000000000000000000000000000000000000000000000000000000000000000000000000000000000000000000000000000000000000000000000000000000000000000000000000000000000000000000000000000000000000000000000000000000000000000000000000000000000000000000000000000000000000000000000000000000000000000000000000000000000000000000000000000000000000000000000000000000000000000000000000000000000000000000000000000000000000000000000000000000000000000000000000000000000000000000000000000000000000000000000000000000000000000000000000000000000000000000000000000000000000000000000000000000000000000000000000000000000000000000000000000000000000000000000000000000000000000000000000000000000000000000000000000000000000000000000000000000000000000000000000000000000000000000000000000000000000000000000000000000000000000000000000000000000000000000000000000000000000000000000000000000000000000000000000000000000000000000000000000000000000000000000000000000000000000000000000000000000000000000
#009350:0022
#009360:0000000000122200
#009381:00000000000000000000135323000000
#0093a1:0000000000000000000000000000000000000000005300530000000000000000
#0103b1:13003333003323000000000000000000
#010371:00330000
#0113b1:000000000000000000000000000000130000003300000000
#011381:000000000000000000000000000000000033000000230000
#011350:000000000000000000000000000000130000003300000000
#011320:000000000000000000000000000000000033000000230000
#0123b0:00000013002300000000000000000000
#012320:000000000000000000000000000000130000003300000000
#012350:000000000000000000000000000000000033000000330000
#013350:23
#012381:000000000000000000000000000000130000003300000000
#0123b1:000000000000000000000000000000000033000000330000
#0133b1:23
#0143b1:13330000000000000000000000000000
#014371:0023000000000000
#014320:00001333000000000000000000000000
#014360:00230000
#0143b1:00000000133300000000000000000000
#014371:0000002300000000
#014320:00000000000013330000000000000000
#014360:0023
#0143b0:00000013
#014370:0000000000000033
#0153b0:23
#015320:00000000000013230000000000000000
#0153b0:00000000000000000013230000000000
#0163b0:00000000000013230000000000000000
#016320:00000000000000000013230000000000
#0163b0:00000013
#016370:0000000000000033
#0173b0:23
#017360:00000013
#018360:23
#018360:0013
#018320:00000033
#019360:23
#020370:0013
#0203b0:00000033
#021370:23
#0213b0:00000000000000000000001300230000
#022320:00000000000000000000001300230000
#026360:13
#026320:00230000
#026360:0013
#026320:00000023
#028370:13
#0283b0:00230000
#028370:0013
#0283b0:00000023
#0303b0:13
#030380:00230000
#030321:13
#030351:00230000
#0303b1:0013
#030381:00000023
#030320:0013
#030350:00000023
#0313b0:00000000000013230000000000000000
#031320:00000000000000000013333300000000
#031360:00000023
#0323b0:00000000000013230000000000000000
#032330:000000000000000000000000000000000000000000000000000000000000000000000000000000000000000000000000000000000000000000000000145400000000000000000000000000000000000000000000000000000000000000000000
#032340:00000000000000000000000000000000000000000000000000000000000000000000000000000000000000000000000000000000000000000000000000000000000000000000000000000000000000000000000000000000000000000000000000000000000000000000000000000000000000000000000000000000000000000000000000000000000000000000000000000000000000000000000000000000000000000000000000000000000000000000000000000000000000000000000000000000000000000000000000000000000000000000000000000000000000000000000000000000000000000000000000000000000000000000000000000000000000000000000000000000000000000000000000000000000000000000000000000000000000000000000000000000000000000000000000000000000000000000000000000000000000000000000000000000000000000000000000000000000000000000000000000000000000000000000000000000000000000000000000000000000000000000000000000000000000000000005200000000000000000000000000000000000000000000000000000000000000005200000000000000000000000000000000000000000000000000000000000000000000000000000000000000000000000000000000000000000000000000000000000000000000000000000000000000000000000000000000000000000000000000000000000000000000000000000000000000000000000000000000000000000000000000000000000000000000000000000000000000000000000000000000000000000000000000000000000000000000000000000000000000000000000000000000000000
#032320:00000026
#032391:000000000000000000000000000000000000000000000000000000000000000000000000000000000000000000000000000000000000000000000000000000000000000000000000145400000000000000000000000000000000000000000000
#0323a1:00000000000000000000000000000000000000000000000000000000000000000000000000000000000000000000000000000000000000000000000000000000000000000000000000000000000000000000000000000000000000000000000000000000000000000000000000000000000000000000000000000000000000000000000000000000000000000000000000000000000000000000000000000000000000000000000000000000000000000000000000000000000000000000000000000000000000000000000000000000000000000000000000000000000000000000000000000000000000000000000000000000000000000000000000000000000000000000000000000000000000000000000000000000000000000000000000000000000000000000000000000000000000000000000000000000000000000000000000000000000000000000000000000000000000000000000000000000000000000000000000000000000000000000000000000000000000000000000000000000000000000000000000000000000000000000000000000000000000000000000000000000000000000000000000000000000000000000000000000000000000000000000000000000000000000000000000000000000000000000000000000000000000520000000000000000000000000000000000000000000000000000000000000000520000000000000000000000000000000000000000000000000000000000000000000000000000000000000000000000000000000000000000000000000000000000000000000000000000000000000000000000000000000000000000000000000000000000000000000000000000000000000000000000
#032381:0000000000000026
#033371:13
#0333b1:00230000
#0343b1:00000000000013230000000000000000
#034321:00000000000000000013230000000000
#035361:13
#035321:00230000
#037371:13
#0373b1:00230000
#038361:0013000000000000
#038321:00230000
#038351:00000000000000130023000000000000
#0393b1:0013
#039371:00000000000000000000002300000000
#040321:13
#040361:00000023000000000000000000000000
#0403b1:0013
#040381:00000000000000000000333300000000
#0413b1:23
#040350:00000000000000000000001300000000
#041320:23
#041380:00000000000000000000001200000000
#0423c0:22
#042360:00000000000000000000001200000000
#043320:22
#043380:00000000000000000000001200000000
#0443c0:22
#044360:00000000000000000000001200000000
#045320:22
#048320:0013
#048360:0000000000000000000000000000000000003300333333332300000000000000
#0493b0:0000000000130033
#049370:00000033
#050370:23
#051320:0000000000130033
#051360:00000033
#052360:23
#0543b0:13
#054380:00230000
#054321:13
#054351:00230000
#0543b1:0013
#054381:00000023
#054320:0013
#054350:00000023
#055370:00000013
#0553b0:0000000000000023
#056320:00000000000013230000000000000000
#056330:000000000000000000000000000000000000000000000000000000000000000000000000000000000000000000000000000000000000000000000000145400000000000000000000000000000000000000000000000000000000000000000000
#056340:00000000000000000000000000000000000000000000000000000000000000000000000000000000000000000000000000000000000000000000000000000000000000000000000000000000000000000000000000000000000000000000000000000000000000000000000000000000000000000000000000000000000000000000000000000000000000000000000000000000000000000000000000000000000000000000000000000000000000000000000000000000000000000000000000000000000000000000000000000000000000000000000000000000000000000000000000000000000000000000000000000000000000000000000000000000000000000000000000000000000000000000000000000000000000000000000000000000000000000000000000000000000000000000000000000000000000000000000000000000000000000000000000000000000000000000000000000000000000000000000000000000000000000000000000000000000000000000000000000000000000000000000000000000000000000000005200000000000000000000000000000000000000000000000000000000000000005200000000000000000000000000000000000000000000000000000000000000000000000000000000000000000000000000000000000000000000000000000000000000000000000000000000000000000000000000000000000000000000000000000000000000000000000000000000000000000000000000000000000000000000000000000000000000000000000000000000000000000000000000000000000000000000000000000000000000000000000000000000000000000000000000000000000000
#056320:00000026
#056391:000000000000000000000000000000000000000000000000000000000000000000000000000000000000000000000000000000000000000000000000000000000000000000000000145400000000000000000000000000000000000000000000
#0563a1:00000000000000000000000000000000000000000000000000000000000000000000000000000000000000000000000000000000000000000000000000000000000000000000000000000000000000000000000000000000000000000000000000000000000000000000000000000000000000000000000000000000000000000000000000000000000000000000000000000000000000000000000000000000000000000000000000000000000000000000000000000000000000000000000000000000000000000000000000000000000000000000000000000000000000000000000000000000000000000000000000000000000000000000000000000000000000000000000000000000000000000000000000000000000000000000000000000000000000000000000000000000000000000000000000000000000000000000000000000000000000000000000000000000000000000000000000000000000000000000000000000000000000000000000000000000000000000000000000000000000000000000000000000000000000000000000000000000000000000000000000000000000000000000000000000000000000000000000000000000000000000000000000000000000000000000000000000000000000000000000000000000000000520000000000000000000000000000000000000000000000000000000000000000520000000000000000000000000000000000000000000000000000000000000000000000000000000000000000000000000000000000000000000000000000000000000000000000000000000000000000000000000000000000000000000000000000000000000000000000000000000000000000000000
#056381:0000000000000026
#057361:13
#057321:00230000
#058321:00000000000013230000000000000000
#0583b1:00000000000000000013230000000000
#059371:13
#0593b1:00230000
#061361:13
#061321:00230000
#062371:0013000000000000
#0623b1:00230000
#062381:00000000000000130023000000000000
#063321:0013
#063361:00000000000000000000002300000000
#0643b1:13
#064371:00000023000000000000000000000000
#064321:0013
#064351:00000000000000000000333300000000
#065321:23
#064380:00000000000000000000001300000000
#0653b0:23
#066380:00000013
#0673b0:23
#068340:12
#068320:00000022000000000000000000000000
#0683a0:0012
#0683c0:00000000000000000000002200000000
#068361:00000000000000000000001200000000
#069321:22
#070351:00000013
#071321:23
#0723a1:12
#0723c1:00000022000000000000000000000000
#072341:0012
#072321:00000000000000000000002200000000
#072380:00000000000000000000001200000000
#0733c0:22
