This file was generated by Ched 2.7.0.0.
#TITLE ""
#ARTIST ""
#DESIGNER ""
#DIFFICULTY 0
#PLAYLEVEL
#SONGID ""
#WAVE ""
#WAVEOFFSET 0
#JACKET ""
#REQUEST "ticks_per_beat 480"
#00002: 4
#BPM01: 123
#00008: 01
#TIL00: ""
#HISPEED 00
#MEASUREHS 00
#0011a:14
#00112:0000001300000000
#00118:0013
#00115:0000000000130000
#0011b:00000013
#00212:0013000000000000
#00218:00000000130000000000333300000000
#00215:0000001300000000
#0031b:0013000000000000
#00318:00130000
#00312:00000000000000000000000033330000
#00315:00000000000000333300000000000000
#0051b:0013000000000000
#00512:00000000000000000000333300000000
#00712:00001300000000000000000000240000
#00718:00130000
#00715:0000001300000000
#0071a:0024
#0101b:1300000013000013
#01015:0013000000130013
#01018:00130000
#01012:0000001300000000
#01112:0013000000000000
#01115:00130000
#01118:0000001300000000
#0111b:0013
#0131b:0000001300000000
#01312:0000000000130000
#01318:00000013
#01315:0000001300000013
#01518:00000000130000130000130000000000
#01512:0013000000001300
#01515:00000000000013000013000000001300
#01815:00000013
#01810:41
#01918:13
#02112:0000000000130000
#02115:1300000000000013
#02118:00000013
#0211b:00000000003333330000000000000000
#0231b:0013000000130000
#02318:0000001300000013
#02312:2323
#02315:00230023
#02412:1313
#02415:0013000000130000
#02418:0000130013000014
#0241b:0000001300130000
#02414:00000000000000000000000000000014
#02512:0013000013000000
#0251b:0000130000130000
#02515:0000001300001300
#02518:24000000000000130000000000001300
#02510:41
#03014:0000000000000014
#03018:00000000000000000000000000000014
#03012:2414
#0301a:2414
#0311b:0013000000000000
#03112:0000130000000013
#03118:00000000000013000000333300000000
#03115:00000000000000130000000000000000
#03114:24
#03218:13000000000000130000130000000000
#03215:00001300000013000013000000000000
#0321b:00130013
#03212:00000013
#03318:0000001300001300
#03315:00000000130000130000001300000000
#0331b:00001300000000000013000000000000
#03312:1300000000000013
#03310:41
#0341b:13
#03415:00330000
#0391b:0013000000000000
#03918:00130000
#03915:0000001300330000
#03912:0013
#04118:00000000130013001300001300000000
#04115:00000000001300130000130000000000
#0411f:11
#04515:0000001300000013
#04512:0000000000130000
#0451b:00230023
#04518:0023
#0481b:0000230000000013
#04815:0000000000000000000000002300000000003300333333330000000000001300
#04812:2323
#04818:0023000000000000
#04912:0000001300000000
#04915:0013000013000000
#04918:23000000000000130000000000000000
#0491b:0000230000003333
#0491f:00210000
#05218:0000000013000013
#05215:00000000000000000000000013000013
#0521b:23
#05212:00230000
#05315:0013001300001300
#05312:0013
#05318:00000000230000130000130000000000
#0531b:2300000000000013
#05418:0000000000000013
#05412:2414
#0541a:2414
#05415:00000000000000000000000000000013
#06515:0013001300001300
#06518:00000000130000130000001300000000
#06512:00000000000000000013000000000000
#0651b:0000000000000013
#06612:13
#06618:00001300000013000013000013000000
#06615:00000000130000130000130000000000
#06715:0013000000330000
#06712:00131300
#0671b:0000001300000000
#06718:00000013000000000000000000000000
#00915:0000001300000013
#0091b:0000001300000000
#00912:0000000000130000
#00918:0000000000130000
#00910:41
#00012:0000000000000014
#01618:13000000000013000013000000001300
#01615:00000000130000130000130000000000
#0161b:0013000000001300
#0221b:1300000000130000
#02218:0000000000000013
#02215:00000013
#02212:00000000003333330000000000000000
#02615:0013
#02614:0000000000000014
#02618:23000000000000000000000000000014
#0261b:0013
#02612:23
#05018:2300000000000013
#0501b:0013
#05012:00000013
#05015:00230000
#05010:41
#05115:23000013000013000000000000000000
#05112:0013
#05118:00001300000000130000000033003300
#0511b:00230000
#00418:0013000000130000
#00412:00130000
#0041b:0000001300000000
#00415:0013
#00612:0013000000000000
#0061b:00000000000000000000333300000000
#0141b:00000013
#01418:0000000000000013
#02018:00000013
#02718:00001300000000130000000000001300
#0271b:0000130000130000
#02715:00000013000013000000000013000000
#02712:0013
#02714:24
#02812:0013
#02818:0000000013000014
#02814:00000000000000000000000000000014
#0281b:23
#02815:23
#03515:0000001300001300
#03518:00000000130000130000001300000000
#03512:00001300000000000013000000000000
#0351b:1300000000000013
#03612:13
#03618:00000000330000000000333300000000
#03718:0000001300001300
#03715:00000000130000130000001300000000
#0371b:00001300000000000013000000000000
#03712:1300000000000013
#0381b:13
#03815:00000000330000000000333300000000
#0401b:13
#04012:0013
#04015:00000000000000000000331300000000
#04018:0033000000000000
#04215:00000000130013001300001300000000
#04218:00000000001300130000130000000000
#0431b:00000000130013001300001300000000
#04315:00000000001300130000130000000000
#04412:00000000130013001300001300000000
#04418:00000000001300130000130000000000
#04618:0000001300000013
#0461b:2300000000130000
#04612:23230023
#04615:0023
#05512:0013000000000000
#0551b:0000230000000013
#05515:00000000000013000000333300000000
#05518:23000000000000130000000000000000
#05615:13000000000000130000130000000000
#05618:00001300000013000013000000000000
#05612:00130013
#0561b:00000013
#05715:0000001300001300
#05718:00000000130000130000001300000000
#05712:00001300000000000013000000000000
#0571b:1300000000000013
#05812:13
#05818:00330000
#06312:0013000000000000
#06315:00130000
#06318:0000001300330000
#0631b:0013
#05918:0000001300001300
#05915:00000000130000130000001300000000
#0591b:00001300000000000013000000000000
#05912:1300000000000013
#0601b:13
#06015:00000000330000000000333300000000
#06115:0000001300001300
#06118:00000000130000130000001300000000
#06112:00001300000000000013000000000000
#0611b:1300000000000013
#06212:13
#06218:00000000330000000000333300000000
#06210:41
#06412:13
#0641b:0013
#06418:00000000000000000000331300000000
#06415:0033000000000000
#0681b:13
#06812:0013
#06815:00000000000000000000331300000000
#06818:0033000000000000
#06918:0013001300001300
#06915:00000000130000130000001300000000
#0691b:00000000000000000013000000000000
#06912:0000000000000013
#0701b:13
#07015:00001300000013000013000013000000
#07018:00000000130000130000130000000000
#07118:0013000000330000
#0711b:00131300
#07112:0000001300000000
#07115:00000013000000000000000000000000
#07212:13
#0721b:0013
#07218:00000000000000000000331300000000
#07215:0033000000000000
#02915:0013000013000000
#02918:24000000130000130000000000000000
#02912:0000001300001300
#0291b:0000000000130013
#01712:0023
#01718:0023
#04718:0023000000230000
#0471b:00230023
#04715:0000002300000023
#04712:2323
#0081a:00000000002400000000000000000000
#00815:00000000000000000000000000003333
#01212:00343400000000000000000000000000
#01214:00000000000034340000000000000000
#0015a:14
#0015b:00000053
#00158:0000000000000013
#01055:0000000000130000
#01658:0000000000000023
#0165b:00000053
#00452:0000000000000013
#00455:13
#01958:13
#02352:1313
#02355:00130013
#0265b:00135300
#02655:00135300
#02652:63000013
#02658:63000013
#03952:0053
#04158:00000000000000000000005300000000
#04152:13
#0475b:00130013
#04752:1313
#04852:1363
#0485b:00130000
#06658:00000053
#02558:14
#03154:14
#0535b:13
#05558:13
#0495b:00130000
#05155:13
#0025b:0000000000000013
#00555:00000013
#00658:00000013
#00955:0013000000000000
#01354:14
#0145b:00000053
#01458:0000000000000053
#02155:13
#02852:00136300
#0285b:53000013
#02858:00136300
#02855:53000013
#02754:14
#03054:00140014
#03052:5454
#0305a:6464
#03058:00140014
#0405b:53
#04052:0053
#04055:00000000000000000000005300000000
#04255:00000000000000000000006300000000
#0435b:00000000000000000000006300000000
#04452:00000000000000000000005300000000
#05058:13
#05055:00130000
#0505b:0013
#05052:00000013
#0525b:13
#05252:00130000
#05255:00000013
#05258:0013
#05452:5454
#0545a:6464
#05454:00140014
#05458:00140014
#0635b:0063
#06452:63
#0645b:0063
#06458:00000000000000000000006300000000
#0655b:13
#06752:0053
#0685b:53
#06852:0053
#06855:00000000000000000000005300000000
#06952:13
#07055:00000063
#0715b:0063
#07252:63
#0725b:0063
#07258:00000000000000000000006300000000
#0735b:13
#02958:14
#0013b0:00000013
#001380:0000000000000023
#002380:00000000000000130033333300000000
#0023b0:0000000000003323
#003350:00000000000013333300000000003300
#003320:00000000000000000033003333330000
#004350:23
#004320:0000000000001323
#005350:0000133300002300
#005320:00000000000000330033333300000000
#006380:0000133300002300
#0063b0:00000000000000330033333300000000
#0073a0:0014
#007390:000000000000003400000000
#007380:000024
#007320:00000000000000000000000000140000
#008320:34
#008330:003400000000000000000000
#008340:002400000000
#0083a0:00000000001400003400000000000000
#008390:000000000000003400000000
#008380:000024
#008320:00000000000000000000000000130000
#008350:00000000000000000000000000003333
#009350:3323000000000000
#011340:000000000000000000000000000000140000003400000000
#011320:000000000000000000000000000000000034000000340000
#012320:340000340000340000000000000000000000000000000000340000000000340000000000000034000000000000000000
#012340:000000000000000000340000000000340000340000340000000000000000000000003400000000000000340000000000
#013340:24
#0143b0:13333333
#0143a0:00330033003300330033003300000000
#014390:0033003300330000
#014380:0000000000000033
#0153b0:23
#0163b0:00000013
#016380:0000000000000033
#0173b0:23
#0173a0:00000014
#0183a0:3424
#018390:003400000034000000000000
#018380:003434000000
#018370:00340000
#019320:000000000000140000000034
#020320:3424
#020330:003400000034000000000000
#020340:003434000000
#020350:00340000
#0213b0:00000000133333330000000000000000
#021380:0023
#022320:00000000133333330000000000000000
#022350:0023
#026380:13
#0263b0:00230000
#026321:13
#026351:00230000
#026351:0013
#026321:00000023
#0263b0:0013
#026380:00000023
#0283b0:13
#028380:00230000
#028351:13
#028321:00230000
#028321:0013
#028351:00000023
#028380:0013
#0283b0:00000023
#030320:14
#030340:00240000
#0303a1:14
#030381:00240000
#030321:0014
#030341:00000024
#0303a0:0014
#030380:00000024
#031380:00000000000000000013333300000000
#0313b0:00000023
#034350:00001300330000000033330000000000
#034320:00000000000033330000000033002300
#036380:00001300330000000033333300000000
#0363b0:00000000000033330000000033002300
#038350:00001300330000000033333300000000
#038320:00000000000033330000000033002300
#039320:0013
#039350:00000000000000000000332300000000
#0393b0:00000000000000000000000000133333
#0403b0:33
#040380:00003323000000000000000000000000
#040320:00000000001333333300000000000000
#040350:00000000000000000000333300000000
#041320:23
#041380:00000000000000000000001300000000
#0413b0:0000000000000033
#0423b0:23
#042350:00000000000000000000001300000000
#042320:0000000000000033
#043320:23
#0433b0:00000000000000000000001300000000
#043380:0000000000000033
#044380:23
#044320:00000000000000000000001300000000
#044350:0000000000000033
#045350:23
#048320:0013
#048350:0000000000000000000000000000000000003300333333332300000000000000
#0493b0:0000000000133333
#050380:23
#051380:0000000000133333
#0523b0:23
#054320:14
#054340:00240000
#0543a1:14
#054381:00240000
#054321:0014
#054341:00000024
#0543a0:0014
#054380:00000024
#055350:00000000000000000013333300000000
#055320:00000023
#058380:00001300330000000033330000000000
#0583b0:00000000000033330000000033002300
#060350:00001300330000000033333300000000
#060320:00000000000033330000000033002300
#062380:00001300330000000033333300000000
#0623b0:00000000000033330000000033002300
#0633b0:0013
#063380:00000000000000000000332300000000
#063320:00000000000000000000000000133333
#064320:33
#064350:00003323000000000000000000000000
#0643b0:00000000001333333300000000000000
#064380:00000000000000000000333300000000
#0653b0:23
#066380:00000013
#0673b0:23
#067320:0013
#067350:00000000000000000000332300000000
#0673b0:00000000000000000000000000133333
#0683b0:33
#068380:00003323000000000000000000000000
#068320:00000000001333333300000000000000
#068350:00000000000000000000333300000000
#069320:23
#070350:00000013
#071320:23
#0713b0:0013
#071380:00000000000000000000332300000000
#071320:00000000000000000000000000133333
#072320:33
#072350:00003323000000000000000000000000
#0723b0:00000000001333333300000000000000
#072380:00000000000000000000333300000000
#0733b0:23
