This file was generated by Ched 2.7.0.0.
#TITLE ""
#ARTIST ""
#DESIGNER ""
#DIFFICULTY 0
#PLAYLEVEL
#SONGID ""
#WAVE ""
#WAVEOFFSET 0
#JACKET ""
#REQUEST "ticks_per_beat 480"
#00002: 4
#BPM01: 123
#00008: 01
#TIL00: ""
#HISPEED 00
#MEASUREHS 00
#0011a:14
#00114:0014
#00218:14
#00212:0014
#01014:1414
#01018:00140000
#0111a:14
#01114:0014
#01218:14
#01212:0014
#0131a:14
#01314:00140000
#01318:0014
#01412:1414
#01418:00140014
#01512:14
#01518:0014
#01614:14
#0161a:0014
#0731a:14
#07312:14
#0031a:14
#00314:0014
#00418:14
#00412:0014
#0091a:14
#00912:14
#00918:0014
#00910:41
#02114:14
#02117:0000000000140000
#0211a:00143434
#02215:0000000000140000
#02212:00143434
#02318:00140000
#02314:0014
#0231a:00000014
#02412:14
#02418:00140000
#02414:0024
#02514:00140000
#0251a:24
#02510:41
#02718:00140000
#02712:24
#02914:00140000
#0291a:24
#03112:14
#03118:00140000
#03114:0014
#0311a:00000014
#03212:14000024
#03218:00140000
#03214:0014
#0321a:00000024
#03318:0014
#0331a:14
#03310:41
#03416:0014
#03514:0014
#03512:14
#03616:0014
#0371a:0014
#03718:14
#03816:0014
#03912:0014
#03914:14
#04016:0014
#0411a:1414
#04114:00140014
#0411f:11
#0421a:14
#04212:0014
#04218:00000014
#04312:14
#0431a:0014
#04314:00000014
#0441a:14
#04412:0014
#04418:00000014
#04512:14
#04518:0014
#04514:00000014
#0461a:14
#04614:0014
#04618:00000014
#04712:14
#0471a:0014
#04918:00001414
#0491a:24
#04914:00240000
#0491f:00210000
#05114:00001414
#05112:24
#05118:00240000
#05318:00001414
#0531a:24
#05314:00240000
#05512:14
#05518:00140000
#05514:0014
#0551a:00000014
#05612:14000024
#05618:00140000
#05614:0014
#0561a:00000024
#05718:0014
#0571a:14
#05816:0014
#05814:00140000
#05818:00000014
#05914:0014
#05912:14
#06016:0014
#06018:00140000
#06014:00000014
#0611a:0014
#06118:14
#06216:0014
#06214:00140000
#06218:00000014
#06210:41
#06312:0014
#06314:14
#06416:0014
#06418:00140000
#06414:00000014
#04814:2424
#04818:00240000
#05010:41
#01810:41
#01754:0014
#0215a:00540000
#02157:0000000000240000
#02255:0000000000240000
#02252:00640000
#0255a:14
#02652:00140000
#02658:00000014
#0285a:00140000
#02854:00000014
#03052:00140000
#03058:00000014
#0335a:54
#03358:0024
#03554:0024
#03552:64
#0375a:0024
#03758:64
#03952:0024
#03954:54
#0465a:14
#04752:14
#0475a:0014
#04854:0014
#05052:00140000
#05058:00000014
#0525a:00140000
#05254:00000014
#05452:00140000
#05458:00000014
#05758:0024
#0575a:54
#05954:0024
#05952:64
#0615a:0024
#06158:64
#06352:0024
#06354:54
#0053a0:14
#005380:0024
#006320:14
#006340:0024
#007380:14
#0073a0:0024
#008340:14
#008320:0024
#017320:14
#017340:0024
#0183a0:14
#018380:0024
#019340:14
#019320:0024
#020380:14
#0203a0:0024
#0213a0:00143434
#021370:0000000000540000
#0223a0:24
#022320:00143434
#022350:0000000000540000
#023320:24
#025380:00001424
#026320:14240000
#026380:00001424
#027340:00001424
#0283a0:14240000
#028340:00001424
#029380:00001424
#030320:14240000
#030380:00001424
#0333a0:14
#033380:0054
#0343a0:24
#035320:14
#035340:0054
#036320:24
#037380:14
#0373a0:0054
#038380:24
#039340:14
#039320:0054
#040340:24
#050320:14240000
#050380:00001424
#0523a0:14240000
#052340:00001424
#054320:14240000
#054380:00001424
#0573a0:14
#057380:0054
#0583a0:24
#059320:14
#059340:0054
#060320:24
#061380:14
#0613a0:0054
#062380:24
#063340:14
#063320:0054
#064340:24
#0653a0:14
#065380:0034
#0663a0:34
#066380:0024
#067320:14
#067340:0034
#068320:34
#068340:0024
#069380:14
#0693a0:0034
#070380:34
#0703a0:0024
#071340:14
#071320:0034
#072340:34
#072320:0024
