This file was generated by Ched 2.7.0.0.
#TITLE ""
#ARTIST ""
#DESIGNER ""
#DIFFICULTY 0
#PLAYLEVEL
#SONGID ""
#WAVE ""
#WAVEOFFSET 0
#JACKET ""
#REQUEST "ticks_per_beat 480"
#00002: 4
#BPM01: 184
#00008: 01
#TIL00: ""
#HISPEED 00
#MEASUREHS 00
#02014:14
#0211a:14
#02212:14
#02318:14
#02414:14
#03414:14
#0351a:14
#0361a:14
#03712:14
#03710:41
#03818:14
#03912:14
#04012:14
#04118:14
#04214:14
#0431a:14
#04412:14
#04518:14
#04614:14
#04610:41
#0471a:14
#04812:14
#05218:14
#05312:14
#05412:14
#0551a:14
#05614:14
#0571a:14
#05710:41
#0581a:14
#05914:14
#0591f:11
#06018:14
#06112:14
#0621a:14
#06314:14
#06418:14
#07312:16
#07318:0016
#07918:0016
#08012:16
#08018:0016
#08618:14
#08712:14
#0881a:14
#08914:14
#09018:14
#09112:14
#09118:0014
#09218:0014
#09312:14
#0931a:0014
#0941a:0014
#09518:0014
#09512:14
#09618:0014
#0251a:14
#02514:0014
#02510:41
#02614:0014
#0271a:14
#02712:0014
#02812:0014
#02914:0014
#0291a:14
#03014:0014
#03212:0014
#08112:1616
#08218:1616
#01718:26
#06718:26
#0671f:21
#07412:26
#07418:0026
#07512:26
#08312:26
#0331a:24
#05112:24
#06910:41
#08510:41
#0013a0:14
#0023a0:24
#003320:14
#004320:24
#005380:14
#006380:24
#007340:14
#008340:24
#0093a0:14
#0103a0:24
#011320:14
#012320:24
#013380:1434
#014380:3424
#015340:1434
#016340:3424
#017380:16
#019360:26
#0313a0:14
#0323a0:24
#049380:14
#050380:24
#065320:1434
#066320:3424
#067380:1600000000000036
#068380:0026
#069320:1600000000000036
#070320:0026
#071380:1600000000000036
#072380:0026
#075380:0016
#076380:26
#076320:0016
#077320:26
#077380:0016
#078380:26
#078320:0016
#079320:26
#083320:16
#085340:26
#097320:1434
#098320:0000000034343424
