This file was generated by Ched 2.7.0.0.
#TITLE ""
#ARTIST ""
#DESIGNER ""
#DIFFICULTY 0
#PLAYLEVEL
#SONGID ""
#WAVE ""
#WAVEOFFSET 0
#JACKET ""
#REQUEST "ticks_per_beat 480"
#00002: 4
#BPM01: 184
#00008: 01
#TIL00: ""
#HISPEED 00
#MEASUREHS 00
#0591f:11
#05912:1323
#05914:00130000
#05918:0000000000000014
#05917:0000001300130000
#06212:1300000000130000
#06216:0000000000000013
#06215:0013
#06218:0000001300000000
#0621b:0023
#07616:0000000000000014
#0761a:0000000014001414
#07612:0014
#07516:0000000000000014
#0751a:2414
#07512:2400000014001414
#0131b:23000013
#01318:0013
#01314:0000000000000014
#01312:0000001300000000
#01315:0000000000130000
#05816:00000013000000000000000000000000
#05812:13
#0581b:00000013000000000000000000000000
#05817:1300000000000013
#0421b:1313
#04212:13140000
#04215:00001313
#04216:00000014000000000000000000000000
#03515:0013001300001300
#03512:13
#0351b:0000000000130000
#03518:0000130013000013
#02218:00130013
#02215:0013
#02212:00000013
#02015:00130013
#02018:0013
#0201b:00000013
#08012:00000013
#0801b:0013
#08016:0000001300000000
#07415:00000014
#07419:0014
#07413:00140000
#07417:14
#0741a:00000024
#07414:0024
#07418:00240000
#07412:24
#08819:0013
#08816:00130000
#08817:00000013
#08614:0013
#08617:00130000
#08616:00000013
#09619:0013
#09614:0013
#0961b:00000013
#0961b:00000013
#09616:00000013
#09419:0013
#09414:0013
#09412:00000013
#09417:00000013
#09219:0013
#09214:0013
#0921b:00000013
#09216:00000013
#03016:00000013
#03014:0013
#03017:00130000
#03119:1313
#03114:1313
#03116:00130000
#03112:00000013
#0311b:00130000
#03117:00000013
#02817:00000013
#02819:0013
#02816:00130000
#02616:00000013
#02614:0013
#02617:00130000
#02312:00130000
#02317:00000013
#0211b:00130000
#02116:00000013
#08916:00001313
#0891b:00001313
#08914:00130000
#08912:13
#08712:00001313
#08717:00001313
#08719:00130000
#0871b:13
#03315:0000130000130013
#0331b:13000013
#03318:0013
#03412:13000013
#03415:00131300
#03418:0000001300000013
#02916:00000013
#0291b:13000013
#02717:00000013
#02712:13000013
#01912:00130000
#01917:00000013
#0981b:0000000000000013
#09812:00131300
#09815:0000000000130000
#09818:00000013
#09817:00130000
#07912:0000001300001300
#07918:0000000000130013
#07915:0013
#07112:1400000000001414
#0711a:0000001414000000
#07116:0014
#07118:2600000000000026
#07016:0014
#07014:0000000000000014
#07012:00141400
#07012:00130000
#0701a:00000014
#06816:0014
#06818:0000000000000014
#0681a:00141400
#06812:00000014
#0691a:1400000000001414
#06916:00140000
#06912:2600000016000026
#06910:41
#05615:1300001300001300
#05618:00131300
#0561b:1300000000000013
#05612:0013
#05518:0000130000000013
#05515:0000001300001300
#05512:1313
#0551b:1313
#05212:1300000000000013
#05216:0013
#05218:13000013
#0521b:0000001300000000
#05418:0000000000000013
#05417:00000013000000000000000000000000
#0541b:13
#05412:00000013000000000000000000000000
#05416:13
#0511b:1300000000000013
#05117:0013
#05115:13000013
#05112:0000001300000000
#05315:1313
#05312:00130013
#04015:0000130000000013
#0401b:0013
#04018:0000001300001300
#04618:0000130000000013
#04612:00130000
#04615:13
#0461b:13
#04610:41
#04815:0000001300001333
#04818:00132300
#0481b:0000000000001333
#04812:2313
#04718:0000130013000013
#04715:0000001300001300
#04712:13
#04418:1400000000000013
#04414:00142400
#0441a:0000002400000000
#04518:0000130000000013
#04515:1300001300001300
#0451b:0013
#0411a:00000000000000000000001400000000
#04112:1313
#04116:00000014
#04115:00130000
#04118:00130000
#03815:0000001300000013
#0381b:1313
#03818:00000013000000000000000000000000
#0371b:13000013
#03718:00131300
#03715:0000001300000013
#03710:41
#03615:13000013
#03612:0013
#03618:00000000000000000000001300000000
#0361b:0013
#00812:00000013000000000000000000000000
#00815:13
#00817:0000000000000013
#0971b:0013
#09716:0013
#09712:13
#09717:13
#09516:13
#09517:00000013
#09512:00130013
#0951b:1313
#09317:13
#09316:00000013
#0931b:00130013
#09312:1313
#09116:13
#09117:00000013
#09112:00130013
#0911b:1313
#0851b:00001313
#08516:00001313
#08514:00130000
#08510:41
#0721b:00130013
#07217:0013
#07216:00140014
#07212:0014
#06712:1400000000001414
#06716:00140000
#06718:2600000016000026
#0671f:21
#01517:00001313
#01512:0000001500150015
#0151b:23
#01418:0013
#01412:0000000000000015
#01414:0000001400140000
#0141b:23
#00914:0013
#00912:13
#00918:0000000000000014
#00917:0000001300130000
#01012:13
#01015:0013
#01019:0000000000000015
#01018:0000001400140000
#01112:13
#01116:00001313
#01119:0000001500150015
#0571b:00130013
#05718:1313
#05710:41
#06318:00000013
#06314:0000000000000014
#06316:0000001300000000
#06319:00130000
#06312:0000000000130000
#0631b:2323
#06512:0000001500150015
#06517:00230023
#0651b:2323
#06412:0000000000000015
#06414:0000001400140000
#06418:00130000
#0641b:2323
#06116:00130013
#06119:0000001500150015
#06112:1323
#06019:0000000000000015
#06018:0000001400140000
#06015:00130000
#06012:1323
#05018:0000120000000013
#05016:0012001200000000
#05014:12
#0501a:0022
#04912:0000001200000000
#04916:0012
#04918:0000000000000012
#0491a:0000000000120000
#04315:00131300
#0431b:0000001300000000
#04318:13000014
#04312:0000000000000024
#0321b:00131300
#03212:0000130000000013
#03215:00000013
#03218:0000000000130000
#02516:00000013
#0251b:13000013
#02510:41
#01616:00140000
#0161a:24
#01612:0024
#01815:16
#01216:0000000000000013
#01212:0000000000130000
#01215:0013
#01218:0000001300000000
#00715:0000000000000013
#0071b:13
#00614:0000001300000000
#00612:0000000000000013
#0051b:0000000000000013
#00517:0000001300000000
#0041b:00000013000000000000000000001300
#00418:13
#00219:0000001300000000
#0021b:0000000000000013
#00312:13
#00112:0000000000000013
#00116:0000001300000000
#08415:13
#08418:13
#07717:0000000014000024
#07714:00000015
#07712:0000000014000024
#0731a:00000014
#07314:0014
#07318:00140000
#07315:00000024
#07319:0024
#07313:00240000
#07317:24
#03912:0000130000000014
#03916:0000000000140000
#0391a:0000001400000000
#00012:0000000000000013
#02418:0024
#02414:00240000
#0821a:0024
#08212:24
#0901b:0023
#09017:00230000
#09012:0023
#06614:0000002400000000
#06612:0024000000002400
#0661a:2400000000000000000000000000000024343434343434340000000000000000
#06618:00240000
#01712:26
#01718:26
#0811a:0024
#08112:24
#08116:24
#07815:0000000024000024
#0781a:0000000024000024
#07817:00000025
#08312:24
#0831a:24
#05857:6313
#05852:6313
#05856:00000023000000000000000000000000
#0585b:00000023000000000000000000000000
#08256:1414
#08252:64
#0885b:00130000
#08852:00000013
#08856:00630000
#08857:00000013
#0305b:00000013
#03052:00130000
#03056:00000013
#03057:00530000
#02852:00000013
#0285b:00130000
#02857:00000013
#02856:00630000
#00858:0013
#00855:6313
#00852:00000023000000000000000000000000
#00455:0013
#00458:5313
#0045b:00000023000000000000000000000000
#0965b:00130013
#09656:00130013
#09452:00130013
#09457:00130013
#0925b:00130013
#09256:00130013
#08652:00130000
#0865b:00000013
#08657:00530000
#08656:00000013
#07352:14
#0735a:00000014
#07354:0014
#07358:00140000
#05456:5313
#0545b:5313
#05457:00000023000000000000000000000000
#05452:00000023000000000000000000000000
#04952:13
#04958:13
#0465b:5313
#04655:5313
#04652:00230000
#04658:00230000
#0265b:00000013
#02652:00130000
#02656:00000013
#02657:00530000
#08156:1414
#0815a:0054
#08152:54
#04852:6363
#04858:0063
#0485b:00000023
#04855:00000023
#02458:0044
#02454:00340000
#0165a:64
#01656:00240000
#0135b:63
#0145b:63
#0155b:63
#0905b:0013
#09057:00130000
#09052:0013
#01752:56
#01758:16
#06952:1600000000000016
#0695a:6400000000000064
#06956:00240000
#07552:3400000000000064
#0755a:44
#07556:0000000000000014
#04454:0014
#04458:14
#08352:54
#0835a:54
#07158:1600000000000016
#0715a:0054
#07152:0000000000000054
#0745a:00000014
#07454:0014
#07458:00140000
#07452:14
#06758:1600000000000016
#06752:5400000000000054
#06756:00240000
#06252:13
#07656:0000000000000014
#0765a:0000000000000054
#0425b:0053
#04255:00000053
#03159:6363
#03154:6363
#03156:00230000
#03152:00000023
#0315b:00230000
#03157:00000023
#02357:00000053
#02258:00130000
#02252:00000013
#02156:00000063
#08956:00000053
#0895b:00000053
#08752:00000063
#08757:00000063
#02956:00000053
#0295b:00000053
#02757:00000063
#02752:00000063
#02055:00130000
#0205b:00000013
#01957:00000053
#07052:0064
#05252:63
#05256:0053
#05658:0053
#05655:63
#05552:63
#0555b:0053
#0515b:53
#05157:0063
#04758:0063
#04752:53
#04152:13
#04158:00630000
#0385b:5313
#03858:00000023000000000000000000000000
#0335b:13
#03355:00530000
#03555:0023000000000000
#03552:63
#0355b:0000000000230000
#03558:0063
#03655:13
#0975b:0023
#09756:0023
#09752:63
#09757:63
#09557:00000053
#09552:00630063
#0955b:5353
#09356:00000063
#0935b:00530053
#09352:6363
#09157:00000053
#09152:00630063
#0915b:5353
#0855b:00000053
#08556:00000053
#0685a:0054
#00952:53
#01052:53
#01152:53
#01159:0000000000000015
#0455b:0063
#04555:53
#02556:00000053
#0255b:00000053
#01855:26
#08455:23
#08458:23
#09852:00130000
#09857:00130000
#0805b:0053
#07958:0000000000000053
#07952:00000053
#07256:00540054
#07252:0054
#04355:0013
#04358:13
#001370:13
#0013b0:0000002300000000
#0013b0:0013
#001370:0000000000000023
#002320:13
#002360:0000002300000000
#002360:0013
#002320:0000000000000023
#0033b0:13
#003380:00230000
#003351:00130000
#003321:0023
#0033b0:0013
#003380:00000023
#003351:00000013
#004321:23
#004380:1300003323000000
#0043b0:00000053000000000000000000000000
#004351:0000001323000000
#005361:13
#005321:0000002300000000
#005321:0013
#005361:0000000000000023
#0063b1:13
#006371:0000002300000000
#006371:0013
#0063b1:0000000000000023
#007321:13
#007351:00230000
#007380:00130000
#0073b0:0023
#007321:0013
#007351:00000023
#007380:00000013
#0083b0:23
#008351:1300003323000000
#008321:00000053000000000000000000000000
#008380:0000001323000000
#009320:13
#009340:00230000
#009371:13230000
#010321:13
#010351:00230000
#010380:14240000
#011320:13
#011360:00230000
#011391:15250000
#0133b1:13
#013391:00230000
#013360:13230000
#0143b0:13
#014380:00230000
#014341:14240000
#0153b1:13
#015371:00230000
#015320:15250000
#0163a0:1424
#016360:00540000
#017320:16
#018350:56
#019320:26
#0193b1:1323
#019371:00330000
#019360:0013
#019320:00000023
#019371:00000013
#0203b1:00230000
#021321:1323
#021361:00330000
#021370:0013
#0213b0:00000023
#021361:00000013
#022321:00230000
#0233b1:1323
#023371:00330000
#023360:0013
#023320:00000023
#023371:00000013
#0243b1:00230000
#025351:13230000
#025380:00132300
#025321:0013
#025361:00000033
#026321:00230000
#0253b0:00000013
#026370:00330000
#0263b0:00000023
#027380:13230000
#027351:00132300
#0273b0:0013
#027370:00000033
#0283b0:00230000
#027321:00000013
#028361:00330000
#028321:00000023
#029351:13230000
#029380:00132300
#029321:0013
#029361:00000033
#030321:00230000
#0293b0:00000013
#030370:00330000
#0303b0:00000023
#031340:1333
#031360:00530000
#031320:00000053
#032340:23
#031391:1333
#0313b1:00530000
#031371:00000053
#032391:23
#033351:00130000
#033321:00000000000000332300000000000000
#034381:13
#0343b1:00230000
#0343b1:0013
#034381:00000023
#035321:13230000
#035351:0053000000000000
#035381:00001323
#0353b1:0000000000530000
#037351:13
#037321:00230000
#037321:0013
#037351:00000023
#0383b1:1300002300000000
#038381:00000053000000000000000000000000
#039381:13
#0393b1:00230000
#0403b1:13
#040381:00230000
#040321:0013
#040351:00000023
#041381:00130000
#0413b1:0023
#0423b1:0013
#042381:00000023
#042350:00000013
#043320:23
#045350:13
#045320:00230000
#0453b0:0013
#045380:00000023
#0463b0:1323
#046380:00530000
#046351:1323
#046321:00530000
#047321:13
#047351:00230000
#047381:0013
#0473b1:00000023
#048321:13
#048351:00230000
#048321:0013
#048351:0000000000005333
#049321:23
#048380:0013
#0483b0:0000000000005333
#049380:23
#0513b0:13
#051370:0000002300000000
#051370:0013
#0513b0:00000023
#052320:13
#052360:0000002300000000
#052360:0013
#052320:00000023
#0533b0:1333
#053370:00330023
#054360:1300003323000000
#054320:00000053000000000000000000000000
#0543b1:1300003323000000
#054371:00000053000000000000000000000000
#055321:13
#055351:00230000
#0553b1:0013
#055381:00000023
#056351:13
#056321:00230000
#056381:0013
#0563b1:00000023
#057321:1333
#057361:00330023
#058371:1300003323000000
#0583b1:00000053000000000000000000000000
#058320:1300003323000000
#058360:00000053000000000000000000000000
#059370:13230000
#060380:14240000
#061390:15250000
#063360:13230000
#064340:14240000
#065320:15250000
#0663a0:0000000000000000000000000000000014343434343434340000000000000000
#066360:00000024
#067320:1424
#067360:00540000
#067320:0000000000000014
#068360:00240000
#0683a0:0014
#068360:00000024
#0693a0:1424
#069360:00540000
#0693a0:0000000000000014
#070360:00240000
#070320:0014
#070360:00000024
#0713a0:0014
#071360:00000024
#071320:0000000000000014
#072360:00340034
#072320:0034
#073320:24
#075320:0000000000000014
#076360:00240000
#0763a0:0000000000000014
#077360:00240000
#077320:0000000000000014
#078320:00240000
#077371:0000000000000014
#078371:00240000
#078351:00000000000000000000000000001454
#078331:0000000000000000000000000000000000000000000000000000000000540054
#079351:54545454240000000000000000000000
#079331:0054005400540054000000000000000000000000000000000000000000000000
#0783a0:00000000000000000000000000001454
#078380:0000000000000000000000000000000000000000000000000000000000540054
#0793a0:54545454240000000000000000000000
#079380:0054005400540054000000000000000000000000000000000000000000000000
#079320:00000013
#080360:00230000
#079381:0000000000000013
#0803b1:00230000
#0803b1:0013
#080371:00000023
#081321:14
#081361:0024
#0813a0:0014
#082360:24
#082321:14
#082361:0024
#083321:14
#084351:53
#085321:23
#0833a0:14
#084380:53
#0853b0:23
#085360:00000013
#086320:00230000
#0853b1:00000013
#086371:00330000
#0863b1:00000023
#087371:00000013
#0883b1:00230000
#087320:00000013
#088360:00330000
#088320:00000023
#0893b0:00000013
#090370:00230000
#089361:00000013
#090321:00332300
#0913b1:13
#091371:00230000
#091320:00130000
#091360:0023
#0913b1:0013
#091371:00000033
#0923b1:00230000
#091320:00000013
#092360:00230000
#093320:13
#093360:00230000
#0933b1:00130000
#093371:0023
#093320:0013
#093360:00000033
#094320:00230000
#0933b1:00000013
#094371:00230000
#0953b1:13
#095371:00230000
#095320:00130000
#095360:0023
#0953b1:0013
#095371:00000033
#0963b1:00230000
#095320:00000013
#096360:00230000
#097320:13
#097360:0053
#098320:23
#097371:13
#0973b1:0053
#098371:23
