This file was generated by Ched 2.7.0.0.
#TITLE ""
#ARTIST ""
#DESIGNER ""
#DIFFICULTY 0
#PLAYLEVEL
#SONGID ""
#WAVE ""
#WAVEOFFSET 0
#JACKET ""
#REQUEST "ticks_per_beat 480"
#00002: 4
#BPM01: 184
#00008: 01
#TIL00: ""
#HISPEED 00
#MEASUREHS 00
#00915:0000000000130000
#00918:0000001300000000
#00912:0000000000000013
#0081b:0000000000000013
#00815:13
#01014:0000001400000000
#01017:0000000000140000
#0101a:0000000000000014
#01118:0000001600000000
#01115:0000000000160000
#01112:0000000000000016
#0121b:0000001300000000
#01215:0013
#01218:0000000000130000
#01212:0000000000000013
#03218:00001313
#03215:0000000000130013
#03214:13
#03918:0000001400000014
#03914:3300000000140000
#04315:13
#04312:0000001300000000
#04318:0013
#0431a:0000000000000024
#04414:14
#04415:0000000000000013
#04418:0024
#04412:0000002400000000
#04515:0000001300000013
#04518:0013
#0451b:13
#04915:0000000000130013
#0491b:0013
#0591f:11
#0591f:11
#05918:0000001300130000
#0591b:0000000000000013
#05915:0023
#06712:00000014
#0671f:21
#0671f:21
#0671a:2400000000000024
#07712:00000016
#07718:0000000016000026
#07915:0013
#07918:0000000000130013
#0791b:0000001300000000
#07912:00000013
#08015:0000001300001300
#08018:0013
#08715:1313
#08718:00130000
#08712:00000013
#08618:00130000
#08918:1313
#08915:00130000
#0891b:00000013
#08518:0013
#08515:00130000
#0851b:00000013
#08510:41
#08418:14
#08414:14
#00418:13
#01815:16
#0251b:00000013
#02512:13
#02515:00130000
#02518:0013
#02510:41
#05016:0000000000000013
#0581b:0000000000000013
#05812:13
#06018:0000001300130000
#0601b:0000000000000013
#06015:0023
#06118:0000001400140014
#06114:00002414
#0621b:0000001300000000
#06218:0000000000130000
#06212:0000000000000013
#06214:14
#06215:0023
#09712:16
#09715:0000000000160000
#04815:2300000000001333
#04818:0000001300000000
#04812:0023
#03518:0000001300000013
#03515:0013
#03512:13
#03615:13
#0361b:0013
#03612:00000013
#03417:0000000013000013
#03414:0000001300000000
#03419:00130000
#0341b:13
#03412:00000013
#03315:00130000
#0331b:13
#03312:00000000000000331300330000000000
#0381b:13
#03815:0000000000000013
#03715:0000001300000013
#03718:0013
#0371b:13
#03710:41
#04112:13
#04118:00000000000000000000003300000000
#04018:0000001300000013
#04015:0013
#04012:13
#05112:0000000000000013
#05117:0000001333000000
#0511b:13
#09818:00001313
#09815:0000000000130013
#01915:00000013
#01918:0013
#0191b:00130000
#07517:0000000000003414
#0751a:0014
#07516:24
#00215:0000000000000013
#00618:0000000000000013
#01318:2300000000130000
#01315:0000001300001300
#0131b:0000000000000013
#01418:0000001400000000
#01415:0000000000140000
#01412:0000000000000014
#01414:24
#01512:0000001600000000
#01515:0000000000160000
#01518:2600000000000016
#02012:00130000
#02115:0013
#02118:13000013
#02112:00130000
#02315:13000013
#02318:0013
#0231b:00130000
#02618:00130000
#0271b:13
#02718:00130000
#02715:0013
#02712:00000013
#02912:13
#02915:00130000
#02918:0013
#0291b:00000013
#04218:00000013
#04212:00000033000000000000000000000000
#04715:13
#04718:0000001300000013
#04712:0013
#04618:0000130000000013
#0461b:13
#04610:41
#05212:0000000000000013
#0521b:0000001333000000
#05217:13
#0541b:13
#05417:0000000000000013
#0531b:13
#05318:00130000
#05315:0013
#05312:00000013
#0551b:0000000000000013
#05516:0000001333000000
#05512:13
#0561b:0000000000000013
#05612:0000001333000000
#05616:13
#05712:13
#05715:00130000
#05718:0013
#0571b:00000013
#05710:41
#06315:0000001300130000
#06312:0000000000000013
#06318:00002313
#06415:0000001300130000
#06412:0000000000000013
#06418:0023
#06512:0000001400000024
#06514:0014000000140000
#06518:00140014
#0651a:1414
#06615:00000014000000000000000000000000
#06616:00000024
#06916:00000014
#0691a:0000000014000024
#06910:41
#07012:0014
#0701a:00000014
#07014:0000000000000014
#07112:0000001400000000
#07118:2414
#07114:00000014
#0711a:0000000000000014
#06812:0000000014000024
#06816:00000014
#07214:00000014
#07218:00140000
#07216:0014
#07615:0000000000003414
#07612:0014
#0221b:00130000
#02815:00130000
#03018:00130000
#03116:00000013
#03114:1313
#03112:00130000
#08815:00130000
#0911b:1313
#09115:1313
#09118:00130013
#09112:00130013
#09215:00130000
#0921b:00130000
#09312:1313
#09318:1313
#09315:00130013
#0931b:00130013
#09418:00130000
#09412:00130000
#0951b:1313
#09515:1313
#09518:00130013
#09512:00130013
#09615:00130000
#0961b:00130000
#07412:24
#07418:00240000
#07414:0024
#0741a:00000024
#07812:0000000026000026
#07818:00000026
#0831a:24
#08312:24
#08112:23
#0811b:0023
#01712:26
#09018:00230000
#09015:0023
#07318:00240000
#07314:0024
#0731a:00000024
#07312:24
#01615:0026
#08214:0023
#08219:0023
#02412:00230000
#0241b:0023
#00713:0000000000000033
#08454:24
#08458:24
#0835a:54
#08352:54
#00458:63
#0045b:0013
#01152:0000000000000016
#01855:26
#0255b:00000053
#04358:0013
#04355:13
#04454:14
#04458:0014
#04558:0053
#0455b:53
#07958:0000000000000053
#0865b:00000013
#08658:00530000
#0855b:00000053
#09752:66
#09755:0000000000260000
#04855:63000023
#04852:0063
#03655:13
#03555:0063
#03552:63
#03355:00530000
#0335b:13
#03352:0023
#0385b:53
#03858:0013
#03855:0000000000000053
#04152:13
#04952:13
#05157:0000006300000000
#0515b:53
#0815b:0053
#08152:53
#01752:56
#01955:00000063
#08752:00000063
#08852:00000013
#08855:00630000
#09058:00130000
#09055:0013
#0895b:00000053
#07452:14
#07458:00140000
#07454:0014
#0745a:00000014
#07557:0000000000000024
#0755a:0054
#07556:14
#05457:0013
#0545b:53
#00855:53
#00852:0013
#01558:0000000000000016
#02052:00530000
#02355:00000063
#02658:00630000
#03758:0053
#0375b:53
#04055:0063
#04052:63
#04755:53
#04752:0063
#0465b:5313
#04658:00230000
#0525b:0000005300000000
#05257:63
#05556:0000005300000000
#05552:63
#05652:0000006300000000
#05656:53
#05852:63
#05856:0013
#06552:0000000000000064
#06655:00000024000000000000000000000000
#0675a:6400000000000014
#07158:14
#06852:0000000000000054
#0695a:0000000000000064
#07655:0000000000000024
#07652:0064
#02158:00000053
#0225b:00630000
#02752:00000063
#02855:00530000
#0295b:00000053
#03058:00630000
#03156:00000023
#03154:5353
#03152:00230000
#03254:53
#09152:00000053
#09158:00000053
#09255:00530000
#09252:00000013
#0925b:00530000
#09258:00000013
#0935b:00000063
#09355:00000063
#09458:00630000
#0945b:00000013
#09452:00630000
#09455:00000013
#09552:00000053
#09558:00000053
#09655:00530000
#09652:00000013
#0965b:00530000
#09658:00000013
#06254:14
#02452:00130000
#0245b:0013
#000380:0000000000000013
#001380:3300000000000033
#0013b0:0000003333000000
#002380:33
#0023b0:0000003323000000
#003380:1333
#0033b0:00330033
#004380:33
#0043b0:0000003323000000
#004350:0000000000000013
#005350:3300000000000033
#005320:0000003333000000
#006350:33
#006320:0000003323000000
#007350:1333
#007320:00330033
#007330:0000000000000033
#008350:33
#008320:0000003323000000
#009350:13230000
#010380:14240000
#011320:16260000
#013380:13230000
#014340:14240000
#015380:16260000
#017320:16
#018350:56
#019320:26
#019350:00000013
#020320:00330000
#020350:00000023
#021380:00000013
#0223b0:00330000
#022380:00000023
#023350:00000013
#024320:00230000
#0253b0:00000013
#026380:00330000
#0263b0:00000023
#027320:00000013
#028350:00330000
#028320:00000023
#0293b0:00000013
#030380:00330000
#0303b0:00000023
#031340:1333
#031320:00530000
#031360:00000053
#032340:33
#032320:00230000
#033350:00130023
#033320:00000000000000333300330000000000
#035320:13
#035350:00230000
#035350:0013
#035320:00000023
#0373b0:13
#037380:00230000
#037380:0013
#0373b0:00000023
#0383b0:13
#038380:0000003323000000
#038350:0000000000000013
#039340:33
#039320:00230000
#040320:13
#040350:00230000
#040350:0013
#040320:00000023
#041380:00000000130000000000003323000000
#0413b0:0033
#042350:1323
#042320:00000033330000000000000000000000
#0453b0:13
#045380:00230000
#045380:0013
#0453b0:00000023
#0463b0:1323
#046380:00530000
#047350:13
#047320:00230000
#047320:0013
#047350:00000023
#048350:13
#048320:00230000
#048320:0013
#048350:0000000000005333
#049320:23
#0503b0:1323
#050390:0033003300000000
#050370:00330000
#0513b0:13000023
#051370:0000003333000000
#052370:13000023
#0523b0:0000003333000000
#0543b0:13
#054370:0000003323000000
#055320:13000023
#055360:0000003333000000
#056360:13000023
#056320:0000003333000000
#058320:13
#058360:0000003323000000
#059320:13
#059350:00230000
#060320:13
#060350:00230000
#061320:13
#061350:00230000
#0633b0:13
#063380:00230000
#0643b0:13
#064380:00230000
#065320:0000000000000014
#066350:00000054000000000000000000000000
#066320:0024
#0673a0:14
#067360:0024
#068320:0000000000000014
#069360:00240000
#0693a0:0000000000000014
#070360:00240000
#0753a0:0014
#075370:0000000000003434
#0763a0:00240000
#076320:0014
#076350:0000000000003434
#077320:00240000
#077380:0000000000000016
#078380:00260000
#078320:00000000000000000000000000001656
#078340:0000000000000000000000000000000000000000000000000000000000560056
#079320:56565656260000000000000000000000
#079340:0056005600560056000000000000000000000000000000000000000000000000
#079380:0000000000000013
#0803b0:00230000
#081320:13
#081350:0023
#0813b1:0013
#082381:23
#0833a1:14
#084381:54
#0853a1:24
#083320:14
#084340:54
#085320:24
#0853b0:00000013
#086380:00330000
#0863b0:00000023
#087320:00000013
#088350:00330000
#088320:00000023
#0893b0:00000013
#090380:00230000
#091320:00000013
#092350:00330000
#092320:00000023
#091381:00000013
#0923b1:00330000
#092381:00000023
#0933b1:00000013
#094381:00330000
#0943b1:00000023
#093350:00000013
#094320:00330000
#094350:00000023
#095320:00000013
#096350:00330000
#096320:00000023
#095381:00000013
#0963b1:00330000
#096381:00000023
#097321:16
#097351:0000000000560000
#098321:00260000
