This file was generated by Ched 2.7.0.0.
#TITLE ""
#ARTIST ""
#DESIGNER ""
#DIFFICULTY 0
#PLAYLEVEL
#SONGID ""
#WAVE ""
#WAVEOFFSET 0
#JACKET ""
#REQUEST "ticks_per_beat 480"
#00002: 4
#BPM01: 184
#00008: 01
#TIL00: ""
#HISPEED 00
#MEASUREHS 00
#00012:0000000000000012
#00818:0000000000000012
#00812:1200001200001200
#00817:00000012000000000000000000000000
#0081c:0000001200000000
#0091a:0000001200000000
#00919:0000000000000013
#00912:1224
#00918:0012
#0091c:0000000000120000
#01019:0000001300000000
#0101a:0000000000000014
#01012:1224
#01017:0013
#0101b:0000000000130000
#0111a:0000001400000000
#01118:0000000000140000
#01116:0000000000000014
#01115:00000014
#01112:1224
#01117:0014
#0121a:1400001400000012
#01218:0014
#01212:1424
#01216:0000000000140000
#01217:00000014000000000000000000000000
#0251b:13000013
#02512:00000013
#02517:1313
#02516:00130000
#02510:41
#03312:13130013
#03317:0000000013131313
#03316:14130000
#0331b:00000000000000130000000000001300
#0361b:1313
#03618:00000000000000000000001600000000
#03617:1313
#03612:00130016
#03916:1300001200000013
#03919:0000001500001300
#03915:0000000000150000
#03912:1300130000120000
#0391b:0000000000000013
#04312:0000130000001323
#04317:13
#04316:0013
#0431b:0000131313000000
#04314:0000001300000000
#0431a:00000014
#04318:0000000000000024
#04416:1425
#04412:13150013
#0441b:0000132323000013
#04417:00000013
#04414:0000002500000000
#04915:0016001600160016
#0491c:0012
#04919:00120012
#04912:1313
#0491b:23
#06718:2600160016000026
#06712:1600000000001c14
#0671f:21
#07118:2600001200000026
#07116:0012
#07112:1300001400001414
#0711a:00141400
#07115:0000000000140000
#07212:00141414
#07219:00140000140000000000000000000000
#07218:0000001414000000
#07217:0000000000141400
#07216:0000000000000014
#07317:00140000
#07314:0014
#0731a:00000014
#07316:24
#07312:00250028
#07318:0026
#07914:0014
#07916:0000000000140013
#07912:0000001400000000
#0791a:0000000000000014
#07918:00000014
#08012:0000001c14000000
#08016:00140000000000000000140000000000
#0801b:0000000000130000
#08312:25140000
#0831a:00140000
#08319:25
#00212:0000000000000012
#00217:1200001200001200
#0021c:00121200
#00317:1212120000121200
#0031c:1212
#00312:0000001200000012
#01818:16
#05012:1300130013000013
#05017:12
#05019:0012001200000000
#0501b:00120000
#0501c:0022
#0511b:1300130000000013
#05116:0000001313001300
#05112:1313
#05417:1300001300000013
#05412:00000013000000000000000000000000
#0541b:1300001300001300
#0471b:00130013
#04717:1313
#04719:0000001300000000
#04716:00130013
#04714:0000000000000013
#04712:13
#03517:0013130013000013
#03512:1300001813001300
#0351b:1300000000130000
#0341b:0013
#03417:1300000000000013
#03416:0000131813000000
#03412:13000013
#04214:00000013
#04212:13000018130000000000000000000000
#0421b:0013
#04217:0000000000000013
#04216:0000000000130000
#0411b:13001313
#04112:13130000
#04116:00000000130000000000001800000000
#04012:1300001300001300
#0401b:00131300
#04017:1313001300000000
#04016:0000000013130014
#0481b:0000130023000013
#04812:2300001300001300
#04817:2300001300000000
#04816:0000000023000013
#04614:0000000000000013
#04616:00000013000000000000000013000000
#0461b:1300001300001300
#04612:1300001300000000
#04610:41
#05216:13
#05212:0000130000000013
#0521b:1313
#05217:0000001313001300
#06912:2600160016001c26
#06918:16
#0691a:0000000000000014
#06910:41
#07016:00001313
#07015:00140000000000000000000000000000
#07014:0000000000000013
#07017:00130000
#02612:00001c13
#02617:00000013
#09212:1313
#09216:13001313
#0921b:00130000
#09215:0033000000000000
#07615:00140000000000000000000000000000
#07612:0000140018001414
#0761a:00001414
#07616:0000000000000018
#0751a:1400000000001414
#07512:2800000014001418
#07516:0018
#03816:0013131813000013
#0381b:13001313
#03812:1300000000130000
#03712:0000001813000000
#03717:1300130013000013
#0371b:13000013
#03710:41
#0451b:1300000000000013
#04512:0000001313000000
#04516:00131300
#04517:13000013
#00117:00121200
#0011c:0000001200000012
#00112:00000012
#0041c:1200001200000012
#00417:00000012000000000000000000000000
#00412:0000001200001200
#05512:1300130000000013
#05517:0000001313001300
#0551b:1313
#05617:13
#0561b:0000130000000013
#05612:1313
#05616:0000001313001300
#01314:0000001200000000
#0131a:0000000024000012
#01316:2412
#01312:0000120000140000
#0131c:22
#01414:0000001200000000
#01416:2412
#01412:0000120000140000
#0141a:0000000024000012
#01418:0000000000120000
#0141c:22
#01512:00241424
#0151a:00002414
#01516:2400001400140014
#0151c:22
#01612:14
#01612:24
#01616:00140000
#0161a:2400000024000000240000002400000024343434343434340000000000000000
#01614:0034003400000000
#02712:13000013
#0271b:00000013
#02716:1313
#02717:00130000
#0281b:00000013
#02812:001c
#02816:00000013
#0291b:13000013
#02912:00000013
#02917:1313
#02916:00130000
#03015:00000013
#03012:001c
#03018:00000013
#07414:00140000
#07418:00251400
#07413:00000014
#07416:14
#07412:2426
#07417:00000027
#07717:00140000000000000000000000000000
#07712:00001c14
#07718:0000160000000023
#0771a:00000014
#0771b:0000000000000023
#08117:00140000
#08114:00000015
#0811b:23
#08112:24
#08119:0025
#08217:00160000
#08212:26
#08218:0026
#09012:1300000023001318
#0901b:00230013
#09016:00242400
#06017:1200001300000000
#06012:0000000024000014
#0601b:0000000000130000
#06019:0013
#05816:1300001300000012
#0581b:00000013000000000000000013000000
#05812:1300001300000000
#05918:1200001200000000
#05914:0000000000000013
#0591c:0000000000120000
#0591a:0012
#0591f:11
#05912:0024
#06116:1300001400000000
#0611a:0000000014140000
#06112:0000000024000013
#0621b:0000001300000000
#0621c:0000000000000012
#06216:0000140000140014
#06215:14
#06212:1300001300000000
#06214:0023
#06219:0023
#0631a:0000001200120000
#06314:0000001200120000
#06316:0000000024000012
#0631c:2212
#06318:00000012
#06312:24120012
#06414:0000001300130000
#06412:2313
#0641b:00130013
#06418:0000000000000013
#06419:0000001300130000
#06416:00002413
#0641a:24
#06518:0016
#06512:240015002400181c
#06514:0000000000180000
#06515:0000001600000000
#06516:0014000000000000
#0651a:14240024
#08517:13130013
#08516:0013
#0851b:00130013
#08512:13
#08510:41
#05312:00001313
#05317:13130000
#05319:0000000000130000
#05316:0013
#05318:0013000000000000
#0531b:13
#06616:18240000
#06618:0016002400000000
#06612:2400141618000000
#06614:0024000000000000
#0661a:0000000000000000000000000000000024343434343434340000000000000000
#08612:13001c13
#08617:00000013
#0911b:13
#09117:13130000
#09116:0013000013001318
#09112:0013000000000000
#02418:0000000000000013
#02415:00000013
#0241b:1323
#02416:00242400
#02412:00230000
#08716:13130013
#08712:00130013
#0871b:13
#08717:0013
#0881b:13000013
#08812:001c
#08816:00000013
#03214:00120012
#0321a:0000120000140000
#03216:1200001200120018
#03218:0012000012001600
#03212:0000000000000012
#0321c:0012
#0981a:00120012
#09814:00120000
#09818:1200001200120000
#09816:0012000012000000
#0981c:0000000000000012
#09812:0000000012141618
#09716:14000014
#09714:0014
#09712:00140000
#0971c:12001212
#09718:00120000
#0971a:0012001200120012
#09412:00130000
#0941b:1313
#09417:13001313
#09418:0033000000000000
#06817:00140000130000001300000013000000
#06819:0000000000000013
#0681b:0013
#0061c:0000000000000012
#00617:1200001200001200
#00612:00121200
#00717:1212120000121200
#00712:1212
#0071c:0000001200000012
#00716:0000000000000012
#00517:00121200
#00512:0000001200000012
#0051c:00000012
#02216:00001313
#0221b:00000013
#02212:1313
#02217:13
#09617:0013
#09616:13
#0961b:00131300
#09612:13000013
#09615:0033000000000000
#09517:1300001300000000
#0951b:1313
#09516:0013000000131300
#09512:000013000000001c
#09312:1300000000000018
#09316:13130000
#09317:0013000013001300
#0931b:0013000000000000
#02112:1313
#02117:13130000
#0211b:0000001300001300
#02116:0013000000001300
#0571b:00001313
#05716:13130000
#05714:0000000000130000
#05717:0013
#05715:0013000000000000
#05712:13
#05710:41
#03116:14120014
#03118:0014
#0311a:00140000
#03112:12001212
#03114:0012001200120012
#02017:00001313
#02012:00000013
#0201b:1313
#02016:13
#0191b:1313
#01916:00130000
#01912:0000001300001300
#01917:0013000000001300
#02316:1313000000001300
#02312:13000013
#02317:0000001313000000
#0231b:00130000
#08917:00130013
#0891b:00000013
#08916:1313
#08912:13
#07812:000000140000000000000000000000002c000000000000002400000000000000
#07817:0000001400000000000000000000000000000000000000000000000000000000
#0781a:00000024
#0781b:0000000000000023
#07818:0000000000000023
#01718:26
#01712:26
#07158:1600000000000016
#0715a:0054
#07152:2300000000000054
#07155:0000000000240000
#0835a:00240000
#08352:55240000
#08359:55
#01156:0000000000000014
#01152:52
#01858:26
#0255b:00000063
#02552:00000053
#02557:6363
#02556:00630000
#05457:5300005300000000
#05452:00000023000000001300000000000000
#0545b:1300005300000000
#05456:0013
#01052:52
#00952:52
#06758:4600260000000046
#06752:5600000000000054
#07252:00545454
#07256:0000000000000024
#07257:0000000000240000
#07258:0000002400000000
#07259:00240000000000000000000000000000
#00456:0012
#0045c:5200005200000000
#00457:00000022000000000000000000000000
#00458:0012
#00452:0000006200000000
#0475b:00000023
#04757:4353
#04756:00230000
#04752:5333
#03657:13
#0365b:53
#03557:0023000063000000
#0355b:1300000000230000
#03552:6313
#03352:00530000
#03356:14
#04254:00000053
#04252:00230000
#0425b:0053
#04256:0000000000230000
#04257:0000000000000023
#05156:0053
#05152:63
#0515b:13
#05257:0063
#0525b:53
#05256:13
#06952:3600260000000036
#06958:66
#0695a:0000000000000064
#07552:3800000000000038
#0755a:0000000000000054
#07556:0048
#08159:0055
#08152:5434
#08157:00240000
#08154:00000025
#0815b:43
#01752:56
#01758:46
#02652:00000013
#02657:00000013
#0265b:00130000
#02656:00130000
#07655:00240000000000000000000000000000
#07652:0000000038000064
#07656:0000000000000048
#08252:6636
#08257:00260000
#08259:45
#03457:23
#0345b:0053
#0385b:5313
#03856:0023000053000000
#03852:0000000000230000
#03752:0063
#03757:23
#03956:53
#04052:53
#04057:0023000000000000
#04056:0000000000230000
#0405b:0063
#04152:33230000
#0415b:43000023
#04452:33
#04456:4435
#0445b:0043
#04556:0063
#04557:53
#00357:0022520000225200
#0035c:5252
#00352:0000002200000022
#05557:0063
#0555b:53
#05552:13
#05656:0053
#05652:63
#05657:13
#0155c:62
#0145c:62
#0135c:62
#01652:54
#01656:00240000
#01252:54
#01257:00000024000000000000000000000000
#02752:00000053
#0275b:00000063
#02756:5353
#02757:00530000
#0285b:00000013
#02856:00000013
#02857:00130000
#02852:00130000
#0295b:00000063
#02952:00000053
#02957:6363
#02956:00630000
#03055:00000013
#03058:00000013
#03052:00130000
#0305b:00130000
#07056:0053
#07055:00240000000000000000000000000000
#07057:00630000
#07352:34
#07354:0034
#0735a:00000044
#07357:00440000
#07452:3436
#07458:00450000
#07457:00000047
#07757:00240000000000000000000000000000
#07758:0000000000000053
#0775b:0000000000000053
#0795a:0000000000000054
#07956:0000000000000053
#08056:00240000000000000000240000000000
#08052:0064
#0805b:0000000000230000
#09256:00005333
#09252:53
#09257:00330000
#0605b:0000000000530000
#06057:22
#0595c:0000000000520000
#05958:22
#06255:54
#06252:13
#05359:0000000000230000
#05356:0053
#05358:0023000000000000
#0535b:53
#05357:13
#05352:0013
#08557:00530063
#08556:0063
#0855b:00630063
#08552:53
#08652:23000043
#0865b:00430000
#08656:00430000
#08657:00000043
#0915b:53
#09157:53530000
#09156:0023000053000000
#09152:0023000000000000
#0655a:14
#06552:00150018
#06558:0016
#08756:00630053
#08752:00530053
#0875b:63
#08757:0053
#0885b:23000033
#08852:00330000
#08857:00330000
#08856:00000033
#03254:00120000
#0325a:00120000
#0985a:00120000
#09854:00120000
#09756:54000024
#09754:0054
#09752:00240000
#09456:00430000
#0945b:63
#09457:00006343
#06857:00240000000000006300000000000000
#04352:33
#04357:43
#0435b:0043
#04356:0033
#04852:53
#0485b:0063
#04857:33
#04856:0033
#00752:6262
#00757:0022620000226200
#0075c:0000002200000022
#00852:6200006200000000
#00857:00000022000000000000000000000000
#0085c:0000005200000000
#00856:0012
#00858:0012
#02256:00430043
#0225b:00430043
#02252:23
#02257:23
#0635c:52
#06452:63
#0965b:0063
#09652:53
#09656:00000013
#09657:00130000
#0955b:5353
#09556:0023000000230000
#09552:00630000
#09557:0000002300000000
#09352:63
#09356:63630000
#09357:0023000063000000
#0935b:0023000000000000
#02152:5353
#02157:00530000
#0215b:0000002300006300
#02156:0023000000006300
#04656:00000023000000000000000000000000
#0465b:0000005300000000
#04652:6300006300000000
#04655:0013
#04658:0013
#0575b:0013
#05754:0000000000230000
#05757:0063
#05755:0023000000000000
#05752:63
#05756:13
#05856:6300006300000000
#0585b:00000023000000001300000000000000
#05852:1300006300000000
#05857:0013
#03156:64000024
#03158:0064
#0315a:00240000
#02057:00330033
#02052:00330033
#0205b:23
#02056:23
#0195b:6363
#01956:00630000
#01952:0000002300005300
#01957:0023000000005300
#0495b:43
#02356:0023000000005300
#02352:53000053
#02357:0000002353000000
#0235b:00630000
#0245b:2343
#02456:00344400
#02452:00330000
#08957:00630063
#0895b:00000063
#08956:6363
#09052:2333
#09056:00443400
#0905b:00430000
#06156:23
#0615a:0000000000540000
#07852:0000002400000000000000000000000000000000000000000000000000000000
#07857:0000002400000000000000000000000000000000000000000000000000000000
#001370:12
#0013c0:00220000
#0013c0:0012
#001370:00000022
#002320:12
#002370:00220000
#002370:0012
#002320:00000022
#0033c0:12220000
#003370:0052000000000000
#003371:00122200
#003321:0000005200000000
#0033c0:00001222
#003370:0000000000520000
#003371:00000012
#003321:0000000000000052
#004371:22
#0043c0:1200003200000000
#004370:00000052000000000000000000000000
#004380:0022
#004321:0000001200000000
#004361:0022
#005371:12
#005321:00220000
#005321:0012
#005371:00000022
#0063c1:12
#006371:00220000
#006371:0012
#0063c1:00000022
#007321:12220000
#007371:0052000000000000
#007370:00122200
#0073c0:0000005200000000
#007321:00001222
#007371:0000000000520000
#007370:00000012
#0073c0:0000000000000052
#008370:22
#008321:1200003200000000
#008371:00000052000000000000000000000000
#008361:0022
#0083c0:0000001200000000
#008380:0022
#009380:12220000
#009321:12
#009361:00220000
#009361:0000000000120022
#010391:13230000
#010320:12
#010370:00220000
#010350:0000000000130023
#0113a0:14240000
#011321:12
#011381:00220000
#012321:1400002400000000
#012371:00000054000000000000000000000000
#0133c1:12
#013381:00220000
#013381:0000000000122200
#013360:0000000000001222
#0143c0:12
#014370:00220000
#0153c0:12
#015360:00220000
#016320:1424
#016340:0034003400000000
#016360:00340000
#0163a1:0000000000000000000000000000000014343434343434340000000000000000
#016321:00000024
#017321:16
#018381:56
#019321:26
#0193b0:13230000
#019370:0053000000000000
#019361:00132300
#019321:0000005300000000
#0193b0:0013
#019370:00000033
#0203b0:53
#020370:00230000
#019321:00000013
#020361:53
#020321:00230000
#021321:13230000
#021361:0053000000000000
#021370:00132300
#0213b0:0000005300000000
#021321:0013
#021361:00000033
#022321:53
#022361:00230000
#0213b0:00000013
#022370:53
#0223b0:00230000
#023320:13230000
#023360:0053000000000000
#0233b1:00132300
#023371:0000005300000000
#023370:0013
#023320:00000033
#024360:54240000
#023361:00000013
#0243b1:53
#024321:00230000
#025371:13
#025321:00230000
#025360:00130000
#0253b0:0023
#025371:0013
#025321:00000033
#0263b1:00230000
#0253b0:00000013
#026360:00230000
#027360:13
#0273b0:00230000
#027371:00130000
#027321:0023
#027360:0013
#0273b0:00000033
#028320:00230000
#027321:00000013
#028371:00230000
#029371:13
#029321:00230000
#029360:00130000
#0293b0:0023
#029371:0013
#029321:00000033
#0303b1:00230000
#0293b0:00000013
#030320:00230000
#031360:14000054
#0313a0:00540000
#031380:0034
#0323a0:24
#033320:00130000
#033370:00000000000000230000000000000000
#034370:13
#0343b0:00230000
#0343b0:0013
#034370:00000023
#035320:13230000
#035370:0053000000000000
#035370:00001323
#0353b0:0000000000530000
#0363b0:13
#036360:00230000
#037370:13
#037320:00230000
#037320:0013
#037370:00000023
#0383b0:13230000
#038360:0053000000000000
#038360:00001323
#038320:0000000000530000
#039360:13
#0393b0:00230000
#040320:13230000
#040370:0053000000000000
#0403b0:00001323
#040360:0000000000530000
#041320:00130000
#041370:0023
#0413b0:00000013
#042360:23
#042320:00130000
#042370:0023
#0423b1:0013
#042361:0000000000530000
#042391:00000023
#042340:00000013
#042370:0000000000000053
#043320:23
#045370:13
#045320:00230000
#045360:0013
#0453b0:00000023
#046320:1300003300000000
#046360:00000053000000000000000000000000
#046350:0023
#0463b1:0000001300000000
#046381:0023
#047321:1323
#047361:00330000
#047370:0013
#0473b0:00000033
#048370:23
#048321:13
#048371:00230000
#0483b1:0013
#048361:00000023
#051321:13
#051361:00230000
#051361:0013
#0513b1:00000023
#0523b1:13
#052371:00230000
#052371:0013
#052321:00000023
#0533b1:13330000
#053381:0053000000000000
#053361:00003323
#053391:0000000000530000
#054371:1300003300000000
#054321:00000053000000002300000000000000
#0543b0:0000001300000000
#054360:0023
#0553b0:13
#055370:00230000
#055370:0013
#055320:00000023
#056320:13
#056360:00230000
#056360:0013
#0563b0:00000023
#057320:13330000
#057350:0053000000000000
#057370:00003323
#057340:0000000000530000
#058360:1300003300000000
#0583b0:00000053000000002300000000000000
#058321:0000001300000000
#058371:0023
#059361:12220000
#059380:12
#0593c0:00220000
#0593c0:0000000000120000
#059370:0000000000000022
#060340:13230000
#060371:12
#0603c1:00220000
#0603b1:0000000000130000
#060361:0000000000000023
#061321:14240000
#061360:13
#0613b0:00230000
#0613a0:0000000000140000
#061350:0000000000000024
#062350:14
#0623a0:00240000
#0633c0:12
#063380:000000000000000000000000520000005252515200000000000000000000000000525200520000000000000000000000220000000000000000000000000000000000000000000000000000000000000000000000000000000000000000000000000000000000000000000000000000000000000000000000000000000000000000000000000000000000000000000000000000000000000000000000000000000000000000000000000000000000000000000000000000000000000000000000
#063390:000000000000000000000000000000000000000000000000000000000000000000000051000000000000000000000000000000000000000000000000000000000000000000000000000000000000000000000000000000000000000000000000000000000000000000000000000000000000000000000000000000000000000000000000000000000000000000000000000000000000000000000000000000000000000000000000000000000000000000000000000000000000000000000000
#064320:13
#064360:000000000000000000000000530000005353005300000000000000000053525300535351530000000000000000000000230000000000000000000000000000000000000000000000000000000000000000000000000000000000000000000000000000000000000000000000000000000000000000000000000000000000000000000000000000000000000000000000000000000000000000000000000000000000000000000000000000000000000000000000000000000000000000000000
#064380:0000005100000000000000000000000000000000000000000000000000000000
#0663a0:0000000000000000000000000000000014343434343434340000000000000000
#066320:00000024
#067320:1626
#067380:00560000
#067320:0000000000000014
#068370:00540000000000000000000000000000
#068320:00240000
#068370:0013
#068320:00000023
#069380:1626
#069320:00560000
#0693a0:0000000000000014
#070350:00540000000000000000000000000000
#0703a0:00240000
#070371:00130000
#070321:0023
#070360:0013
#0703b0:00000023
#071320:13
#071360:00230000
#0713a0:00001424
#071350:0000000000540000
#071320:0000000000000014
#072390:00540000000000000000000000000000
#072320:00343434
#072380:0000005400000000
#072370:0000000000540000
#072360:0000000000000054
#073320:24
#0753a0:0000000000000014
#076350:00540000000000000000000000000000
#0763a0:00240000
#076320:0000000000000014
#077370:00540000000000000000000000000000
#077320:00240000
#0773b0:0000000000000013
#078370:0000005400000000000000000000000000000000000000000000000000000000
#078390:00250000
#077381:0000000000000013
#078321:0000005400000000000000000000000000000000000000000000000000000000
#078331:00250000
#0783b1:00000000000000000000000000001353
#078391:0000000000000000000000000000000000000000000000000000000000530000
#078381:0000000000000000000000000000000000000000000000000000000000000053
#0793a1:53
#079371:0053000000000054000000000000000000000000000000000000000000000000
#079391:00530054250000000000000000000000
#079361:0000005400540000000000000000000000000000000000000000000000000000
#079381:0054000000000000
#078380:0000000000000013
#078350:0000000000000000000000000000000000000000000000000000000000530000
#078370:00000000000000000000000000000053
#078340:0000000000000000000000000000000000000000000000000000000000000053
#079360:53
#079330:0053000000000000250000000000000000000000000000000000000000000000
#079350:00530000000000000000000000000000
#079320:0000005300530054000000000000000000000000000000000000000000000000
#079340:00005354000000000000000000000000
#079360:0000000000000013
#080320:00530000230000000000000000000000
#0793a1:0000000000000014
#080361:00540000000000000000000000000000
#0803a1:00240000
#0803b1:0000000013530000
#080371:00000023
#080320:00001424
#080360:0000000000540000
#081320:1424
#081370:00540000
#081391:0015
#081341:00000055
#082391:25
#082320:1626
#082370:00560000
#083390:15
#083320:00540000
#0843c0:00000022
#083321:15
#0833a1:00540000
#084321:00000022
#085321:1323
#085371:00330000
#0853b0:00130033
#085360:0033
#086360:53230000
#085371:00000013
#086321:53
#0863b1:00230000
#0873b1:1323
#087361:00330000
#087320:00130033
#087370:0033
#088370:53230000
#087361:00000013
#0883b1:53
#088321:00230000
#089361:13
#0893b1:00230000
#089370:00130000
#089320:0023
#089361:0013
#0893b1:00000033
#090361:54240000
#089370:00000013
#090320:53
#0903b0:00230000
#091370:13330000
#091320:0053000023000000
#0913b1:13230000
#091361:0053000000000000
#091361:0013
#0913b1:00000023
#092321:13
#092351:0033000000000000
#092371:00230000
#092361:0013
#0923b1:00000023
#093361:13330000
#0933b1:0053000023000000
#093320:13230000
#093370:0053000000000000
#093370:0013
#093320:00000023
#0943b0:13
#094380:0033000000000000
#094360:00230000
#094370:0013
#094320:00000023
#0953b0:13230000
#095360:0053000000000000
#095321:00132300
#095371:0000005300000000
#0953b0:00001323
#095360:0000000000530000
#096320:13
#096350:0033000000000000
#096370:00230000
#0963b0:0013
#096360:00000023
#097360:14000054
#097320:00540000
#097340:0034
#098320:24
