This file was generated by Ched 2.7.0.0.
#TITLE ""
#ARTIST ""
#DESIGNER ""
#DIFFICULTY 0
#PLAYLEVEL
#SONGID ""
#WAVE ""
#WAVEOFFSET 0
#JACKET ""
#REQUEST "ticks_per_beat 480"
#00002: 4
#BPM01: 184
#00008: 01
#TIL00: ""
#HISPEED 00
#MEASUREHS 00
#0131a:14
#01314:0014
#01418:14
#01412:0014
#0151a:14
#01514:00140000
#01518:0014
#01512:00000014
#01618:14
#01614:00140000
#0161a:0014
#01814:16
#0191a:0014
#02014:14
#02018:0014
#02112:14
#0211a:0014
#02214:14
#02218:0014
#02312:14
#0231a:0014
#02414:14
#02418:00140000
#02412:0014
#0251a:1414
#02510:41
#02614:1414
#02718:1414
#02812:1414
#0291a:1414
#03014:1414
#03118:16
#03116:00000016
#03312:14
#0331a:0014
#03412:14
#03414:0014
#03418:00140000
#0341a:00000014
#0421a:00140000
#04214:14
#04212:0014
#04218:00000014
#05014:14
#0541a:14
#0531a:14
#05314:00140000
#05318:0014
#05312:00000014
#05812:14
#05712:14
#05718:00140000
#05714:0014
#0571a:00000014
#05710:41
#0631a:14
#06314:0014
#06418:14
#06412:0014
#0651a:14
#06514:00140000
#06518:0014
#06512:00000014
#06618:14
#06614:00140000
#0661a:0014
#06612:00000026
#06912:16
#06914:0000000000001636
#06910:41
#06716:0000000000001636
#06718:26
#0671f:21
#07118:16
#07116:0000000000001636
#07312:16
#07314:00160000
#07316:0016
#07318:00000016
#0761a:0014
#07614:0000000000001434
#07712:0014
#07718:0000000000001434
#07514:0000000000001434
#07512:26
#0751a:0024
#07912:0014
#07918:00000014
#07914:0000000000000014
#08416:16
#08512:0014
#08510:41
#08618:14
#08614:0014
#0871a:14
#08712:0014
#08818:14
#08814:0014
#0891a:14
#08912:0014
#09018:14
#09014:00140000
#0901a:0014
#09112:1414
#09218:1414
#09314:1414
#0941a:1414
#09512:1414
#09618:1414
#09712:16
#09714:00000016
#09818:00000014
#09814:0000000000000014
#04314:14
#04318:0014
#04514:0014
#04512:14
#04612:14
#04610:41
#04718:0014
#0471a:14
#04818:0014
#0481a:14
#0361a:0014
#03614:00000014
#03718:0014
#0371a:14
#03710:41
#0381a:14
#03914:14
#03918:0014
#0411a:0014
#08012:00000000341400000000000000000000
#08013:0034
#0591f:11
#01712:26
#07412:26
#07414:00260000
#07416:0026
#07418:00000026
#07812:0024
#07818:0000000000002434
#08118:26
#08112:0026
#08218:26
#08212:0026
#08318:26
#04412:26
#04418:0026
#01752:56
#01854:26
#03156:00000026
#03158:56
#03352:14
#04154:14
#05458:0014
#0545a:54
#05852:64
#05854:0014
#06758:56
#06756:00000026
#06952:66
#06954:00000026
#07158:56
#07156:00000026
#07552:16
#07554:00000054
#07654:00000054
#08456:26
#08358:56
#09752:66
#09754:00000026
#04354:14
#04358:0014
#04554:0064
#04552:64
#04652:64
#04758:0054
#0475a:54
#04858:0054
#0485a:54
#04452:16
#04458:0016
#0495a:14
#03758:0054
#0375a:54
#0385a:54
#03652:14
#07858:00000054
#07758:00000054
#07954:0000000000000054
#08052:00000000002400000000000000000000
#0013a0:14
#002380:3424
#003340:14
#004320:3424
#005380:14
#0063a0:3424
#007320:14
#008340:3424
#0093a0:1424
#010340:1424
#011380:1424
#012320:1424
#017320:16
#018340:56
#019320:26
#031380:16
#031360:00000056
#032380:0026
#035320:14
#035340:0034
#036320:24
#0373a0:14
#037380:0034
#0383a0:34
#038380:0024
#040340:14
#040320:0034
#041340:24
#045320:14
#045340:0034
#046320:34
#046340:0024
#0473a0:14
#047380:0034
#0483a0:34
#048380:0034
#0493a0:24
#0513a0:14
#051380:0024
#052320:14
#052340:0024
#0543a0:14
#054380:0024
#055320:14
#055340:0024
#0563a0:14
#056380:0024
#058320:14
#058340:0024
#0593a0:1424
#060340:1424
#061380:1424
#062320:1424
#067380:16
#067360:0000000000003636
#068380:0026
#069320:16
#069340:0000000000003636
#070320:0026
#071380:16
#071360:0000000000003636
#072380:0026
#075340:0000000000001434
#076320:00240000
#076340:0000000000001434
#077320:00240000
#077380:0000000000001434
#0783a0:00240000
#078380:0000000000001434
#0793a0:00240000
#079340:0000000000000014
#080320:00000000345400000000000000000000
#080330:0034
#080340:00000024
#083380:16
#084360:56
#085380:26
#097320:16
#097340:00000056
#098320:0026
