This file was generated by Ched 2.7.0.0.
#TITLE ""
#ARTIST ""
#DESIGNER ""
#DIFFICULTY 0
#PLAYLEVEL
#SONGID ""
#WAVE ""
#WAVEOFFSET 0
#JACKET ""
#REQUEST "ticks_per_beat 480"
#00002: 4
#BPM01: 148
#00008: 01
#TIL00: ""
#HISPEED 00
#MEASUREHS 00
#00512:14
#00618:14
#00714:14
#0081a:14
#00912:14
#01018:14
#01114:14
#0121a:14
#02112:14
#02110:41
#02212:14
#02318:14
#02418:14
#02514:14
#02614:14
#0271a:14
#0281a:14
#02810:41
#02912:14
#0291f:11
#03018:14
#03114:14
#0321a:14
#03718:0016
#03712:26
#0371f:21
#03710:00000041
#03812:16
#03818:0016
#04112:1616
#04218:1616
#04312:16
#04318:0016
#04512:0016
#04518:26
#04618:16
#04612:0016
#04918:1616
#05012:1616
#05118:16
#05112:0016
#06912:14
#07018:14
#07114:14
#0721a:14
#07312:14
#07418:14
#07514:14
#06118:26
#01310:41
#05310:41
#06210:41
#0003a0:14
#0023a0:34
#0043a0:24
#013320:14
#014320:24
#015380:14
#016380:24
#017340:14
#018340:24
#0193a0:14
#0203a0:24
#033330:14
#034330:24
#035390:14
#036390:24
#039320:1626
#040380:1626
#044320:1626
#047380:1626
#048320:1626
#052380:1626
#053320:16000036
#053330:0000003600000000
#054330:0036000000000036
#054320:0036
#055320:00360000
#055330:0000000000360000
#056320:36000036
#056330:0000003600000000
#057330:0036000000000036
#057320:0036
#058320:00360000
#058330:0000000000360000
#059320:36000036
#059330:0000003600000000
#060330:0036000000000000
#060320:0026
#061380:16000036
#061370:0000003600000000
#062370:0036000000000036
#062380:0036
#063380:00360000
#063370:0000000000360000
#064380:36000036
#064370:0000003600000000
#065370:0036000000000036
#065380:0036
#066380:00360000
#066370:0000000000360000
#067380:36000036
#067370:0000003600000000
#068380:26
#0763a0:1400000000000034
#0783a0:0024
