This file was generated by Ched 2.7.0.0.
#TITLE ""
#ARTIST ""
#DESIGNER ""
#DIFFICULTY 0
#PLAYLEVEL
#SONGID ""
#WAVE ""
#WAVEOFFSET 0
#JACKET ""
#REQUEST "ticks_per_beat 480"
#00002: 4
#BPM01: 148
#00008: 01
#TIL00: ""
#HISPEED 00
#MEASUREHS 00
#00518:13001300000000000013000013000000
#00515:00130000000000000000130000001300
#0051b:00000000001300130000000000001300
#00512:0000001313001300
#00615:13001300000000000013000000001300
#00618:00130000000000000000230000130000
#00612:00000000001300130000000023000000
#0061b:00000000000013001300000000000013
#00712:1313000000001300
#00715:0000130000130013
#00718:00130013000000001300001300000013
#0071b:00000000001300000000000000130000
#00812:1313000024000000
#00818:00130013000000000014000000000013
#00815:0000131300000013
#0081b:00000000001300130000000000130000
#0081a:00000000000000000000001400000000
#00814:0000000000240000
#00816:00000024
#00918:00000000130000000000001300001300
#00915:00000000001300000000130000000013
#0091b:0013001300000000
#00912:00000013000000130000000013000000
#01018:00000000130013000000230000130000
#01015:00130000001300130000000023000000
#0101b:13000000000000002300000000000013
#01012:0000000000000013
#01115:13000000001300000000000000130000
#01118:0000131300130013
#01112:00000013000000000000001300000013
#0111b:00000013
#01215:00230000000013000000000000000000
#01218:00000023000000130000230000002300
#0121b:23000000001300000000000023000000
#01212:00230000
#01315:00001300000000000000130000000013
#01318:0000130013000013
#01312:2400001300002300
#0131b:0000001300001300
#0131a:24
#01310:41
#01412:0013000000001300
#01415:00130000
#01418:1300001300000000
#01414:0000000000130000
#01419:0000000000000013
#0141b:0013000013000000
#01416:00002424
#01515:00130000
#01512:0000000000131300
#0151b:1300001300000000
#01612:0013000023001400
#0161b:0000001300002300
#01616:0000000000130000
#01617:0000000000000013
#0161a:0014
#01618:13
#01712:1400000013131300
#0171a:14
#01718:00001300130000130000000000001300
#01715:00000013000000000000000000000000
#0171b:00000000000000000013001300000000
#01812:00000013001300000013001300000000
#0181b:00000033133300001300130013000000
#01815:23000000000000130000000000001300
#01818:00130000000000000000000000000000
#01918:0013130000130000
#01915:00000013000000000013000000001300
#01912:23000000000013000000001300000000
#0191b:23001313
#02018:00160000
#02012:24160000
#02016:0014000000000000
#0201a:24
#02118:0000130016000013
#02112:23000000000000130000130000000000
#02115:00001300001300000000000013000000
#0211b:1313001300000000
#02110:41
#02312:1313001316000000
#0231b:23000000000000130000130000000000
#02318:00001300001300000000000013000000
#02315:0000130000000013
#0221b:00130000
#02215:00001300001300001600000000001300
#02218:0000001300000000
#02212:23000000000000130000000000000000
#02412:00130000
#02418:00001300001300000000000000001300
#02415:0000001316000000
#0241b:23000000000000130000000000000000
#0251b:13000000000000130000000000001300
#02515:0013001300130013
#02512:23131300
#02518:00000000001300000000000013000000
#0281b:2300130000000013
#02816:00000000001300000000000024000000
#02812:1300000000000023
#02815:0013000000000000
#02810:41
#02912:2313131300000000
#02918:00130013000000000013001300000000
#0291b:00000000001300130000000000130013
#02915:0000000013131313
#0291f:11
#03012:1300240024000013
#03018:00130000000000000000000000000000
#03015:0013000000000000
#0301b:00000013000000000000000000001300
#03017:0000002323000000
#03016:00000024
#0311b:2313131300000000
#03115:00130013000000000013001300000000
#03112:00000000001300130000000000130013
#03118:0000000013131313
#0321b:13000000000000000000000013333333
#03215:00130000000000000000000000000000
#03218:0013000000000000
#03212:00000013000000000000000000000000
#0321a:00242400
#03216:0000002323000000
#0331a:0014000000000000
#0331b:00000000130013000000000000130000
#03312:00000000001300130000140013000000
#03314:00330000000000000000000000000000
#03319:00000000000000000033000000000000
#0341b:1300000013130000
#03415:00130000000000000013001300000000
#03412:00000000130000000000000000130013
#03418:00000000001300000000000013001300
#0351a:0000141414000000
#03512:00000000001400140000000014000000
#0361a:14
#03612:28
#03614:0028
#00017:13
#00012:23
#00216:13
#00312:1316
#00318:0016
#0031b:13
#03718:0013000013000013
#0371b:0000001300001300
#03715:00000023000000000023000000000023
#03712:2400002300002300
#0371a:24
#0371f:21
#03710:00000041
#0381b:0013000000000000
#03818:00000000130000130013000000000000
#03815:00000000002300001300000000000000
#03812:0023000000000000
#03912:1300000000000013
#0391b:1300000000000013
#04018:13
#04012:0013
#04014:00000000000000000000001300000000
#04016:0000000000000013
#04017:0013
#04019:00000000000000000000001300000000
#0401b:0000000000000013
#04015:23
#04116:13
#0411b:1300000013000013
#04117:0000001300000000
#04112:0013
#04115:0000000000130000
#04118:00000013
#04216:14000014000000000014000000000000
#04212:13000000000000000000000014000013
#0421a:0000001400000000
#04217:0000000000000013
#04317:1300000000000013
#0431b:0013001300000000
#04315:00130000
#04312:0013001300000000
#04316:0000000000130000
#04412:1423
#0441a:14
#04415:0013130000001300
#04418:00000013000000000000000000000000
#04419:0000001300000013
#0441b:0013
#04414:0000001300000013
#0471b:1300000000000013
#04712:1300000000000013
#04815:13
#0481b:0013
#04819:00000000000000000000001300000000
#04817:0000000000000013
#04816:0013
#04814:00000000000000000000001300000000
#04812:0000000000000013
#04818:23
#04917:1313
#04912:1300001300000000
#04916:00000013000000000000000000001300
#0491b:00000013000000000000000000000000
#05016:1313
#0501b:1300001313000000
#05017:00000013000000000000000000001300
#05012:00000013000000000000000000000000
#05117:13
#05112:13000013000000000000000000001300
#0511b:00000000000013001300001300000000
#05116:0013
#05212:15
#05219:15
#05217:00000000000022002200002200002200
#0531b:1313000000001313
#05315:00130013000000000000230000130013
#05312:0000001313000000
#05318:00000000230000130013000000000000
#05310:41
#05412:0013130000000013
#05418:23000013001300000000000023000013
#0541b:0000000013130000
#05415:00000000000023000013001300000000
#05515:13000000001300130000000013000000
#05518:00130000000013000000001300130000
#0551b:00132300
#05512:0023000000130023
#0561b:13230013
#05618:00001300000000130013000000001300
#05615:00130013000000001300000000000013
#05612:00000000000013000000230000130000
#05712:00001300000000000013000000001300
#05715:00000000130023000000001300000000
#0571b:00000013000000001300000000000013
#05718:23000000001300000000130023000000
#05815:13002300000000130000000013002300
#05818:00130000000013002300000000130000
#0581b:00000000130000000000001300000000
#05812:00000000001300000000130000000000
#05918:13000000230000000013000013000000
#0591b:00001300000000130000000000001300
#05912:00130000000000001300000000130000
#05915:00000013000013000000230000000013
#06015:00001300000023000000001300000000
#06012:00000000130000000013000000000000
#0601b:00000013000000000000130000000000
#06018:23000000001300001300000026000000
#06114:1414140000000014
#0611b:00130013000000000000000000000000
#06118:0000001414140000
#06112:00000000000000130013000014000000
#0611a:00000000000000000000000000130013
#06212:1400000000140000
#0621a:0014001400000000
#06218:0000140000000014
#06213:00000013001300000000000000000000
#06214:00000000000000001400000014000013
#06219:00000000000000000013001300000000
#06210:41
#06315:00000000140000000000000000130000
#06312:00000000000014001400001300000000
#0631b:00000000001300000000000000000000
#06318:00001400000000130000000000000000
#06317:0000000000140000
#0631a:1400000000001414
#06314:00130000000000000000000000000000
#06412:14000000000000130000000000001400
#06414:0014140000001400
#0641b:00130000000000000000000000000000
#06418:00000013000000001400140000140000
#0641a:00000000000014000000000000000014
#06415:00000000000000000013000000000000
#06512:26000000001400001400000026000014
#06516:0000000000140000
#0651a:00000000140000000014001400001400
#06518:0014002600000000
#06514:00000014000000000000000000000000
#06616:1400140000140000
#06612:00140000000014000000001400140000
#0661a:00000000001400140000000014000000
#06615:0000000026000026
#06618:0026000000000000
#06712:14001400000000000014000026002600
#06716:00140000000000140000000000000000
#0671a:00000014000014001400000000000000
#06718:00000000000000000000000000260026
#06715:0000260000260000
#06817:0000001600000000
#06812:26
#06916:13000033000033000033000033000033
#0691b:13000033000033000033000033000033
#07012:0013
#07017:0013
#07016:00003300003300000000000000000000
#0701b:00003300003300000000000000000000
#07116:1300000000000014
#0711b:13
#07212:1313000000000000
#0721b:1313000000000000
#07215:0000000000000013
#07312:00000013000013000000000000000000
#0731b:00000000000000000000001300001300
#07416:0013
#0741b:0013
#07417:0000000000000013
#07512:13000000000000000000001300001300
#0751b:00000013000013001300000000000000
#07517:0000000000000013
#0761b:0000001300000013
#07616:0000001300000013
#07612:0013
#07617:0013
#07614:00000000000000000000001300000000
#07619:00000000000000000000001300000000
#02612:13000000000000130000000000001300
#02618:0013001300130013
#0261b:23131300
#02615:00000000001300000000000013000000
#0271b:13000000000000130000000000000000
#02718:00001300001300000000130000001300
#02715:00131313
#02712:2300001300000013
#04515:0013000013000013
#04512:2400001300001300
#04518:00000023000000000023000000000023
#0451b:0000002300002300
#0451a:24
#04612:0013000000000000
#04615:00000000130000130013000000000000
#04618:00000000002300001300000000000000
#0461b:0023000000000000
#0135a:14
#01352:1400001300000000
#0135b:00000013
#01055:00530000000000000000000000000000
#01158:0000005300000000
#01752:14000063
#0175a:14
#0185b:00230053
#01858:00530000000000000000000000000000
#01958:00530000
#0195b:00000053
#02058:00560000
#02052:00660000
#02158:0016
#02352:0016
#02255:0016
#02455:0016
#02856:00000000005300000000000000000000
#0285b:13
#0325a:0014
#03256:0063
#0325b:00000053
#03052:0014
#03057:0053
#03352:0000000000140000
#0335a:0014000000000000
#0355a:0054
#03652:58
#03654:0018
#01452:0013000000001300
#0145b:0013
#0155b:1300001300000000
#01552:00000013
#01652:0013000000001400
#0165a:0014
#02552:1313
#00256:53
#00057:53
#00052:53
#00352:6356
#00358:0066
#0035b:53
#04058:2316000000000000
#04052:0016000000000000
#04055:23
#04156:53
#04256:54000064000000000024000000000000
#0425a:0000005400000000
#0435b:0023000000000000
#04357:53
#04355:00630000
#04352:0000002300000000
#0445b:0053
#04855:23
#04858:2316000000000000
#04852:0016000000000000
#04957:63
#0495b:00000023000000000000000000000000
#05056:5353
#05052:00000023000000000000000000000000
#0505b:0053
#05157:63
#05152:00000063000000000000000000000000
#05156:0053
#0515b:00000000000000000000005300000000
#05252:15
#05259:15
#06058:00000016
#06154:00140000
#06158:0000000000140000
#06252:14
#0625a:0000001400000000
#06254:00000014
#06352:0014
#0635a:0000000000000014
#06358:0014000000000000
#06454:00140000
#06458:0000000000140000
#06857:0000002600000000
#06852:56
#06956:53
#0695b:53
#07156:23
#0715b:23
#07052:0053
#07057:0053
#07456:0053
#0745b:0053
#07552:6300000000000053
#0755b:0053
#07557:0000000000000053
#07656:0000000000000053
#0265b:1313
#02755:0013
#02752:13
#03755:00000013000000000013000000000013
#03752:1400001300001300
#03855:00000000001300000000000000000000
#03858:00000000000000000053000000000000
#03852:0013000000000000
#03958:0013
#03952:23
#0395b:23
#03955:0013
#04655:00000000000000000063000000000000
#04658:00000000001300000000000000000000
#0465b:0013000000000000
#04752:23
#0475b:23
#04755:0013
#04758:0013
#04558:00000013000000000013000000000013
#0455a:14
#0455b:0000001300001300
#06552:16000016
#06558:0000001600000000
#06655:0000000016000016
#06658:0016000000000000
#06755:0000160000160000
#000370:13
#0023b0:53
#0033b0:53
#003380:0056
#004380:0022
#000321:13
#002361:33
#003321:5356
#004361:0022
#005351:00000013002300000000000000000000
#006381:00000013002300000000000000000000
#007351:0000001323000000
#009321:1323000000000000
#0093b1:0000000013230000
#010351:00130000000000000000000000000000
#010321:00230000
#011381:00130023000000000000000000000000
#011381:0000001300000000
#0113b1:0023
#011320:0000000013230000
#012320:00001333
#012350:0000000000330023
#015320:1323000000000000
#015381:0013230000000000
#015351:0000001323000000
#015380:0000000013230000
#0153b0:0000000000001323
#015351:0000000000000013
#016351:23
#016381:0013230000000000
#016350:0000132300000000
#017350:00000000001300230000000000000000
#017320:00000013
#017350:0000000000000023
#018380:00130000000000230000000000000000
#0183b0:00000033533300000000000000000000
#0183b0:00000013
#018380:0000000000000023
#019380:00130000
#0193b0:0000002300000000
#0193b0:00000013
#019380:0000000000000023
#020380:00160000
#0203c0:00000022
#020321:00160022
#0223b1:1323000000000000
#022321:0000000000132300
#0223b0:0000000000001323
#024320:1323000000000000
#0243b0:0000000000132300
#024321:0000000000001323
#028361:00000000001300000000000000000000
#028321:00000023
#030371:0013
#0303b1:00000023
#032361:0013
#032321:00000023
#0323b0:00000000000000000000000013333333
#033370:23
#033321:13
#033341:00330000000000000000000000000000
#033361:0023000000000000
#0333b1:0013
#033391:00000000000000000033000000000000
#033371:0000000000230000
#033321:0000000000000013
#034321:23
#0343b1:0013230000000000
#034321:0000001323000000
#035381:13
#0353b1:0023000000000000
#035350:0013000000000000
#035320:00230000
#0353a0:0014
#035360:00000024
#036320:1822
#038380:00000000000000000013000000000000
#0393b0:53
#039380:0000003323000000
#039321:13
#039351:0000003323000000
#040381:1326000000000000
#040350:13
#040320:0026000000000000
#041360:13
#041320:0000002300000000
#042360:14
#0423a0:00000024000000000000000000000000
#042361:00000014000000000000000000000000
#042321:0000002400000000
#0423a0:0000001400002400
#042360:00000000000000000054000000000000
#043370:13
#0433b0:0033000000000000
#043380:00230000
#043351:00130000
#043321:0000003300000000
#043361:0023
#0433b0:0000000013230000
#043320:0000000000001323
#0443b0:0013
#044380:00000023
#046350:00000000000000000013000000000000
#047320:53
#047350:0000003323000000
#0473b1:13
#047381:0000003323000000
#048351:13
#048321:0026000000000000
#048380:1326000000000000
#049370:1300002300000000
#0493b0:00000053000000000000000000000000
#049320:0013
#049360:00000000000000000000002300000000
#0493b1:00000000000000000000001300002300
#050361:1300002300000000
#050321:00000053000000000000000000000000
#050361:0013
#050321:00000023
#0503b0:0013
#050370:00000023
#051370:13
#0513b0:00000023000000000000000000000000
#051321:00000013000000000000000000000000
#051361:0000002300000000
#051361:0013
#051321:00000000000000000000002300000000
#0513b0:00000000000000000000001300000000
#051370:0000000000000023
#068320:16000026
#068370:0000005600000000
#069360:13000033000033000033000033000033
#070360:00003300003300000000000000000000
#070320:0033
#071360:53
#071320:0023
#0693b1:13000033000033000033000033000033
#0703b1:00003300003300000000000000000000
#070371:0033
#0713b1:53
#071371:0023
#072321:00000000000000001300002300000000
#072380:00000000000000000000001300002300
#0733b0:13
#073370:00000033000023000000000000000000
#073320:0013
#073360:00000000000000000000003300002300
#0743b0:1300002300000000
#074370:00000033000000000000000000000000
#074361:1300002300000000
#074321:00000033000000000000000000000000
#074361:0013
#074321:00000023
#0743b0:0013
#074370:00000023
#075320:13
#075360:0000002300000000
#0753b0:0013
#075370:0000000000000033
#0763b0:00230000
#075321:0000000000000013
#076361:00230000
#076361:0000000000000013
#077321:0000000000530000
#078321:0022
