This file was generated by Ched 2.7.0.0.
#TITLE ""
#ARTIST ""
#DESIGNER ""
#DIFFICULTY 0
#PLAYLEVEL
#SONGID ""
#WAVE ""
#WAVEOFFSET 0
#JACKET ""
#REQUEST "ticks_per_beat 480"
#00002: 4
#BPM01: 148
#00008: 01
#TIL00: ""
#HISPEED 00
#MEASUREHS 00
#00515:0000000000130000
#0051b:0000000000000013
#00518:00000013
#00915:00333333003333330000000013000000
#00918:0000000000130000
#0091b:00000000000000000000000000001333
#01118:1313
#01112:0000000000130000
#0111b:00330000000000000000000013000000
#01115:0000001300000013
#01012:0000000000000013
#01015:0000001300002300
#0101b:33330000000000002300000000000000
#01018:0000000000230000
#01318:0013000000130013
#01315:00131300
#0131b:0000001300000000
#01312:23000013
#01310:41
#0141b:0013000000130000
#01415:13130013
#01418:0000001300000013
#01412:0013
#01618:0013000000130000
#01615:13130013
#0161b:0000001300000013
#01612:0013
#01712:14000000000000001333333300000000
#01718:0013000000000000
#01715:00130000
#0171b:0000001300000000
#01512:13000013
#01518:0000001300000000
#0151b:0013000000130013
#01515:00131300
#01918:00001300000000001333333300000000
#01915:00130000
#01912:23
#02112:2300000000130000
#02115:0013000000001300
#02118:0000000000000013
#0211b:13000000003333330000000000000000
#02110:41
#02018:0013000000000000
#0201b:00130000
#02015:00130000
#02012:23
#02512:1300000000130000
#02515:0013000000001300
#02518:00000000003333330000000000001300
#0251b:23
#02815:00130000
#02818:00001300001300000000000000000000
#0281b:1300000000000023
#02812:2300000000000013
#02810:41
#03015:0013000000000000
#0301b:0000000023000013
#03012:0000002300000013
#03018:00230000
#03312:00330000000000000000000013000000
#03318:00130000
#03315:0000001300000000
#0331b:00000000000000000033000000000000
#03415:0000000000130000
#03418:00000013
#03412:0000000000000013
#03515:0000001300000000
#03518:0013
#03718:00001300000000000023000000001300
#03715:00000023000000001300000000000023
#0371b:2300002300000000
#03712:23000023
#0371f:21
#03710:00000041
#03815:00000000130000130013000000000000
#03818:00000000002300001300000000000000
#0381b:0023000000000000
#03912:0000000000000013
#0391b:0000000000000013
#04012:0014
#04016:00000000000000000000001400000000
#0401a:0000000000000014
#04015:23
#04112:1300000000000013
#04118:0013
#04115:0000000000130000
#0411b:00000013
#04315:0000000000000013
#04318:1414141400000000
#04319:00140014001400140000000000000000
#04312:0000000000130000
#0431b:00000013
#04418:1300000000000013
#04415:0013000000001300
#04412:00132300
#0441b:00132300
#0481a:0014
#04816:00000000000000000000001400000000
#04812:0000000000000014
#04818:23
#0491b:13
#04918:00000013000000000000000000000000
#04912:0013
#04915:00000000000000000000001300000000
#05015:0013
#05018:1300000000000013
#0501b:00000013000000000000000000000000
#05215:13
#05218:0000002200000000
#07618:0000001300000000
#07612:0014
#07616:00000000000000000000001400000000
#0761a:0000000000000014
#0081b:00333333003333330000000000001300
#00815:0000000000230000
#00818:00000023
#0691a:14000034000034000034000034000034
#07016:0014
#0701a:00003400003400000000000000000000
#0711a:14
#07112:0000000000000014
#0001b:13
#00012:23
#0061b:0000000000000013
#00618:0000000000230000
#00615:00000023
#00718:0000000000130000
#00715:00000013
#00712:00333333003333330000000000001300
#01815:0013000000000000
#01818:00130000
#01812:0000001300000000
#0181b:23000000000000001333333300000000
#0221b:2300000000130000
#02218:0013000000001300
#02215:0000000000000013
#02212:13000000003333330000000000000000
#02312:2300000000130000
#02315:0013000000001300
#02318:0000000000000013
#0231b:13000000003333330000000000000000
#0241b:2300000000130000
#02418:0013000000001300
#02415:0000000000000013
#02412:13000000003333330000000000000000
#0261b:1300000000130000
#02618:0013000000001300
#02615:00000000003333330000000000001300
#02612:23
#02712:1300000000130000
#02715:0013000000001300
#02718:00000000003333330000000000001300
#0271b:23
#03218:0013000000000013
#03215:00230000
#0321b:0000002300000000
#03212:0023
#04218:1300001300000000
#0421b:00000013000000000000000000000000
#04215:0000000000000013
#04515:00001300000000000023000000001300
#04518:00000023000000001300000000000023
#04512:2300002300000000
#0451b:23000023
#04618:00000000130000130013000000000000
#04615:00000000002300001300000000000000
#04612:0023000000000000
#0471b:0000000000000013
#04712:0000000000000013
#05912:13
#05918:00000000000013000000000000333333
#0591b:00000000000000333333000013000000
#05915:00333333000000000000000000000000
#06015:00001300000000000033333323000000
#06018:0013
#06012:00000033333300001300000000000000
#0601b:00000000000000000033333323000000
#06412:00330033000000000000000014000000
#06418:00000000000000330033000000000000
#06414:00000000000000000000000000343434
#0651a:00001400000000000000000000000034
#06514:2414
#06518:00000034343424000000000000001400
#06512:00000000000000000034343424000000
#06612:00140000
#0661a:34342400000000000000140000000000
#06614:00000000003434342400000000000000
#06618:00000000000000000000003434342400
#06714:1400000000002424
#06718:00000000000014000000000000240024
#06712:00343434240000000000000000000000
#0671a:00000000000000343434240000000000
#07218:14
#07212:0014000014000000
#07216:00000000000000000000001400000000
#0721a:0000000000000014
#07312:13
#07315:00000013000000000000000000000000
#0731b:0013
#07318:00000000000000000000001300000000
#07418:0013
#07415:1300000000000013
#07412:00000013000000000000000000000000
#01215:00230000000000000013000023000000
#01218:2300000000230023
#0121b:00000000333333000000000000000000
#0291f:11
#0361b:23
#03615:23
#06814:24
#05315:00333333000000000000000000333333
#05318:00000000000000333333000000000000
#05310:41
#05418:00000033333300000000000000000000
#05412:00000000000000000033333300000000
#0541b:00000000000000000000000000000033
#0551b:33330000000000000000003333330000
#05512:00000000003333330000000000000000
#05612:00330033000000000000000000330033
#0561b:00000000000000330033000000000000
#0571b:00000033003300000000000000000000
#05715:00000000000000000033003300000000
#05718:00000000000000000000000000000033
#05818:00330000000000000000003300330000
#05815:00000000003300330000000000000000
#06112:00330033000000000000000000000000
#06118:00000000000000330033000000000000
#06115:00000000000000000000000000330033
#0621b:00000033003300000000000000000000
#06212:00000000000000000033003300000000
#06218:00000000000000000000000000000033
#06210:41
#06318:00330000000000000000000000000000
#06315:00000000003300330000000000000000
#0631b:00000000000000000000003300330000
#01352:13000013
#0135b:0000001300000000
#01752:1463
#01955:00630000
#01958:0063
#02858:00000000005300000000000000000000
#0365b:53
#03658:0013
#03655:53
#03652:0013
#0145b:0013000000000000
#01455:00000013
#01452:0013
#01552:13000013
#01558:0000001300000000
#01658:0013000000000000
#01652:0013
#01655:00000013
#04152:63
#0495b:53
#04958:00000053000000000000000000000000
#04952:0063
#04955:00000000000000000000006300000000
#05055:0053
#05058:63
#0505b:00000063000000000000000000000000
#05255:13
#0765a:0000000000000054
#06854:54
#03952:0013
#03855:00000000000000000063000000000000
#0695a:54
#07056:0054
#0715a:24
#00052:53
#0005b:53
#0095b:0000000000000053
#01158:53
#0185b:0053
#0205b:00630000
#02055:00630000
#0305b:0053
#03252:0063
#03558:0053
#04055:0013000000000000
#04058:0013000000000000
#04258:5300005300000000
#0425b:00000053000000000000000000000000
#04358:5454545400000000
#04359:00540054005400540000000000000000
#04658:00000000000000000053000000000000
#0475b:0013
#04855:0013000000000000
#04858:0013000000000000
#05958:0000005300000000
#05952:53
#0595b:00000063
#06055:0063000000001300
#06058:0053
#0605b:00000013
#06052:0053
#06554:1464
#0655a:0064000000000000
#06558:0000001400000054
#06552:00000014
#06452:00000054
#0665a:0014000000640000
#06652:00540000
#06654:0014
#06658:0000000000000014
#06754:64
#06758:0000005400000000
#06752:00140000
#0675a:0000000000140000
#07352:63
#07355:00000063000000000000000000000000
#0735b:0053
#07358:00000000000000000000005300000000
#07458:0063
#07455:53
#07452:00000053000000000000000000000000
#000320:13
#002350:33
#004360:0022
#0003b1:13
#002381:33
#004381:0022
#0053b1:1323
#0053a1:00330000000000330000000000000000
#005391:0033003300000000
#005381:00000033003300000000000000000000
#006321:1323
#006331:00330000000000330000000000000000
#006341:0033003300000000
#006351:00000033003300000000000000000000
#007321:13333333003333332300000000000000
#007361:00330000
#0083b1:13333333003333332300000000000000
#008371:00330000
#009351:13333333003333332300000000000000
#009321:00330000
#0093b1:00000000000000000000000000001333
#0103b1:33330000000000000000000000000000
#010381:00230000
#011381:13
#0113b1:00330000230000000000000000000000
#012381:00000013000000000000000000000000
#0123b1:00000000333333230000000000000000
#017321:00000000000000001333333300000000
#017351:0000000000003323
#0183b1:00000000000000001333333300000000
#018381:0000000000003323
#019351:00130000
#019321:0000002300000000
#019381:00000000000000001333333300000000
#0193b1:0000000000003323
#0203b1:00130000
#020381:00000023
#020350:00130000
#020320:00000023
#021380:00130000
#0213b0:00000000003333332300000000000000
#022350:00130000
#022320:00000000003333332300000000000000
#023380:00130000
#0233b0:00000000003333332300000000000000
#024350:00130000
#024320:00000000003333332300000000000000
#0253b0:00130000
#025380:00000000003333332300000000000000
#026320:00130000
#026350:00000000003333332300000000000000
#0273b0:00130000
#027380:00000000003333332300000000000000
#028380:00000000001300000000000000000000
#0283b0:00000023
#0293b0:1333
#0293a0:00330000000000330033000000000033
#029390:0033003300330033
#029380:00000033003300000000003300330000
#029370:00330033
#0303b0:23
#0303b0:0013
#030380:00000023
#031320:1333
#031330:00330000000000330033000000000033
#031340:0033003300330033
#031350:00000033003300000000003300330000
#031360:00330033
#032320:23
#032320:0013
#032350:00000023
#033320:13330000000000000000000000000000
#033350:0023000000000000
#0333b0:00000000000000001333000000000000
#033380:0000000000230000
#033380:0000000000000013
#0343b0:23
#034350:0013000000000000
#034320:00230000
#0343b0:0000001300000000
#034380:0023
#0353b0:13230000
#035380:0033000000000000
#035380:0013
#0353b0:00000023
#0363b0:13
#036380:0023
#036351:13
#036321:0023
#038351:00000000000000000013000000000000
#039321:0000003323000000
#040381:1323000000000000
#040350:1323000000000000
#041320:13
#041350:0000002300000000
#042380:1300003300000000
#0423b0:00000033000000000000000023000000
#043380:1454545424000000
#043390:00540054005400540000000000000000
#046380:00000000000000000013000000000000
#0473b0:0000003323000000
#048350:1323000000000000
#048381:1323000000000000
#0493b1:1300002300000000
#049381:00000033000000000000000000000000
#049321:0000000013000023
#049351:00000000000000000000003300000000
#050381:1300002300000000
#0503b1:00000033000000000000000000000000
#050351:0013
#050321:00000023
#051321:13
#051351:00000033000023000000000000000000
#051381:0013
#0513b1:00000000000000000000003300002300
#052381:00000000000012003200003200002200
#053321:13
#053351:00333333230000000000000000000000
#0533b1:0000001300000000
#053381:00000000000000333333230000000000
#053321:00000013
#053351:00000000000000000000000000333333
#054351:23
#0543b1:0013000000000000
#054381:00000033333323000000000000000000
#054351:0013
#054321:00000000000000000033333323000000
#054381:0000000000000013
#0543b1:00000000000000000000000000000033
#0553b1:33332300000000000000000000000000
#055351:00130000
#055321:00000000003333332300000000000000
#055381:0000000000130000
#0553b1:00000000000000000000003333332300
#056321:13330033230000000000000000000000
#056351:0033000000000000
#0563b1:00000000000013330033230000000000
#056381:0033
#056321:00000000000000000000000013330033
#056351:0000000000000033
#057321:23
#0573b1:00001333003323000000000000000000
#057381:00330000
#057351:00000000000000001333003323000000
#057321:0000000000330000
#057381:00000000000000000000000000001333
#0583b1:33
#058381:00332300000000000000000000000000
#058351:00000000133300332300000000000000
#058321:0000003300000000
#058381:00000000000000000000133300332300
#0583b1:00000033
#059321:13
#059351:00333333230000000000000000000000
#059381:0000001300000000
#0593b1:00000000000000333333230000000000
#0593b1:00000013
#059381:00000000000000000000000000333333
#060381:23
#060351:0013000000000000
#060321:00000033333323000000000000000000
#060381:0013
#0603b1:00000000000000000033333323000000
#060320:0013
#060350:00000000000000000033333323000000
#061320:13330033230000000000000000000000
#061350:0033000000000000
#061380:00000000000013330033230000000000
#0613b0:0033
#061350:00000000000000000000000013330033
#061320:0000000000000033
#062350:23
#0623b0:00001333003323000000000000000000
#062380:00330000
#062320:00000000000000001333003323000000
#062350:0000000000330000
#062380:00000000000000000000000000001333
#0633b0:33
#063380:00332300000000000000000000000000
#063350:00000000133300332300000000000000
#063320:0000003300000000
#0633b0:00000000000000000000133300332300
#063380:00000033
#064320:13330033230000000000000000000000
#064350:0033000000000000
#064380:00000000000013330033230000000000
#0643b0:0033
#064320:00000014
#064340:00000000000000000000000000343434
#065340:24
#0653a0:0014000000000000
#065380:00000034343424000000000000000000
#065340:0014
#065320:00000000000000000034343424000000
#065380:0000000000000014
#0653a0:00000000000000000000000000000034
#0663a0:34342400000000000000000000000000
#066320:00140000
#066340:00000000003434342400000000000000
#0663a0:0000000000140000
#066380:00000000000000000000003434342400
#067340:14
#067320:00343434240000000000000000000000
#067380:0000001400000000
#0673a0:00000000000000343434240000000000
#068340:14
#068320:00000024
#0693a0:14000034000034000034000034000034
#0703a0:00003400003400000000000000000000
#070360:0034
#0713a0:54
#071360:0024
#073320:1300002300000000
#073350:00000033000000000000000000000000
#0733b0:0000000013000023
#073380:00000000000000000000003300000000
#074350:1300002300000000
#074320:00000033000000000000000000000000
#074380:0013
#0743b0:00000023
#0753b0:13
#075380:00000033000023000000000000000000
#075350:0013
#075320:00000000000000000000003300002300
#0763a0:0000000000000014
#077360:0000000000540000
#078370:0022
