This file was generated by Ched 2.7.0.0.
#TITLE ""
#ARTIST ""
#DESIGNER ""
#DIFFICULTY 0
#PLAYLEVEL
#SONGID ""
#WAVE ""
#WAVEOFFSET 0
#JACKET ""
#REQUEST "ticks_per_beat 480"
#00002: 4
#BPM01: 148
#00008: 01
#TIL00: ""
#HISPEED 00
#MEASUREHS 00
#0611b:13000000000000000013130013000000
#06118:00001300000000130000000000001300
#06112:00000013130013000000000000000013
#06115:00130000000000001300000000130000
#06116:0000140000140000
#06219:0000000000130000
#06212:00001300000014000013000000000000
#06214:00000000000000000000001300000000
#0621a:14000014
#06216:1400001400001413
#06215:00130000
#0621b:00000000001300000000000000000013
#06218:00000013000000000000000000000000
#06217:0013
#06210:41
#06312:00001400001400001400140000001400
#06316:00001400000014140000000014140000
#0631a:00000000140000001400001400001400
#06314:13
#06319:00130000000000000000000000000000
#06415:00160016000000161316000000130000
#06418:0013000000000013
#06412:00000000140014000000140000000013
#0641a:1400140000140000
#0641b:00000013
#06512:14001418140028000000001414000000
#0651a:00000000001414001400140000000000
#06516:28000000000000000018000028001418
#03916:14000000000000000000000000001414
#0391a:14
#04012:12000000000000001300001300000000
#0401b:0000000000000013
#04016:0013
#0401c:22
#0411b:00000013000000000000000000000000
#04112:1300001300000000
#04116:13001313
#0411a:00001414
#04118:0000000000130000
#04114:0000000000000013
#04212:1300001300000000
#04217:13000000000000000013000013000000
#04216:00000013000000000000000000001300
#0421b:00000013000000000000000000001300
#0421a:0014
#04317:13130013
#0431b:0013000000130013
#04316:0013000014130013
#04312:13131300
#04412:13000013000013000000001300000000
#04417:0017000000000000
#0441b:00131300
#04416:0000000024000014
#0481b:00000000000000001300001300000000
#04817:0013
#04812:2200000000000013
#0481c:12
#04912:00000013000000001400000000000000
#0491b:13000000000000000000001300000000
#04917:13000000000000000000001300000000
#04916:00000013000000001300000000000000
#0501b:1300001300000013
#05016:13001313
#05017:00000013000000000000000000000000
#05012:00000013000000001400000000001300
#0511b:1300000013000013
#05115:00000013000000000000000000000000
#05116:0014
#05112:13000000000000000000001300000000
#05118:00000013000000000000000000000000
#05218:16
#05212:16000000000000000000002200002200
#05216:0000002222000000
#0521c:0022
#0531b:13000000000000130000230000001300
#05312:00130000230013000000000000000013
#05318:00001300000000000013000013000000
#05315:00000013000000001300000000130000
#05310:41
#05415:00001300000000000013001300001300
#05418:00000013000000001300000000000013
#05412:00130023
#0541b:00000000001300000000130000000000
#05416:2400002400000000
#05518:00130000000013000000001300130000
#0551b:0023130000000023
#05515:00000000001300130000000013000000
#05512:1300000023130000
#0561b:13000000000000000013000000000000
#05615:00130000000000001300000000130013
#05618:00001300000000130000000013001300
#05612:00000013000013000000000000000000
#05616:0000240000240000
#05712:13130013
#05715:00001300000023000013001300001300
#05718:00000013001300001300000023000000
#0571b:23000000000013000000130000000013
#05818:00130000130013000000000000130000
#05815:13000000000000130000130000002300
#0581b:00001300000000002300001300001300
#05812:00002300001300001300000013000000
#05918:13000000230000000013000000001300
#0591b:00001300000000130000130013000000
#05912:00130000130013000000230000130000
#05915:00000013000000001300000000000013
#06012:13131626
#06015:0013002300000000
#06018:00000013000013000016001426000000
#0601b:23000000001300000000000000000000
#06014:0000000000140000
#01212:2813
#01218:00000000000000130016000022000000
#01215:0000001300000000
#0121b:00000000001300000000000000000000
#01217:00230000000000000000000000000000
#01216:00000028230000000000220000002200
#01316:0014000000141814
#01312:26000013000018000013000024000013
#0131b:0013
#01318:26
#01310:41
#01416:0000001400001800
#01412:00001800001300001800000024001600
#01418:0000000000160000
#0141b:00130000
#0141a:0024
#01512:16001318
#01518:16
#01516:0014001800140014
#0151b:00000013000000000013000000000013
#0151a:00000024
#01712:16000000001300001300000013000000
#01718:16000000130000000013000000000000
#0171b:00001300000000130000001300000000
#01715:00000013000000000000130000000000
#01717:00000013
#01716:0000000000000013
#01812:25000013000000130000001300000000
#01816:00000000001300000000000013000000
#0181b:00001313
#01815:00000000000000000013000000000000
#01818:0000000000130000
#01817:0000000000000013
#01819:00150000000000000000000000000000
#01913:00130000000000000000000000000000
#01917:00001313000000000000000000001300
#0191b:00000000130000000000001300000000
#01912:0000001300130000
#0191a:00000000000000130000000000000000
#01916:00000000000000001313000013000000
#01919:25
#02017:0013000000000000
#02012:28000000141400002400240024002400
#0201a:00000000000014000014000000000000
#02016:00000000000000140000000000140000
#02018:00000000000000000000001400000000
#0211b:00001300001300000000000000000000
#02117:00130000
#02114:00000000000013000000000000140000
#02118:00000000000000130000000012000000
#0211a:0000000000120000
#02116:00000000000000000000001400001200
#02112:2c000000000000001c00000000000014
#02110:41
#02312:2c001300001300001c00000000000000
#02316:00000000130000000000001412000000
#02319:0000001300000000
#02315:00000000000000130000000000000000
#02314:0000000000120000
#02318:00000000000000000000000000141200
#0231a:00000000000000000000000000000014
#02217:0013000000000000
#0221b:00130013
#02212:2c000000001300001c00003300000000
#02218:00000000000013000000130000330000
#02215:00000000000000130000130000001300
#02416:0013000000000000
#02412:2c131c13
#0241b:00000000001300000000003300000000
#02415:00000000000013000000130000330000
#02418:00000000000000130000130000001300
#02512:2715130016000000
#02515:00000000001300000000000000000000
#02518:0000001300000000
#0251b:13000000000000130000000000000000
#02516:0000000000000013
#02517:0000000000130000
#02618:00000000001300001600000000000000
#02615:0000001300000000
#02612:13000000000000130000000000000000
#0261b:00130000
#02619:0015000000000000
#02617:2700000000000013
#02616:0000000000130000
#02715:00131600
#02718:16000000001300000000000000000000
#02712:2613001300000013
#0271b:00000000000000130000000000000000
#02717:0000000000130000
#0281b:13000023
#02816:2414000000000024
#02812:000013001c1c00000000000000001300
#02810:41
#0291b:1300131300000013
#02915:00130013000000130000130000130000
#02918:00001300001300001300000013000013
#02912:23000000000000000013001300000000
#0291f:11
#0301b:1300002323000013
#03018:0013230000000000
#03012:00000016000000002300000023000000
#03015:00160000001600160000000000000000
#03016:0000000000000024
#03112:1300131300000013
#03118:00130013000000130000130000130000
#03115:00001300001300001300000013000013
#0311b:23000000000000000013001300000000
#03215:00161300231600160000000000130000
#03218:00000016000000000000000000001300
#03212:13000000000023002300000000000013
#0321b:00002313
#0331b:13000000000000130000130000000000
#03316:00140000000000000014000000140000
#03312:0013130013000014
#03315:0000001300000000
#03318:00000000001300000000000000000000
#03317:0000000000000013
#0331a:00000014
#03412:1400001413001300
#03416:00141300001400000014140000000000
#03417:0000001300000000
#0341b:00000000000000000000001300000000
#03418:00000000000000000000000000130013
#03415:0000000000000013
#0341a:0014140000000000
#03512:1313001414000000
#0351b:13
#0351a:00140000
#03516:00000000001400141800000000000000
#03515:0000000000002222
#03519:00000000000000000000000000220022
#0051b:00001300000000000013000000001300
#00512:00130000000000001300000000000013
#00516:00000013000000000000000000000000
#00518:16000000001300130000000000000000
#00515:0000001300000000
#00517:00000013
#00618:13000000000000130000000000000000
#00615:00130000000000001300000000000014
#0061b:00001300001300000013000000000000
#00612:00000013000013000000240024000000
#00617:00000000000000000000001300001400
#00619:00000000000000000000000000140000
#00718:1613000000000000
#00712:00130000001300001300000000130013
#00715:00000013000000000000000000000000
#0071b:0000130000131300
#00717:0000001300000000
#00716:00000000000000000000001400001400
#00819:14
#00815:00130000000013002613001326000000
#00818:00001300001300000000260000000000
#0081b:00000013000000000000000000000000
#00813:00140000
#00812:00000000000000130000000000140000
#00816:0000000000000014
#0081a:00000000000000000000000000000014
#00912:1613001300131300
#0091b:00130000001300000000001300000013
#00918:00000013000000130013000000130000
#00915:0000130013000013
#0101a:00140000
#01016:00000000001414000000000000000000
#01012:00130000000000140000160000000000
#01018:00001616
#01017:00130000000000000000000000000014
#01015:0000000000000014
#01013:00000000000000000000000000140000
#01112:1600130000131300
#0111b:00130000001300001300000000130013
#01118:00000013000000000000000000000000
#01115:0013000000000000
#01116:00000000000013000000001400001400
#00312:13
#0031b:13
#00016:13
#00012:13
#0701c:0012
#07118:0012
#0711c:0000000000000012
#07112:12
#07218:1212000000000012
#0721c:0012
#0721a:00000000000000000000001200000000
#07216:12
#07212:0012
#07312:1212
#07314:00000012000000000000001200000000
#07316:0000001200000012
#0731c:12
#07412:12
#07414:00000012000000000000000000000000
#07416:0000001212000012
#07418:12
#07516:1200000000000012
#07512:0000001212000000
#07518:0000000000000012
#0751c:12
#07614:00000000000012000000001200000000
#07616:0012
#07612:0000000000000012
#0761c:0012
#01616:0018001418000000
#0161b:00000000001300000000000000000000
#01612:0000130024161800
#01618:0000000000000016
#0161a:00000024
#04716:14000000000000000000000000001414
#04712:14
#0381a:0014
#03812:00000000000000180014000000000000
#03816:00000000000000000018000000000000
#03815:00001600002600000000000000000000
#0381b:0023000000000000
#03715:00000000000016000026000000000000
#03712:26000016
#03718:26000026000000000000000023000026
#0371b:0000002300000000
#0371f:21
#03710:00000041
#04612:00002300000000001418000000000000
#0461a:00000000000000000014000000000000
#04616:00000000000000180000000000000000
#04615:00001600002600000000000000000000
#04515:00000000000016000026000023000000
#04518:26000016
#04512:26000026000023000000000000000026
#06612:14002800001800141400180018002800
#0661a:00141400000014000000000000141400
#06616:00000000140000002800001400000000
#06712:00000014140014180000280000000000
#06716:18141800280000001418000024000000
#0671a:0000000000140000
#06715:00000000000000000000000000260000
#06714:0000000000000028
#06713:0000000000000000000000000000002a
#06916:0000000000000012
#06912:12
#03612:222c
#0361c:22220000
#03618:00002200000000220000000000000000
#03616:00000022002200000000000000000000
#06812:26
#06818:26
#00217:23
#04052:22001600000000000000002300000000
#04058:0016000000000000
#04056:0053
#0405c:22
#0415b:00000023000000000000000000000000
#04156:53
#0415a:0014
#04257:53000000000000000023000000000000
#0425b:00000063000000000000000000000000
#04252:0000005300000000
#0425a:0014
#04357:53530053
#0435b:0053000000000023
#04356:0053000014230000
#04352:53535300
#0445b:00532300
#04456:0014
#04857:0063
#0485b:00000000000000000000002300000000
#0485c:22
#04852:2216000000000000
#04858:0016000000000000
#04952:00000023000000001400000000000000
#04957:63000000000000000000006300000000
#04956:00000053000000005300000000000000
#0495b:00000000000000000000002300000000
#05056:6353
#05052:00000053000000001400000000000000
#0515b:6363
#05155:00000063000000000000000000000000
#05156:0014
#05152:53000000000000000000006300000000
#05158:00000053000000000000000000000000
#05252:16
#05258:16
#0525c:0052
#05752:13000013
#0575b:0000001300000000
#0585b:0013000000000013
#05852:0013
#05952:00130000
#0595b:0000000000130000
#06052:13000016
#06058:0000001300001600
#01358:16
#01352:1600001800000000
#01356:00000018
#01452:0018000018000000
#01456:00000018
#01552:16000018
#01558:16
#01556:0000001800000000
#01752:16000000005300000000000000000000
#01758:16
#01757:00000053
#01856:00000063
#0195b:00630000
#01956:00000063
#01957:0000000000000053
#02152:1c1c
#02352:001c
#02552:1716
#0255b:53
#0225b:00000053
#02255:0000000000530000
#02252:001c
#02452:00001c63
#02458:0000000000630000
#02658:0016
#02652:63
#02657:17
#02755:0016
#02752:16
#02852:00000000005c00000000000000000000
#02856:14
#03052:0013
#0305b:0063
#03352:0013000000000000
#0335b:0000000000130000
#03357:0000000000000063
#03457:0000005300000000
#03456:0053000000000000
#03656:00000000005200000000000000000000
#03652:001c
#00556:00000053000000000000000000000000
#00652:00000063000000000000000000000000
#0325b:0013
#03252:0053
#03552:0053000014000000
#03556:0058
#0355b:53
#00752:0063
#00757:0000006300000000
#03152:13
#0295b:13
#01058:00004646
#01052:00530000000000000000360000000000
#01057:00530000000000000000000000000000
#0095b:00000000000000000000000000000053
#0115b:0053
#01156:0000005300000000
#00352:63
#0035b:53
#07158:0052
#07152:52
#0705c:0052
#07258:0052000000000000
#07256:52
#07252:0022
#07456:0062
#07458:52
#07556:6200000000000062
#07552:0052
#07558:0000000000000022
#0755c:52
#00056:53
#07652:0000000000000052
#0765c:0052
#06852:56
#06858:66
#0645a:00140000
#06452:0000000000140000
#00257:53
#01656:0018000018000000
#01652:00000018
#02052:58
#03952:0014
#03956:2414
#0395a:24
#03852:00000000000000000054000000000000
#03855:00000000001600000000000000000000
#0385b:0013000000000000
#04756:2414
#04752:24
#0475a:0014
#06556:18000018
#06552:0000001800000000
#06656:0018
#06652:0018000000000018
#06756:00180000
#06752:0000000000180000
#03752:16
#03758:16000016000000000000000013000016
#03755:00000000000000000016000000000000
#0375b:0000001300000000
#0465a:00000000000000000064000000000000
#04655:00000000001600000000000000000000
#04652:0013000000000000
#04558:16
#04552:16000016000013000000000000000016
#04555:00000000000000000016000013000000
#0635a:0014
#06352:0014000000000014
#0625a:14000014
#06252:0000001400000000
#06156:0000140000140000
#06956:0000000000000022
#06952:52
#0735c:52
#000360:13
#0023b0:33
#0033b0:33
#003380:00000052
#004380:0000525252520000000000000000000022000000000000000000000000000000
#004390:00000000005200520052000000000000000000000000000000000000000000000000000000000000000000000000000000000000000000000000000000000000
#002371:13
#003321:33
#003361:0000000000000000000000000000000000000000000000005200000000005252
#003351:00000000000000000000000000000000000000000000000000000000000000000000000000000000000000000000000000000000000000000000000000520052
#004361:5252000000000000525252520000000022000000000000000000000000000000
#004351:00520000000000000000000000000000005200520052000000000000000000000000000000000000000000000000000000000000000000000000000000000000
#005361:00000013000000000000000000000000
#005321:00000000002300000000000000000000
#005361:0000000000130023
#005321:00000033
#006321:00000013000000000000000000000000
#006361:00000000002300000000000000000000
#007371:0000001300000000
#0073b1:0023
#007320:0013
#007360:0000000000230000
#0093b0:00000000000000000000000000000013
#010370:00330000000000000000000000000000
#0103b0:00000023000000000000000000000000
#010321:00130000000000000000000000000000
#010361:00000023000000000000000000000000
#011361:0000001300000000
#011321:0023
#0113b0:0013
#011370:0000000000230000
#012360:0000000000122200
#012381:0000000000001222
#0133a1:0000142400000000
#0143a1:1424000000000000
#015321:0000142400000000
#016321:1424000000000000
#017321:00000000001300000000000000000000
#017361:00000000000000230000000000000000
#017371:00000013
#0173b1:0000000000000023
#018371:00000013000000230000000000000000
#0183b1:00000000003300000000000000000000
#018361:00000013
#018321:0000000000000023
#0193b1:00130000
#019371:0000002300000000
#019361:00000013
#019321:0000000000000023
#019370:0000000000000013
#0203b0:23
#020321:1824000000000000
#021361:0013000000000000
#021321:00230000
#022321:0013000000000000
#022361:00230000
#022351:0000000000130000
#022321:00000000000000000000003323000000
#0223b0:00000013
#022380:00000000000000000000000000332300
#023370:0013000000000000
#0233b0:00230000
#0243b0:0013000000000000
#024370:00230000
#024380:0000000000130000
#0243b0:00000000000000000000003323000000
#024321:00000013
#024351:00000000000000000000000000332300
#0253b1:13
#025371:00230000
#025321:0000000000130000
#025361:00000023
#0253b0:0000000000001323
#026320:13
#026360:00230000
#0263b0:0000000000130000
#026370:00000023
#026321:0000000000001323
#0273b1:0013230000000000
#027321:0000000000130000
#027361:00000023
#0273b0:00000013
#027370:0000000000000023
#028320:00000000001c00000000000022000000
#0303b0:0013
#030360:00000023
#032320:0013
#032370:00000023
#0333b0:0013230000000000
#033320:0000000000132300
#033370:0000000000000013
#0343b0:23
#034360:0013000000000000
#034320:00230000
#034370:0000001300000000
#0343b0:0023
#0353b0:13
#035370:0023000000000000
#035321:0013000000000000
#035361:00230000
#035361:0018
#0353b1:00000023
#036361:00000000001200000000000000000000
#036321:00000000000000220000000000000000
#037351:00001323000000000000000000000000
#037321:00000000000000001323000000000000
#037351:00000000000000000000000000001323
#038321:00000000132300000000000000000000
#038321:00000000000000000014000000000000
#039361:54
#039321:0000003424000000
#0393a0:14
#039360:0000003424000000
#040320:1226000000000000
#0403c1:12
#040381:0026000000000000
#040361:0013
#0403b1:00000000000000000000002300000000
#040320:00000000000000000000001300000000
#040370:0000000000000023
#041360:1300002300000000
#0413b0:00000053000000000000000000000000
#042370:1300002300000000
#0423b0:00000033000000000000000000000000
#042321:0000001300002300
#042371:00000000000000000053000000000000
#043371:13330000
#0433b1:0033002300000000
#043320:13330000
#043360:0033002300000000
#043320:00001323
#043360:0000000000530000
#043371:00000013
#0433b1:0000000000000053
#044371:23
#0443b1:00130000
#044371:0000002300000000
#0443b1:0013
#044361:00000000000000000000002300000000
#0443b1:0000000000001323
#045381:00001323000000000000000000000000
#0453b1:00000000000000001323000000000000
#045381:00000000000000000000000000001323
#0463b1:00000000132300000000000000000000
#0463a1:00000000000000000014000000000000
#047361:54
#0473a1:0000003424000000
#047320:14
#047360:0000003424000000
#0483c0:12
#048380:0026000000000000
#048321:1226000000000000
#048371:0013
#048321:00000000000000000000002300000000
#0483b0:00000000000000000000001300000000
#048360:0000000000000023
#049370:1300002300000000
#049320:00000053000000000000000000000000
#049361:00000013000000000000000000000000
#0493b1:0000002300000000
#049361:0000000013000023
#0493b1:00000000000000000000005300000000
#049370:00000000000000000000001300000000
#049320:0000000000000023
#050360:1300002300000000
#050320:00000033000000000000000000000000
#050360:0013
#0503b0:00000023
#0513b0:1300002300000000
#051350:00000033000000000000000000000000
#051321:1300002300000000
#051381:00000033000000000000000000000000
#0513b1:0013
#051361:00000000000000000000002300000000
#051320:00000000000000000000001300000000
#051370:0000000000000023
#0523c0:0012
#052370:0000000000000022
#053380:0000132300000000
#053350:0000000000132300
#0543b0:1323000000000000
#054320:0000001323000000
#054380:00000013
#0543b0:0000000000000023
#055350:0013000000000000
#055320:00230000
#0553b0:0013
#055380:0000000000230000
#055320:0000000000000013
#056350:23
#0563b0:0000132300000000
#056320:0000000000132300
#068320:1654000000000000
#068390:0000005400000000
#068330:0000000000530000
#068350:00000023
#068381:16000023
#0683a1:0054000000530000
#068331:0000005400000000
#0693c1:12000032000032000032000032000032
#0693b1:00003200003200003200003200003200
#0703b1:00320000320000320000000000000000
#0703c1:00003200003200003200000000000000
#071381:52525252525252523200000000000000
#071391:0052005200520052005200520052005200000000000000000000000000000000
#0713c1:00000022
#069320:12
#069360:0000000000000052
#070320:00000022
#071320:12
#072360:5200000000000022
#072320:0052
#072381:0012000000000000
#0723c1:0000002200000000
#0733c0:12
#073380:0000000000000022
#074380:12
#0743c0:00000022
#074361:0012
#074321:00000022
#0753c1:12
#075381:0000000000000052
#0763c1:0052
#076381:0000000000000022
#075360:12
#075320:00000022000000000000000000000000
#075320:0012
#075360:00000000000000000000002200000000
#075360:0000000000000012
#076320:00220000
#076320:0000000000000012
#077370:0000000000520000
#078370:0022
