This file was generated by Ched 2.7.0.0.
#TITLE ""
#ARTIST ""
#DESIGNER ""
#DIFFICULTY 0
#PLAYLEVEL
#SONGID ""
#WAVE ""
#WAVEOFFSET 0
#JACKET ""
#REQUEST "ticks_per_beat 480"
#00002: 4
#BPM01: 148
#00008: 01
#TIL00: ""
#HISPEED 00
#MEASUREHS 00
#00514:0014
#00618:14
#00612:0014
#0071a:14
#00714:0014
#00818:14
#00812:0014
#0131a:1414
#01314:00140014
#01310:41
#01418:1414
#01412:00140000
#01512:1414
#01518:00140014
#01614:1414
#0161a:00140000
#01918:1414
#01914:00140014
#0201a:1414
#02012:00140000
#02112:1414
#02118:00140000
#02110:41
#0221a:1414
#02214:00140000
#02312:1414
#02318:00140000
#0241a:1414
#02414:00140000
#02512:1414
#02518:00140014
#02614:1414
#0261a:00140014
#02712:1414
#02718:00140014
#02814:14
#0281a:00140000
#02810:41
#02918:00140014
#02912:2414
#0291f:11
#03012:1414
#03018:00140000
#03114:00140014
#0311a:2414
#0321a:1414
#03214:00140000
#03312:14
#0331a:0014
#03318:14
#03314:0014
#03412:14
#03418:00140000
#03414:0014
#0341a:00000014
#03512:14
#0361a:14
#03718:00140000
#03714:0014
#0371a:00000014
#03712:24
#0371f:21
#03710:00000041
#03814:14
#03818:00140014
#03812:0014
#03914:14
#0391a:00140000
#04012:0014
#0401a:00000014
#04114:14
#04112:0014
#04214:14
#04212:0014
#04318:00140014
#04314:0014
#04414:1414
#04418:00140000
#04514:00140000
#04518:0014
#04512:00000014
#0451a:24
#04618:14
#04614:00140014
#0461a:0014
#04718:14
#04712:00140000
#0481a:0014
#04812:00000014
#04918:14
#0491a:0014
#05018:14
#0501a:0014
#05114:00140014
#05118:0014
#05218:14
#05214:0024
#0531a:14000014
#05318:0000001400000000
#05310:41
#05418:0014000000000014
#0541a:0014
#0551a:00140000
#05518:0000000000140000
#0561a:14000014
#05618:0000001400000000
#06114:0000001400000000
#06112:24000014
#06214:0014000000000014
#06212:0014
#06210:41
#06312:00140000
#06314:0000000000140000
#06412:14000014
#06414:0000001400000000
#07312:14
#07318:0014
#07414:14
#0741a:0014
#07512:14
#07518:0014
#07614:14
#05718:0014000000000014
#0571a:0014
#0581a:00140000
#05818:0000000000140000
#0591a:14000014
#05918:0000001400000000
#06514:0014000000000014
#06512:0014
#06612:00140000
#06614:0000000000140000
#06712:14
#07212:24
#0721a:24
#0205a:0014
#02152:0014
#0225a:0014
#02352:0014
#0245a:0014
#0285a:00540000
#03052:0014
#0325a:0014
#03552:54
#0365a:64
#03752:14
#04154:54
#04152:0054
#04254:54
#04252:0054
#04958:64
#0495a:0064
#05058:64
#0505a:0064
#0455a:14
#06058:00000014
#0535a:54000054
#05358:0000005400000000
#05458:0054000000000054
#0545a:0054
#0555a:00540000
#05558:0000000000540000
#0565a:54000054
#05658:0000005400000000
#06154:0000006400000000
#06152:54000064
#06254:0064000000000064
#06252:0064
#06352:00640000
#06354:0000000000640000
#06452:64000064
#06454:0000006400000000
#06854:14
#05758:0054000000000054
#0575a:0054
#0585a:00540000
#05858:0000000000540000
#0595a:54000054
#05958:0000005400000000
#06554:0064000000000064
#06552:0064
#06652:00640000
#06654:0000000000640000
#06752:64
#0003a0:14
#002380:34
#0033a0:0000000000540000
#0053a0:24
#0093a0:14
#009380:0024
#010320:14
#010340:0024
#011380:14
#0113a0:0024
#012340:14
#012320:0024
#0173a0:14
#017380:0024
#018320:14
#018340:0024
#0283a0:00140000
#028380:00000024
#035320:14
#035340:0024
#0363a0:14
#036380:0024
#039340:00001424
#040380:14240000
#041340:14
#041320:0034
#042340:34
#042320:0034
#043340:24
#047380:00001424
#048340:14240000
#049380:14
#0493a0:0034
#050380:34
#0503a0:0034
#051380:24
#0533a0:14000034
#053380:0000003400000000
#054380:0034000000000034
#0543a0:0034
#0553a0:00340000
#055380:0000000000340000
#0563a0:34000034
#056380:0000003400000000
#057380:0034000000000034
#0573a0:0034
#0583a0:00340000
#058380:0000000000340000
#0593a0:34000034
#059380:0000003400000000
#060380:0034000034002400
#061320:14000034
#061340:0000003400000000
#062340:0034000000000034
#062320:0034
#063320:00340000
#063340:0000000000340000
#064320:34000034
#064340:0000003400000000
#065340:0034000000000034
#065320:0034
#066320:00340000
#066340:0000000000340000
#067320:34
#067340:0000003400003400
#068340:24
#0693a0:14000034
#069380:0000003400000000
#070380:0034000000000000
#0703a0:0034
#0713a0:0024
#0763a0:0000000014000034
#0783a0:0024
