This file was generated by Ched 2.7.0.0.
#TITLE ""
#ARTIST ""
#DESIGNER ""
#DIFFICULTY 0
#PLAYLEVEL
#SONGID ""
#WAVE ""
#WAVEOFFSET 0
#JACKET ""
#REQUEST "ticks_per_beat 480"
#00002: 4
#BPM01: 100
#00008: 01
#TIL00: ""
#HISPEED 00
#MEASUREHS 00
#0041a:14
#00410:41
#00514:14
#0061a:14
#00714:14
#00818:14
#01018:14
#00912:14
#01112:14
#0201a:1414
#02010:41
#02112:1414
#02218:1414
#02314:1414
#0241a:1414
#02512:1414
#02618:1414
#02714:1414
#02710:41
#02814:0014
#0281a:14
#0281f:11
#02918:14
#02912:0014
#03218:14
#03212:0014
#0331a:14
#03314:0014
#04018:1616
#04112:1616
#04218:16
#04212:0016
#04318:16
#04312:0016
#04512:14
#04518:0014
#04510:41
#04614:14
#0461a:0014
#04712:14
#04718:0014
#04814:14
#0481a:0014
#04912:2616
#05018:2616
#05212:16
#05218:0016
#03612:0016
#03618:26
#0361f:21
#03818:0016
#03812:16
#05112:16
#05118:0016
#05312:0034
#05412:34
#0551a:0034
#0561a:34
#03710:41
#01210:41
#0003a0:14
#0013a0:24
#002320:14
#003320:24
#0123a0:14
#0133a0:24
#014340:14
#015340:24
#016380:14
#017380:24
#018320:14
#019320:24
#0303a0:1424
#031340:1424
#034380:1424
#035320:1424
#037380:1626
#039320:1626
#044380:16000026
#053320:1434
#054320:34
#054340:0024
#0553a0:1434
#0563a0:34
#056380:00003424
