This file was generated by Ched 2.7.0.0.
#TITLE ""
#ARTIST ""
#DESIGNER ""
#DIFFICULTY 0
#PLAYLEVEL
#SONGID ""
#WAVE ""
#WAVEOFFSET 0
#JACKET ""
#REQUEST "ticks_per_beat 480"
#00002: 4
#BPM01: 100
#00008: 01
#TIL00: ""
#HISPEED 00
#MEASUREHS 00
#00016:00000000000000000000000000000012
#00018:0000000000000012
#00112:00000012000012000000000000000000
#00116:0000000000001212
#00118:00000000000000000000000000120000
#0031c:00000012000012000000000000000000
#00412:13001313
#00417:00000013
#0041b:1300001300000013
#00415:00000000130000000000000000000013
#00418:00130000
#00410:41
#00518:00130000000000000000000013000000
#0051b:00000000000000130000000000000000
#00512:0013000013000000
#00515:0000000000130013
#00516:0000000000000000001300000000000000000000000000000000000000000000
#00612:1300130013000023
#0061b:1300001300001300
#00615:0013001300130000
#00618:00000013000000001300001300000000
#00617:00000000000000000000000000000023
#0071b:0000131300000000
#00716:0013130000000000
#00716:0023000000000000
#00717:0000000000131300
#00712:00000013
#0081b:13000000000000001300000000130000
#00815:00130013
#00818:00000000130000000000001300000013
#00812:1300001300000013
#0091b:0013000013000000
#00918:0000000000130013
#00915:00130000000000000000000013000000
#00912:00000000000000130000000000000000
#00917:0000000000000000001300000000000000000000000000000000000000000000
#0101b:13000000000000130000000000000000
#01012:00130000000000001300000013000000
#01018:00001300000000000000130013000013
#01015:00000013000013000000000000001300
#01115:00001300000000130000000000000000
#01112:00130013
#0111b:00130013
#01118:0000001300130000
#01415:00001300000013000000001300001300
#01412:13
#01418:00130000001300000000130000130013
#0141b:00000013000000130000000000000000
#01215:00000000000000000000001300000013
#0121b:00000013
#01218:0000000000000013
#01212:24240000000000000000000000130000
#01216:00000024240000000000000000000000
#0121a:00000000000024240000000000000000
#01210:41
#01612:00000013000000000000001300000013
#0161b:00230000000000130000000013000000
#01615:13000000001300000013000000130000
#01618:0000231300130013
#01715:0000000000131300
#01718:00000000000000000000001300000000
#0171a:14240000000014240000000000000000
#01712:00000014240000000000000000001300
#0171b:0000000000000013
#02018:00001300001300000000001300000000
#02012:00131300
#02015:00130000000013000000130000000013
#0201b:2313
#02010:41
#02118:0000001313000000
#02115:00001300000000130000130000000000
#0211b:13000000000000000000001300000000
#02112:00130000
#0221b:13000000130000001300333300000000
#02215:00130000001300000000131300000000
#02218:0013001300000000
#02212:00000013000000130000000000001300
#02217:00000000000000000000000000000013
#02312:13000000130000001300333300000000
#02318:00130000001300000000131300000000
#02315:0013001300000000
#0231b:00000013000000130000000000001300
#02316:00000000000000000000000000000013
#02615:13130000
#02618:00130000001300000000130000000000
#02612:0013001300000000
#0261b:00000013000000130000000000001300
#02718:13000000130000000000001300001300
#02715:00130000001300000000130000000013
#0271b:0013001300000000
#02712:00000013000000130000000000130000
#02710:41
#0281b:23130000000000000000000000000013
#02815:00000013130000000000000000130000
#02818:00000000000023130000000013001300
#0281f:11
#02915:00000000001300000000000013000000
#02918:00000023230013000000001300000000
#0291b:00000000000000230000000000130000
#02912:23230000000000000023000000000000
#03115:0000000000000013
#0311b:00000000000000000000130000000013
#03112:2400140000130000
#03118:001414000000
#03114:001400000014000000000000
#0311a:14240000
#03215:13000013000000000000001300000013
#03218:00000000000013000013000013000000
#03212:00000000001300000000000000130000
#0321b:0000000000000013
#03318:13000000001300000000001300130000
#03315:00130000000013000000000013000000
#03312:00000013000000000013000000000000
#0331b:00000013000000130000000000000000
#0331a:0033
#03314:0000000000330000
#03418:140000001400000014000000140000001400000000130000
#03414:001400140014001400000000
#03412:24000000000000002400000013000033
#03415:0000000000000013
#0341b:00000000000000000000000013000033
#0341a:00240000
#0351b:00000013000000000000000000000000
#03512:00130000
#03518:00000000001300002300000000000000
#03515:0000001313000000
#03717:0013001300001313
#03712:00000013001300000000001300000013
#03715:13
#0371b:1300000000000000000000000000000000130000000000000000000000000000
#03710:41
#0381b:00130000000000000000000000000000
#03818:00000000130000130000000000001300
#03815:0000001300001300
#03812:00000000000000000013000000000000
#03816:00130000000000000000000000000000
#03817:00000000000000000013000000000000
#04319:0013
#04312:23
#04313:00230000
#04314:0023
#04119:00000000000000130000000000000000
#04113:00130000
#04114:0000001300000000
#0411a:00000000001300000000000000000000
#04118:0000000000130000
#04115:00000000000000000000001300000000
#04112:23000000000000000000000000130000
#0411b:0023000000000013
#04415:0012000000000000
#04414:00120000
#04413:0000001200000000
#04416:12
#04418:22
#04419:0022000000000000
#0441a:00220000
#0441b:0000002200000000
#0441c:0022
#04515:00000000000000001300001300000000
#0451b:0000001313130000
#04512:2313000000000013
#04518:23000013000000000000000000000000
#04510:41
#04918:00000000001300130000000013000000
#04912:00000000130000000000000000130000
#04915:23000000000013000000000000000013
#0491b:0023000000130013
#05015:00000000001300130000000013000000
#0501b:00000000130000000000000000130000
#05012:0023000000130013
#05018:23000000000013000000000000000013
#05019:00000000000000000000003300000000
#05112:0014000014001300
#0511a:0000001400000000
#0511b:00000000000000000000130000000013
#05115:13000000001300000000130000001300
#05118:00130000130000000000000000130000
#05212:13001300000000130000000000130000
#05218:0013001300000013
#0521b:00130000
#05215:00000000001300000000130000000013
#05318:00120012
#0531c:0012
#05312:00120012
#05316:0012
#0531b:23
#0541c:0012
#05412:0012000000000000
#05414:00000012
#0541a:00000012
#0551c:00120012
#05518:1212
#05512:1212
#05516:00120012
#05612:1212
#05618:1212
#0561c:00120000
#05616:00120000
#04019:00130000
#04014:00000000001300000000000000000000
#0401a:0000001300000000
#04013:00000000000000130000000000000000
#04018:2300000000000013
#04015:00002300000000000000000000130000
#04012:0000000000130000
#0401b:00000000000000000000001300000000
#04218:00130013000000000000130000001300
#04215:00001300000000000013001300000013
#0421b:00000000001300000000000000000000
#04212:0000001300000000
#03014:001414000000
#0301a:24140000
#03018:000014000000000000001400000000130000000000000000
#03012:14241300
#0301b:0013
#03015:0000000000130000
#01814:13131300
#01816:0013000000130000
#01812:0000001300000000
#01819:13131313
#01817:0000001300000013
#0181b:0013000000130000
#0181a:00330033000000000000003300000000
#01818:00000000003300330000000000330033
#03617:0000001300000013
#03616:0000000000130000
#03612:23
#0361b:23
#0361f:21
#02412:0013130013000000
#02417:00000013000000001300000000000000
#0241b:1300001300130000
#02415:00000000000000000000001300000000
#0131a:14240000000000000000000000000000
#01316:00000014240000000000000000000000
#01312:00000000000014240000001300000000
#01318:0000000000130000
#01315:00000000000000000000000000130000
#0131b:00000013
#0391b:1313000000000000
#03918:0000131300000000
#03915:0000000013130000
#03912:0000000000001313
#04812:2313000000000000
#04815:0000231300000000
#04818:0000000023130000
#0481b:0000000000002313
#04612:0013000013000000
#04618:00000013000013001300000000000000
#0461b:1300000000130000
#04615:13000000000000000000001300001300
#0151b:0000000000000000230000000000000000000013000000000000000000000000
#01512:0023000000000000
#01515:0000002300000000
#01518:0023
#0471b:0013001313000000
#04718:13000013000000000000000000000000
#04715:00000000000000001300001300000000
#04712:1300000000130013
#02512:1300000000130000
#02518:00001300000013000000001300000000
#02515:00131300
#0251b:0013
#04359:0063
#04354:0053
#04355:0000000000000013
#04358:0000000000000013
#03552:1300000000130000
#0355b:1300000000130000
#03555:0023
#03558:0023
#05652:2252
#05658:2252
#05656:00620012
#0565c:00620012
#02058:00000000000000000000001300000000
#0205b:13
#0415b:0013000000000000
#04152:13
#04055:0013000000000000
#04058:13
#0045b:0000002300000000
#00458:00530000
#00552:0053000000000000
#00556:0000000000000000002300000000000000000000000000000000000000000000
#0095b:0063000000000000
#00957:0000000000000000002300000000000000000000000000000000000000000000
#01856:0023000000230000
#01852:0000002300000000
#01854:53635300
#01859:53635363
#01857:0000002300000023
#0185b:0023000000230000
#0215b:63000000000000000000001300000000
#02152:00530000
#02158:0053
#0225b:0023
#02352:0023
#03152:0000000000230000
#0315b:0000000000230000
#03155:00000013
#03158:00000013
#02758:00000000000000000000001300000000
#01558:00000000000000005300001300000000
#0155b:0000000000000000000000000000000000000023000000000000000000000000
#0245b:6300000000630000
#02455:00000000000000000000006300000000
#02452:00530000
#0305b:00006313
#03058:0000000000230000
#03052:00005313
#03055:0000000000230000
#0335b:00000000000000630000000000000000
#03352:00000000000000000053000000000000
#03358:00000000000000000000000000130000
#03757:0000005300000000
#0375b:0000000000000000000000000000000000230000000000000000000000000000
#0295b:00000000000000000000000000130000
#04552:0000000000000013
#0455b:0000001300000000
#05152:0014000014000000
#0515a:0000001400000000
#0535b:13
#05454:00000012
#0545a:00000012
#01058:00000000000000000000000000000063
#01155:00000000000000530000000000000000
#03455:0000000000000023
#03452:00000053
#0345b:00000063
#03458:0000000000000023
#03856:00530000000000000000000000000000
#03857:00000000000000000063000000000000
#04658:0000001300000000
#04655:0000000000000013
#03255:00000013000000000000000000000000
#03258:00000000000000000013000000000000
#00855:00630000
#00852:0000002300000000
#0475b:0000001300000000
#04752:0000000000000013
#02552:6300000000530000
#02558:00006300000000000000005300000000
#02555:00630000
#01954:0000001300000000
#01959:0000001300000000
#04955:13
#0495b:0013000000000000
#05058:13
#05052:0013000000000000
#000320:12
#000360:00000032000022000000000000000000
#000381:12
#0003c1:00000032000022000000000000000000
#001381:12
#0013c1:00000032000022000000000000000000
#0023c1:12
#002381:00000032000022000000000000000000
#002360:12
#002320:00000032000022000000000000000000
#003360:12
#003320:00000032000022000000000000000000
#004380:00130000
#0043b0:0000005300000000
#004370:0023
#005320:00001300000000230000000000000000
#005360:0000000000000000005300000000000000000000000000000000000000000000
#006370:00000000000000000000000000000013
#0073b0:0023000000000000
#007360:00000000000000130000000000000000
#007320:0000000000230000
#008350:00130000
#008320:0000005300000000
#008360:0023
#0093b0:00001300000000230000000000000000
#009370:0000000000000000005300000000000000000000000000000000000000000000
#010380:0000132300000000
#010380:00000000000000000000000000000013
#0113b0:0023000000000000
#011350:00000000000000130000000000000000
#011320:0000000000230000
#013380:0000000000000013
#0143b0:23
#014350:0013
#014320:0000000000230000
#015320:0013230000000000
#0153b1:0000132300000000
#015350:0000001323000000
#015381:00000000000000001300002300000000
#0153b1:0000000000000000000000000000000000000053000000000000000000000000
#018341:13333333
#018361:0053000000530000
#018321:0000005300000000
#019341:33000033000023000000000000000000
#018390:13333333
#0183a0:00330033000000000000003300000000
#0183b0:0033000000330000
#018380:00000000003300330000000000330033
#018370:0000003300000033
#019390:33000033000023000000000000000000
#0213b0:13
#021380:0023000000000000
#021320:00130000
#021350:0000002300000000
#021380:0013
#0213b0:0000000000230000
#0223b0:00000000000000001300333300000000
#022370:0000000000000023
#023320:00000000000000001300333300000000
#023360:0000000000000023
#0243b0:13
#024370:0023000000000000
#024320:00130000
#024360:0000002300000000
#0243b0:0000000000130000
#024370:0000000000000023
#024351:00000000000000000000001300000000
#024321:0000000000000023
#025321:13
#025351:0023000000000000
#025380:0013000000000000
#0253b0:00230000
#025351:00130000
#025321:0000002300000000
#025321:0000000000130000
#025361:0000000000000023
#025380:00000000000000000000001300000000
#0253b0:0000000000000023
#026350:0000000013230000
#026320:00000000000000000000001300002300
#027380:0000000013230000
#028320:00000000000000000013000023000000
#0293b0:00000000000000130023000000000000
#029321:00000000000000000013002300000000
#0303b1:00001323
#030381:0000000000530000
#030320:00001323
#030350:0000000000530000
#031320:0000000013530000
#031350:00000023
#0313b1:0000000013530000
#031381:00000023
#0323b1:00130023000000000000000000000000
#032321:00000000000000130023000000000000
#0333b1:00000000000000130000000000000000
#0333a1:0033
#033381:00000000000000000023000000000000
#033320:00000000000000000013000000000000
#033340:0000000000330000
#033350:00000000000000000000002300000000
#034320:00000000000000000000000013000033
#034350:0000000000000053
#035320:23
#0343b1:00000000000000000000000013000033
#034381:0000000000000053
#0353b1:23
#035351:0013
#035321:0000000000230000
#035380:0013
#0353b0:0000000000230000
#036320:0000132300000000
#0363b0:0000000013230000
#036320:0000000000001323
#037370:00000000000013000000002300000000
#0373b0:0000000000000000000000000000000000530000000000000000000000000000
#038360:00130000000000000000000000000000
#038320:00230000
#038370:00000000000000000013000000000000
#0383b0:00000023
#039320:13
#039350:0023000000000000
#039350:00130000
#039320:0000002300000000
#0393b0:0013
#039380:0000000000230000
#039380:00000013
#0393b0:0000000000000023
#0403b0:0000000013230000
#041350:0000000013230000
#041320:00000000000000000000000000000013
#042350:00230000000000000000000000000000
#0423b0:00000000000000130000000000000000
#042380:00000000000000000023000000000000
#043320:1323000000000000
#0433b1:1323000000000000
#0433a1:0000132300000000
#043330:0000132300000000
#043340:0013
#043350:0000000000003323
#043391:0013
#043381:0000000000003323
#044321:0000000000000000000000000000000012003200323232002200000000000000
#0443c0:0000000000000000000000000000000012003200323232002200000000000000
#045350:0000132300000000
#045380:0000000000001323
#046320:0000132300000000
#0463b0:0000000000001323
#047350:0000132300000000
#047380:0000000000001323
#0483b0:13
#048380:0023000000000000
#048380:00130000
#0483b0:0000002300000000
#048320:0013
#048350:0000000000230000
#048350:00000013
#048320:0000000000000023
#049320:00001323
#049360:0000000000330000
#0503b0:00001323
#050370:0000000000330000
#050390:00000000000000000000003300000000
#0523b0:0000000013230000
#052380:00000000000000000000001300230000
#0533c0:0000000000000012
#054380:0022000000000000
#054320:00120000
#054360:0022
#056380:1232
#0563c0:00320022
#056321:1232
#056361:00320022
