This file was generated by Ched 2.7.0.0.
#TITLE ""
#ARTIST ""
#DESIGNER ""
#DIFFICULTY 0
#PLAYLEVEL
#SONGID ""
#WAVE ""
#WAVEOFFSET 0
#JACKET ""
#REQUEST "ticks_per_beat 480"
#00002: 4
#BPM01: 100
#00008: 01
#TIL00: ""
#HISPEED 00
#MEASUREHS 00
#00115:00000013
#00118:0000000000000013
#0011b:00000033000000000000000000000000
#00015:0000000000000013
#00018:00000033000000000000000000000000
#0051b:0000000000130000
#00518:00000000000000130000000013000000
#00515:0000000013000013
#0061b:0000001300000000
#00612:13003333000000001300000000000000
#00618:0000000000131300
#00615:00000000000000000000001300002300
#00614:00000000000000000000000000000033
#02015:0013000000000000
#02018:00130000
#02012:0000001300000000
#0201b:23
#02010:41
#0211b:0000001300000000
#02118:0013000000000000
#02115:00130000
#02112:13
#04415:13130000
#04418:0013001300000000
#04615:13000000000033331300000000000000
#04612:0000130000331300
#00415:13000013
#0041b:13130000
#00418:0000000000000013
#00410:41
#01015:0000001300000013
#01018:00000000000000130000000000000000
#0101b:13333333000000000000130013000013
#01012:0013
#01112:00001300130000130000000000000000
#01118:0000001300000000
#01215:00000000000000000000001300130000
#01218:00240000000000000000000013001300
#01212:24000000000000000000000000000013
#01219:00240000
#0121a:00000000000000240000000000000000
#01213:00000024000000000000000000000000
#01214:0000002400000000
#01210:41
#0131a:14
#01319:00000014000000000000000000000000
#01318:0000001400131300
#01315:00000000000000000000001300130000
#0131b:0000000000000013
#01314:00240000000000000000000000000000
#01313:00240000
#01312:00000000000000240000000000000000
#01612:14000014000000000000000000000000
#01618:00000013
#01615:00000000000000000000000000130013
#01617:00240000240000000000000000000000
#01718:1400000000130000
#01719:00000014000000000000000000000000
#0171a:0000001400000000
#01712:00240000000000000000000000000000
#01713:00240000
#01714:00000000000000240000000000000000
#0171b:00000000000000000000003333000000
#02215:0000000000130000
#0221b:00000000000000000000001300000000
#02318:0000000000130000
#02312:00000000000000000000001300000000
#0241b:1313
#02418:00001300000000000000331300000000
#02415:00130000
#02412:0000001300000000
#02512:1313
#02515:00001300000000000000331300000000
#02518:00130000
#0251b:0000001300000000
#02814:00000014000000000000000000000000
#0281a:00140000000000140000000000000000
#02818:00140000
#02816:0000000000000014
#0281f:11
#02812:2400002400000000
#0311a:0000000000000014
#03112:1414
#03114:000034143400000034143400000000000000000000000000
#03116:00140000
#0321a:00000000001400000000000014000000
#03212:1400001400000014
#03216:00340000000000340000000000000000
#03515:00130000
#03518:00000013000000000000000000000000
#0351b:00000000001300002300000000000000
#03512:0000001300000000
#03912:1414
#03916:0014001400140000
#0391a:00140000
#04018:0000131313000013
#04015:00000000001300130000000000130000
#0401a:24
#04012:0024000000000000
#0401b:0000000000330000
#04515:0013130000001300
#04518:00000013000000000000000000000000
#0451b:2300001313000013
#04510:41
#04718:0013130000001300
#04712:0000001313000013
#04715:00000013000000000000000000000000
#04813:0013000000000000
#04814:0000001300000000
#04815:0000000000130000
#0481b:23
#0481a:00230000
#04819:0023
#04818:00000023
#04918:0000131300001313
#0491b:0000000013130000
#04912:0000000013130000
#04915:00002300001300000000000000130000
#0511a:1414000014000000
#05112:0000141400000000
#05118:00000013
#05115:00000000000000000000130000130000
#0511b:0000000000000013
#05212:1300001300000000
#05218:00001300001300000000000013000000
#05215:00000000130000000000130000130000
#0521b:0000000013000013
#05315:00130013
#05318:0013
#0531b:00000013
#05312:23
#05415:00130013
#05418:0013
#05412:13
#0541b:00000013
#0551b:13
#05518:00130013
#05515:0013
#05512:00000013
#00718:0000001300000000
#00713:0033000000000000
#00719:00000000000000330000000000000000
#0071a:0000000000330000
#00812:00130000
#0081b:00000000000000000000001300130000
#00815:0000000000001313
#00912:0000000000130000
#00915:00000000000000130000000013000000
#00918:0000000013000013
#01412:13333300000000000000000000000000
#01415:00000000000013000000000000130013
#01418:00000000001300001300000000001300
#0141b:0000000000330000
#0151b:0013
#01518:0023000000000000
#01814:14141414
#01816:0000001400000014
#01812:0014000000140000
#01813:00340034000000000000003400000000
#01815:00000000003400340000000000340034
#02718:00000000000000000000000000130013
#02715:0000000000000013
#02712:0013
#02713:00333333003333330000000000000000
#02710:41
#02918:00000024001400000000000014000000
#02914:00000000240014000000001400140000
#0291a:24000000000000240000000000000000
#02912:00240000000000000000000000000000
#0331a:1400001400000000
#03312:00000000001400000000000000000000
#03316:00340000000000340014000000000000
#03317:0000000000340000
#03318:00000000000000000000003400000000
#03319:00000034
#03412:1414
#03416:00140014
#03414:003434003434003434000000
#0361b:00130013
#03618:0013
#03615:23
#0361f:21
#0361a:0000003300330033
#03715:00001300001300000000001300000000
#03718:00000013000013000000000013000000
#0371b:00000000000000000000000000003333
#03710:41
#03816:0000000000000014
#03815:00130000
#0381a:00000014
#03812:00000000000033330000000000000000
#04115:0000131313000013
#04118:00000000001300130000000000000000
#0411b:00000000000000000000000000130013
#04112:2400000000330000
#0411a:0024000000000000
#04218:00130000000013000000000000001300
#04212:00000000001300130000000000000000
#04215:00000000000000000013000000000013
#04219:0033000000000000
#04214:0000000000330000
#0431a:0013
#04312:00230000
#04313:0023
#05015:0000131300001313
#05018:00002300001300000000000000130000
#05012:2300000013130000
#0501b:0000000013130000
#0301a:1414
#03018:000034143400000034143400000000000000000000000000
#03016:00140000
#02618:00000000000000000000001300000000
#0261b:0013
#0261a:00333333003333330000000000000000
#00215:00000033000000000000000000000000
#00312:00000033000000000000000000000000
#04655:6363
#04652:00230023
#0245b:0063
#02458:00000000000000000000006300000000
#02552:0053
#02555:00000000000000000000005300000000
#0045b:00530000
#00655:0000000000000053
#00652:53
#00758:0000005300000000
#00852:00630000
#01452:53
#01458:0063
#01558:00000000000000000000001300000000
#0155b:0053
#01758:0000000000530000
#01854:64546454
#01856:0000002400000024
#01852:0024000000240000
#0105b:63
#02058:00000000000000000000001300000000
#02155:00000000000000000000001300000000
#0225b:00000000000000000000005300000000
#02352:00000000000000000000006300000000
#02954:00000000000000000000000000140000
#03056:00240014
#0305a:2454
#03058:0064006400000000
#03252:6400006400000000
#0335a:5400005400000000
#03356:00000000000000000064000000000000
#03452:5454
#03456:00540054
#03552:1400000000130000
#0355b:0000000000130000
#0365b:00530053
#03658:0063
#0405a:14
#04052:0014000000000000
#04058:0063
#04152:14
#0415a:0014000000000000
#04155:0053
#0415b:00000000000000000000000000000063
#04258:00230000000000000000000000000000
#04252:00000000000000530000000000000000
#04255:00000000000000000023000000000000
#0435a:0053
#04353:0053
#0495b:13
#04955:0013000000000000
#04858:00000053
#05052:13
#05058:0013000000000000
#0515a:0014
#05652:00000013
#05658:00000013
#03758:00000053
#03855:00630000
#02755:00000000000000000000001300000000
#02752:0063
#03152:2464
#03154:0054005400000000
#03156:00240014
#01954:0000001400000000
#0265b:0053
#02658:00000000000000000000005300000000
#000380:13000033000000000000000000000000
#0003b0:0000002300000000
#0013b0:13000033000000000000000000000000
#001380:0000002300000000
#002350:13000033000000000000000000000000
#002320:0000002300000000
#003320:13000033000000000000000000000000
#003350:0000002300000000
#0043b0:00130000
#004380:0023
#004320:00000000000000000000000000000013
#005350:00333300000000000000000000000000
#005320:00230000
#006320:13003333000000000000000000000000
#006350:00230000
#006350:0000000000000013
#006340:00000000000000000000000000000033
#007330:0033000000000000
#007320:00230000
#007380:0000001300000000
#007390:00000000000000330000000000000000
#0073a0:0000000000330000
#0073b0:00000023
#008320:00130000
#008350:0023
#0083b0:00000000000000000000000000000013
#009380:00333300000000000000000000000000
#0093b0:00230000
#0103b0:13333333000000000000000000000000
#010380:00230000
#014320:13333300000000000000000000000000
#014350:00000023000000000000000000000000
#014380:0013
#0143b0:00000000000000000000332300000000
#015380:00001300000033000000002300000000
#0153b0:00333300
#016370:00140000
#016380:00000000003400000000000000000000
#016390:0000003400000000
#0163a0:00000000000000240000000000000000
#016350:00000000000000000013002300000000
#017380:0000000000130000
#0173b0:00000000000000000000003333002300
#018340:14343434
#018330:00340034000000000000003400000000
#018320:0034000000340000
#018350:00000000003400340000000000340034
#018360:0000003400000034
#019340:34000034000024000000000000000000
#0203b0:0013
#020380:00000000000000000000332300000000
#021320:0013
#021350:00000000000000000000332300000000
#0223b0:1323
#0223a0:00330000000000330000000000000000
#022390:0033003300000000
#022380:00000033003300000000000000000000
#022370:00330000
#0223b0:00000000000000000000001300000000
#022380:0000000000000023
#023320:1323
#023330:00330000000000330000000000000000
#023340:0033003300000000
#023350:00000033003300000000000000000000
#023360:00330000
#023320:00000000000000000000001300000000
#023350:0000000000000023
#0243b0:0000000013000023
#024380:00000000000000000000333300000000
#025320:0000000013000023
#025350:00000000000000000000333300000000
#0263b0:1300000033000023
#0263a0:00333333003333330000000000000000
#026380:00000000330000000000333300000000
#027320:1333
#027330:00333333003333330000000000000000
#027350:00000000330000000000332300000000
#028340:00000000000000000014000000000000
#028320:00000024
#0293a0:00000000000000140000000000000000
#029380:00000000000000000024000000000000
#0303a0:1434
#030380:000034543400000034543400000000000000000000000000
#030360:00340024
#031320:1434
#031340:000034543400000034543400000000000000000000000000
#031360:00340024
#032320:14
#032360:00340024000000000000000000000000
#032320:0000001400000000
#032360:00000000000000340024000000000000
#0333a0:14
#033360:00340024000000000000000000000000
#0333a0:00000000000014000000000000240000
#033360:00000000000000340034000000000000
#033370:0000000000340000
#033380:00000000000000000000003400000000
#033390:00000034
#034320:14000000000000003400000000000034
#034340:003434003434003434000000
#034360:00340034
#035320:24
#035320:0000000013230000
#0353b1:0000000013230000
#0363b1:00130033
#0363a1:0000003300330033
#036381:0033
#037381:23
#037381:00000013
#0373b1:00000000000000000000000000003333
#0383b1:00230000000000000000000000000000
#038351:00130000
#038321:00000000000033330023000000000000
#0393a1:00000014
#0403a1:24
#040381:0013
#0403b1:00000000000000000000332300000000
#041351:0013
#041321:00000000000000000000332300000000
#0413b1:00000000000000000000000000000013
#042381:00330000000000000000000000000000
#042391:0033000000000000
#0423b1:00000023000000000000000000000000
#042321:00000000000000130000002300000000
#042351:00000000000000000033000000000000
#042341:0000000000330000
#0433b1:1323000000000000
#043321:0000132300000000
#0433a1:0013
#043381:0000000000003323
#043330:0013
#043350:0000000000003323
#044350:0000000000000000000000000000000013003300333333002300000000000000
#046350:13000000000033333300000000000000
#046320:0000530000333300
#047350:23
#048380:00000013
#0493b0:23
#0563b0:1333
#056380:00330023
#056351:1333
#056321:00330023
