This file was generated by Ched 2.7.0.0.
#TITLE ""
#ARTIST ""
#DESIGNER ""
#DIFFICULTY 0
#PLAYLEVEL
#SONGID ""
#WAVE ""
#WAVEOFFSET 0
#JACKET ""
#REQUEST "ticks_per_beat 480"
#00002: 4
#BPM01: 100
#00008: 01
#TIL00: ""
#HISPEED 00
#MEASUREHS 00
#00014:0000001200000000001200000000000000000000000000000000000000001200
#00018:12
#0001c:00000012000000000000000000000000
#00016:00000012000000000000000000000000
#00012:1200001200000012
#00017:0000001200000000
#0001a:0000000000000000000000000000000000000012000000000000000000000000
#00015:0000000000000000000000000000000000000012000000000000000000000000
#00116:12001200000000000000000000120000
#00112:00000000001200000000000000000000
#00114:00000012
#00118:0000000000000012
#0011c:0000001200000000
#00117:00000000000000000012000000000000
#0031c:12000000000000220000000000120000
#0031a:00000012000000002200000000000000
#00314:00000012000000002200000000000000
#00316:12
#00318:0000002200220000
#00312:0000002200220000
#00418:00001212
#00416:00000000000000000000000000001212
#00412:12120022
#00417:0000001200000000
#0041c:00000000220000000000000000000012
#00410:41
#00518:0012000000120012
#00512:00120000000000120000000000000000
#0051c:00221222
#00516:00120000
#00614:1200000000120023
#00618:00120000120000001200000000002200
#00616:0012001200000000
#0061a:00000012000000000000120000000000
#00612:0000000000000000220000000000000012000000000000001200000000130000
#00617:00000000000000000000001200000000
#0061c:0000001200002200
#0081c:12120000
#00816:0012
#00812:00000000220000000000001200000012
#00817:1200001200002200
#0081a:0000000000000012
#00818:00000000000000000000000000000012
#00815:00000000000000000000000000120000
#01017:00000000000000000000120012001212
#0101c:00000000220000000000120000001212
#0101a:12
#01016:00120000120000120000000000000000
#01018:0012001212000000
#01014:00000012000000000000000000000000
#01012:00001222
#0141a:00000000000000001200120000120000
#0141c:00000012000000120000001200000000
#01418:00120000001200000000000000000012
#01412:12000000120000000012000000000000
#01416:00001200000012001200001200001200
#01618:00000000001200000012000000000000
#01617:0000001200000000
#0161c:00000000000000120000003212320000
#01612:00000000001200000000003212320000
#01616:22000000000000120012000000000000
#01614:00000022000000000000000000000000
#0161b:0000000000320032
#01613:0000000000320032
#02018:00001300001300130000000000000000
#02012:00131300
#0201b:00000000130000001300131300000013
#02015:00000013000013000000000000000000
#02017:00000000000000000000001300001300
#02010:41
#0211b:13000000130000131300000000000000
#02112:13000013130000001300131300000000
#02117:00130000000013000000000000000000
#02116:00001300001300000000001300001300
#02212:00000000000000001300131300001300
#02215:00000000000000000000000000000014
#0221b:1300000000000000130000000000000000000000000000000013000000000000
#02216:00000000000000000000001300000000
#02214:0013001300000000
#02217:00140014001400140000000000000000
#0231b:00000000000000001300131300001300
#02312:1300000000000000130000000000000000000000000000000013000000001300
#02319:0013001300000000
#02315:00140014001400140000000000000000
#02317:00000000000000000000001300000000
#02417:00130000
#02412:00001300130000001300131300000000
#02416:1300000000000000000000000000000000000000130000000013000000000000
#0241b:13000013000013001300000013000000
#02512:13131313
#02516:00130000001300000000000000000000
#0251b:13001300000013000000131300000000
#02517:0000000000001300000000000000000000000000130000000013000000000000
#02615:00130013000013000000000000000000
#02618:00001300001300130000000000000000
#0261b:13000000130000001300131300000000
#02612:1300130013000013
#02616:0000000000000000000000000000000000000000000013000013000000000000
#02712:13000000130000001300131300000000
#02716:0014001400000000
#02719:00000013000000130000000000000013
#02714:00130000001300000000000000000000
#02717:00000000000000000000001300001300
#02715:00000000000000000000000000130000
#0271b:13131300
#02710:41
#02812:00000013180000000013000013000000
#02816:23180000000023180013000000000000
#02815:00000000000000000000000000130000
#0281b:23000000000023000000000013000013
#02818:0000000000000013
#02817:00000013000000000000000000000000
#0281f:11
#03016:001414281414120000000000
#0301b:000013000000000000001300000000130000000000000000
#03012:280000001300000013000000000000130000000000000000
#03018:0012
#03115:0000000000000013
#03116:280014001400000014001400000000130000000000000000
#03112:000000001300000000000000280000000000000013000000130000000000000000000000000000000000000000130000
#0311b:000000001300000013000000130000000000000000130000
#03114:00000000000000000013001300000000
#03117:000000000000000000000000000000000000000000000000000000000000000000000000000000000000000000000000000000000000000000000000000000000000000000000000000000000000000000000000000000000000000000000000000000000000000000000000000000000000000000000000000000000000000000000000000000000000000000000000000000000000000000000000000000000000000000000000000000000000000000000000000000000000000000000000000000000000000000000000000000000000000000000000000000000000000000000000000000000000000000000000000000000000000000000000000000000000000000000000000000000000000000000000000000000000000000000000000000000000000000000000000000000000000000000000000000000000000000000000000000000000000000000000000000000000000000000000000000000000000000000000000000000000000000000000000000000000000000000000000000000000000000000000000000000000000000000000000000000000000000000000000000000000000000000000000000000000000000000000000000000000000000000000000000000000000000000000000000000000000000000000000000000000000000000000000000000000000000000000000000000000000000000000000000000000000000000000000000000000000000000000000000000000000000000000000000000000000000000000000000000000000000000000000000000000000000000000000000000000000000000000000000000000000000000000000000000000000000000000000000000000000000000000000000000000000000000000000000000000000000000000000000000000000000000000000000000000000000000000000000000000000000000000000000000000000000000000000000000000000000000000000000000000000000000000000000000000000000000000000000000000000000000000000000000000000000000000000000000000000000000000000000000000000000000000000000000000000000000000000000000000000000000000000000000000000000000000000000000000000000000000000000000000000000000000000000000000000000000000000000000000000000000000000000000000000000000000000000000000000000000000000000000000000000000000000000000000000000000000000000000000000000000000000000000000000000000000000000000000000000000000000000000000000000000000000000000000000000000000000000000000000000000000000000000000000000000000000000000000000000000000000000000000000000000000000000000000000000000000000000000000000000000000000000000000000000000000000000000000000000000000000000000000000000000000000000000000000000000000000000000000000000000000000000000000000000000000000000000000000000000000000000000000000000000000000000000000000000000000000000000000000000000000000000000000000000000000000000000000000000000013000000000000000000000000000000000000000000000000000000000000000000000000000000000000000000000000000000000000000000000000000000000000000000000000000000000000000000000000000000000000000000000000000000000000000000000000000000000000000000000000000000000000000000000000000000000000000000000000000000000000000000000000000000000000000000000000000000000000000000000000000000000000000000000000000000000000000000000000000000000000000000000000000000000000000000000000000000000000000000000000000000000000000000000000000000000000000000000000000000000000000000000000000000000000000000000000000000000000000000000000000000000000000000000000000000000000000000000000000000000000000000000000000000000000000000000000000000000000000000000000000000000000000000000000000000000000000000000000000000000000000000000000000000000000000000000000000000000000000000000000000000000000000000000000000000000000000000000000000000000000000000000000000000000000000000000000000000000000000000000000000000000000000000000000000000000000000000000000000000000000000000000000000000000000000000000000000000000000000000000000000000000000000000000000000000000000000000000000000000000000000000000000000000000000000000000000000000000000000000000000130000000000000000000000000000000000000000000000000000000000000000000000000000000000000000000000000000000000000000000000000000000000000000000000000000000000000000000000000000000000000000000000000000000000000000000000000000000000000000000000
#03119:00000000000000000013001300000000
#0321b:00130000001300000000001300000000
#03218:00000000000000000000000013000013
#03215:00000000000000000000000000131300
#03217:00000000000000130000000000000000
#03212:00000000000000130000001300000000
#03214:1300001300000000
#03219:1300001300000000
#03216:00130000001300000000000000000000
#03315:13000013000000000000000000000000
#0331b:13000013000000000000000000000000
#03316:0000001414000000
#03312:00130000001400000014000000170000
#0331a:00000000000000140000140000000000
#03314:00000000000000000000001500000000
#03317:00000016
#03318:00130000000000000000000000000000
#0341b:231300231300
#03415:001600001600000000000000
#03412:000000230013001300000000
#03416:000000000000141414120000
#03418:00000012
#03512:00000013000000000000000014000000
#03515:13130000
#03518:13000000001300002300000000000000
#0351b:0000001300000000
#0351a:00000014
#03516:00000000000000000000000000141400
#03712:14001414000000000000001313000000
#03717:00000000000000000000001313000000
#03716:00000000000014000000000000001313
#0371b:00000000000000000000000000000013
#0371a:14000014001400000000000000000000
#03719:00000000000000000000000000330000
#03710:41
#03816:00130000130000000000000013000000
#03812:00130000000000130000000013000000
#0381b:00000000130000000013000000001300
#03817:00000000000013130013000000001300
#03814:00000000003300000000000000000000
#04016:2300140000000012
#04014:00000000001400000000000000000000
#04018:00000000000014000000000000120000
#04012:00001300000000141400001200000000
#0401c:00000000000000000000001200000000
#0401a:0014
#04017:0023000000000000
#04218:00000012001200120000000000000000
#0421c:00120000000000000012000000000000
#0421a:00001200000000000000000000000012
#04216:00000000000012000000001200000000
#04214:0000000000120012
#04212:00120000000000000012000000000000
#04412:12000012
#04413:0012000000000000
#04417:00000012000000000000000000000000
#04414:00000000120000000012000000000000
#04415:0000001200000000
#04416:0000000000000000000000000000000012000000001200000000000000000000
#04418:00000000000000002200121200000000
#0441c:22000012
#0441a:00000000220000000012000000000000
#04419:0000002200000000
#0441b:0022000000000000
#04518:00000013000000000000130000000000
#0451b:2300131313001300
#04512:2300130013001313
#04515:00001300000000000000001300000000
#04510:41
#0461b:1313000013000013
#04612:1300001300130000
#04619:00000013000000000000000013000000
#04614:00000000130000000000001300000000
#04616:0013000000000000
#04617:0000000000130000
#04712:1300000013130013
#0471b:0013001313000000
#04719:00000013000000000000000000000000
#04716:0013000000001300
#04717:0000130000130000
#04714:00000000000000000000001300000000
#0491b:00000000130000001300000013000013
#04915:00000000001300000000000000130000
#04918:0000001300000013
#04912:00002400130000130000130000000000
#04916:1414000013000000
#0491a:24
#05012:24000000130000001300000000000013
#05018:00000000001300000000000000130000
#05015:0000001300000013
#0501b:00000000130000130000001300000000
#05017:00000000000000000000131300000000
#05016:1414000013000000
#0501a:0024000000000000
#05116:0000000000130000
#0511b:13000000000000000000130000000013
#05112:0015130015001300
#05117:00140000000000000000000013000000
#05115:00000000001400000000000000130000
#05118:0000000000000013
#05119:0000001500000000
#05218:00000000001300130000130000001300
#0521b:0013001313000000
#05215:00000000000013000000000000130013
#05212:13000000130000000000001300001300
#05217:13
#05317:0000121200121212
#05312:2600001212000012
#05316:0013000000000000
#0531c:0000120000120000
#0531b:23
#05412:0012001200000000
#0541c:12121200
#05414:00000012
#0541a:00000012
#05417:00000000120000000000001200001200
#05419:0000000000120000
#05415:00000000000000000012000000000000
#05517:0012121200121200
#0551c:1200001212000000
#05512:1200120000120000
#05514:0000000000000012
#0551a:0000000000000012
#03617:0000120000120000
#03612:0000000000000012
#0361c:0012
#03614:22
#0361a:22
#0361f:21
#0411a:00000000120000000000001200000000
#04118:00000000001200000000000000001200
#04116:00000000000012000000000000120012
#04117:1212000000000000
#04114:00000000000000120000001200000000
#04112:2212
#0411c:0022000012000000
#05617:0012001200120000
#05612:1212
#0561c:12120012
#01117:00001200120012120000120012000000
#01112:00000000000012120000000022000000
#0111c:00220000
#01318:00220014000000220000000000120000
#01316:00220012
#01314:1400001400000012
#0131c:00000000220000000000121200000000
#01312:00220000000000220000000000000000
#0121c:00220000000000220000001200000000
#01216:00220000000000220000000012000000
#01214:00000024000000000000000000001200
#0121a:00000000000000000000000000120000
#01218:24000000220024000000000000000012
#01212:00220000
#01210:41
#04816:00131300000000002300000023000000
#04817:00000000001313000000130000001300
#04812:2300130000130013
#0481b:13231313
#01716:00000000000000000000120000120000
#01712:00000000000000000000001200000000
#01714:00000012
#0171c:00000000000022000000120000120000
#01718:22000000000000000000001200000000
#0171a:00000022000000000000000012000000
#01818:12121212
#0181c:0012001200120012
#01816:1212
#01812:0012001200120012
#01814:00320032000000000032003200000000
#0181a:00000000003200320000000000320032
#01918:0000001200000023
#0191c:00000012000000000000000000000000
#01915:0000000000000023
#02915:21000000001300000000000013000000
#02918:00000000000013000000000000130000
#02912:0017000000000000000000000000230000000000000013000000000000000000
#0291b:00000000000000130000130000000000
#02916:0013
#02917:0000000000000017000000000000000000002300000000000000000000000000
#0291a:00000021000000000000000000000000
#0391b:00000013
#03917:0000000000001313
#03912:0000000000000013
#0071c:12220000
#00716:00120000
#00718:00000012
#00712:0000001300000000000000000000000000000000000000002200000000000000
#00714:00230000000012120000000000000000
#0071a:00000000000000000012120000000000
#00216:12
#00212:00000012000000000000000000000000
#00218:00000012000000000000000000000000
#0021a:0000001200000000001200000000000000000000000000000000000000000000
#0021c:1200001200000000
#00217:0000001200000000
#00214:0000000000000000000000000000000000000012000000000000000000000000
#00219:0000000000000000000000000000000000000012000000000000000000000000
#00916:0012000000120012
#0091c:00120000000000120000000000000000
#00912:00221222
#00918:00120000
#04318:0000000000000012
#04314:00220000
#04312:22
#04316:0000000022000022
#01516:0024000000000000
#00457:0000002200000000
#00452:00520000
#00458:00000052
#0045c:00000000000000000000000000000022
#0085c:00620000
#00857:0000002200000000
#00852:00000000000000000000000000000022
#03052:0000000000230000
#0305b:0000000000230000
#03058:00005212
#03056:00006212
#03456:00000062
#03458:00000052
#04952:0014000000530000
#0495a:14
#0495b:0053
#04956:1414000000000000
#05052:14
#0505a:0014000000000000
#05056:1414000023000000
#05057:00000000000000000000002300000000
#0205b:00000000000000000000001300000000
#02057:00000000000000000000005300000000
#02052:1623
#02058:16
#02152:00000000630000000000001300000000
#0215b:5323
#02156:00000000002300000000006300000000
#02157:00230000000000000000000000000000
#02757:00000000000000000000001300000000
#02752:00000000000000000000001300000000
#0275b:0063
#0525b:0063000000000000
#05252:53
#05352:1652
#05357:0000002200220052
#0535b:63
#0535c:00620000
#05356:0023000000000000
#0545c:22
#05452:0000002200000000
#05457:00620000
#0545a:00000012
#05454:00000012
#05552:62620000
#05557:0022002200220000
#0555c:0062
#03257:00000013000000230000000000000000
#0325b:00530000000000000043000000000000
#03256:00230000000000000013000000000000
#03252:00000033000000630000000000000000
#02656:0000000000000000000000000000000000000000000013000023000000000000
#0265b:00000000000000000000005300000000
#02652:0053
#02352:1300000000000000130000000000000000000000000000000023000000000000
#02359:0013001300000000
#02357:00000000000000000000006300000000
#0225b:1300000000000000130000000000000000000000000000000023000000000000
#02256:00000000000000000000005300000000
#02254:0013001300000000
#02957:0000000000000067000000000000000000006300000000000000000000000000
#02952:0057000000000000000000000000530000000000000000000000000000000000
#0295b:0000000000230000
#02956:0023
#02958:00000000000000000000000000430000
#02955:21
#0295a:00000021000000000000000000000000
#04052:00003300000000006400003200000000
#0405c:00000000000000000000004200000000
#0405b:43
#04056:4300000000000052
#04057:0033000000000000
#0405a:0054
#04156:00000000000000000000000000000062
#04157:1212000000000000
#04152:1252
#0415c:0012000062000000
#0415a:00000000000000000000001200000000
#04154:00000000000000000000001200000000
#04258:00000012000000520000001200000000
#04252:00220000000000000000000000000000
#0425c:00000000000000000022000000000000
#04256:00000012000000000000001200000000
#01458:00000000000000000000000000000012
#01452:00000000000000000022000000000000
#01456:0052
#05657:0022002200220000
#05652:62006232
#0565c:00520042
#03857:00000000000000000013000000000000
#0385b:00000000000000000013000000000000
#03856:00130000230000000000000000000000
#03852:00130000000000000000000000000000
#0035c:00000000000000000000000000220000
#00358:0000000000520000
#01157:00000000000000520000000000000000
#01152:00000000000000120000000000000000
#02852:00000000000000000023000000000000
#02856:00000000000000000023000000000000
#04852:0000530000330033
#04857:00000000002300000000000000000000
#0485b:63004343
#04856:00230000000000000000000000000000
#01057:00000000000000000000000000000062
#0105c:00000000000000000000000000000012
#01556:00000000000000000000001400000000
#01756:00000000000000000000520000220000
#01754:00000052
#01752:00000000000000000000002200000000
#0175c:00000000000000000000520000220000
#01758:00000000000000000000002200000000
#0175a:00000052
#01856:5252
#01852:0022000000220000
#01858:00620062
#0185c:0000002200000022
#0245b:23000023
#02452:00000000230000000000006300000000
#02456:0000000000000000000000000000000000000000530000000023000000000000
#02556:00230000002300000000000000000000
#02552:5333533300002300
#0255b:43006300430063000000005300000000
#02557:0000000000002300000000000000000000000000630000000023000000000000
#03152:00002313
#03154:00000000000000000053005300000000
#03156:0000000000230000
#03159:00000000000000000063006300000000
#03157:000000000000000000000000000000000000000000000000000000000000000000000000000000000000000000000000000000000000000000000000000000000000000000000000000000000000000000000000000000000000000000000000000000000000000000000000000000000000000000000000000000000000000000000000000000000000000000000000000000000000000000000000000000000000000000000000000000000000000000000000000000000000000000000000000000000000000000000000000000000000000000000000000000000000000000000000000000000000000000000000000000000000000000000000000000000000000000000000000000000000000000000000000000000000000000000000000000000000000000000000000000000000000000000000000000000000000000000000000000000000000000000000000000000000000000000000000000000000000000000000000000000000000000000000000000000000000000000000000000000000000000000000000000000000000000000000000000000000000000000000000000000000000000000000000000000000000000000000000000000000000000000000000000000000000000000000000000000000000000000000000000000000000000000000000000000000000000000000000000000000000000000000000000000000000000000000000000000000000000000000000000000000000000000000000000000000000000000000000000000000000000000000000000000000000000000000000000000000000000000000000000000000000000000000000000000000000000000000000000000000000000000000000000000000000000000000000000000000000000000000000000000000000000000000000000000000000000000000000000000000000000000000000000000000000000000000000000000000000000000000000000000000000000000000000000000000000000000000000000000000000000000000000000000000000000000000000000000000000000000000000000000000000000000000000000000000000000000000000000000000000000000000000000000000000000000000000000000000000000000000000000000000000000000000000000000000000000000000000000000000000000000000000000000000000000000000000000000000000000000000000000000000000000000000000000000000000000000000000000000000000000000000000000000000000000000000000000000000000000000000000000000000000000000000000000000000000000000000000000000000000000000000000000000000000000000000000000000000000000000000000000000000000000000000000000000000000000000000000000000000000000000000000000000000000000000000000000000000000000000000000000000000000000000000000000000000000000000000000000000000000000000000000000000000000000000000000000000000000000000000000000000000000000000000000000000000000000000000000000000000000000000000000000000000000000000000000000000000000000000023000000000000000000000000000000000000000000000000000000000000000000000000000000000000000000000000000000000000000000000000000000000000000000000000000000000000000000000000000000000000000000000000000000000000000000000000000000000000000000000000000000000000000000000000000000000000000000000000000000000000000000000000000000000000000000000000000000000000000000000000000000000000000000000000000000000000000000000000000000000000000000000000000000000000000000000000000000000000000000000000000000000000000000000000000000000000000000000000000000000000000000000000000000000000000000000000000000000000000000000000000000000000000000000000000000000000000000000000000000000000000000000000000000000000000000000000000000000000000000000000000000000000000000000000000000000000000000000000000000000000000000000000000000000000000000000000000000000000000000000000000000000000000000000000000000000000000000000000000000000000000000000000000000000000000000000000000000000000000000000000000000000000000000000000000000000000000000000000000000000000000000000000000000000000000000000000000000000000000000000000000000000000000000000000000000000000000000000000000000000000000000000000000000000000000000000000000000000000000000000000000000000000000000000000000000000000000000000000000000000000000000000000000000000000000000000000000000000000000000000000000000000000000000000000000000000000000000000000000000000000000000000000000000000000000000000000000000000000000000000000
#0315b:00002313
#03354:00000000000000000000003500000000
#03352:00000000000000000000000000370000
#03357:00000046
#03552:0000000000330000
#0355b:0000000000430000
#03555:13
#03558:13
#03952:0000000000000023
#0395b:00000053
#03957:0000000000005323
#0455b:0000001300006300
#04552:0000530000000013
#04757:0000001300000000
#04756:0000000000000013
#01956:0000001200000000
#01958:0000001200000023
#01955:0000000000000023
#03756:0000001400000000
#03757:00000023
#0375a:54
#03752:00000064000000000000000000000000
#0465b:0000001363000023
#04652:5300002300000013
#04656:0023000000000000
#04654:00530000
#04657:0000000000230000
#04659:00000063
#0075c:22
#00752:0000002300000000000000000000000000000000000000000000000000000000
#00754:00630000000000000000000000000000
#00658:0000000000000052
#00652:0000000000000000000000000000000000000000000000000000000000230000
#00654:0000000000000063
#0015c:0000006200000000
#00157:00000000000000000022000000000000
#00258:00000022000000000000000000000000
#0025a:0000006200000000006200000000000000000000000000000000000000000000
#0025c:2200002200000000
#00257:0000002200000000
#00254:0000000000000000000000000000000000000052000000000000000000000000
#00259:0000000000000000000000000000000000000052000000000000000000000000
#00056:00000022000000000000000000000000
#00054:0000005200000000005200000000000000000000000000000000000000000000
#00052:2200002200000000
#00057:0000002200000000
#0005a:0000000000000000000000000000000000000062000000000000000000000000
#00055:0000000000000000000000000000000000000062000000000000000000000000
#0165c:00000052
#01658:00000000000000000052000000000000
#01656:00000000000000000062000000000000
#01652:00000062
#04356:0000000000000012
#04358:0000000000000012
#03654:12
#0365a:12
#05152:0035000035000000
#05159:0000004500000000
#000320:1200003200000000
#000340:0000005200000000005200000000000000000000000000000000000000000000
#000360:00000032000000000000000000000000
#000350:0000000000000000000000000000000000000052000000000000000000000000
#000370:00000022
#000371:0000001200000000
#0003a1:0000000000000000000000000000000000000052000000000000000000000000
#0003c1:00000022
#0013c1:1222000000000000
#001381:00000012002200000000000000000000
#0013c1:0000001200002200
#001371:00000000000000000052000000000000
#0023c1:1200003200000000
#0023a1:0000005200000000005200000000000000000000000000000000000000000000
#002381:00000032000000000000000000000000
#002391:0000000000000000000000000000000000000052000000000000000000000000
#002371:00000022
#002370:0000001200000000
#002340:0000000000000000000000000000000000000052000000000000000000000000
#002320:00000022
#003380:0000000000120000
#0033c0:00000000000000000000000000520000
#004370:22
#004320:00122200
#004370:0000005200000000
#004380:00000012
#0043c0:0000000000000022
#0043c0:00000000000000000000000000000012
#005380:00220000000000000000000000000000
#005360:00001232
#005320:0000000000320022
#006380:0000000000000012
#0073c0:52
#007380:0022000000000000
#006341:00000000000000000000000000001323
#006321:0000000000000000000000000000000000000000000000000000000000530000
#007341:00132300000000000000000000000000
#007321:0000005300000000000000000000000000000000000000000000000000000000
#007381:00000000000012220000000000000000
#007361:00000000000000000012220000000000
#0083c1:00122200
#008371:0000005200000000
#008321:00000000000000000000000000000012
#009361:00220000000000000000000000000000
#009381:00001232
#0093c1:0000000000320022
#010371:00000000000000000000000000000012
#011321:0022000000000000
#011371:00000000000000120000000000000000
#0113c1:0000000000220000
#0133c1:0000000000000012
#014381:22
#014361:0000000012220000
#014321:00000000000000000052000000000000
#015361:000000000000000000000000000000000000000000000000000000000000000000000000000000000000000000000000000000000000000000000000000000000000000000000000000000000000000000000000000000000000000000000000000000000000000000000000000000000000000000000000000000000000000000000000000000000000000000000000000000000000000000000000000000000000000000000000000000000000000000000000000000000000000000000000000000000000000000000000000000000000000000000000000000000000000000000000000000000000000000000000140000000000000000000000000000000000000000000000000000000000000000000000000000000000000000000000000000000000000000000000000000000000000000000000000000000000000000000000000000000000000000000000000000545600000000000000000000000000000000000000360000000000000000000000000000000000000056000000000000000000000000000000000000000000000000000000000000000000000000000000000000000000000000000000000000000000000000000000000000000000000000000000000000000000000000000000000000000000000000000000000000000000000000000000000000000000000000000000000000000000000000000000000000000000000000000000000000000000000000000000000000000000000000000000000000000000000000000000000000000000000000000000000000000000000000000000000000000000000000000000000000000000000000000000000000000000000000000000000000000000000000000000000000000000000000000000000000000000000000000000000000000000000000000000000000000000000000000000000000000000000000000000000000000000000000000000000000000000000000000000000000000000000000000000000000000000000000000000000000000000000000000000000000000000000000000000000000000000000000000000000000000000000000000000000000000000000000000000000000000000000000000000000000000000000000000000000000000000000000000000000000000000000000000000000000000000000000000000000000000000000000000000000000000000000000000000000000000000000000000000000000000000000000000000000000000000000000000000000000000000000000000000000000000000000000000000000000000000000000000000000000000000000000000000000000000000000000540000000000000000000000000000000000000000000000000000000000000000000000000000000000000000000000000000000000000000000000000000000000000000000000000000000000000000000000000000000000000000000000000000000000000000000000000000000000000000000000000000000000000000000000000000000000000000000000000000000000000000000000000000000000000000000000000000000000000000000000000000000000000000000000000000000000000000000000000000000000000000000000000000000000000000000000000000000000000000000000000000000000000000000000000000000000000000000000000000000000000000000000000000000000000000000000000000000000000000000000000000000000000000000000000000000000000000000000000000000000000000000000000000240000000000000000000000000000000000000000000000000000000000000000000000000000000000000000000000000000000000000000000000000000000000000000000000000000000000000000000000000000000000000000000000000000000000000000000000000000000000000000000000000000000000000000000000000000000000000000000000000000000000000000000000000000000000000000000000000000000000000000000000000000000000000000000000000000000000000000000000000000000000000000000000000000000000000000000000000000000000000000000000000000000000000000000000000000000000000000000000000000000000000000000000000000000000000000000000000000000000000000000000000000000000000000000000000000000000000000000000000000000000000000000000000000000000000000000000000000000000000000000000000000000000000000000000000000000000000000000000000000000000000000000000000000000000000000000000000000000000000000000000000000000000000000000000000000000000000000000000000000000000000000000000000000000000000000000000000000000000000000000000000000000000000000000000000000000000000000000000000000000000000000000000000000000000000000000000000000000000000000000000000000000000000000000000000000000000000000000000000000000000000000000000000000000000000000000000000000000000000000000000
#015381:00000000000000000000000000000000000000000000000000000000000000000000000000000000000000000000000000000000000000000000000000000000000000000000000000000000000000000000000000000000000000000000000000000000000000000000000000000000000000000000000000000000000000540000000000000000000000000000000000000000000000000054000000000000000000000000000000000000000000000000000000000000000000000000000000000000000000000000000000000000000000000000000000000000000000000000000000000000000000000000000000000000000000000000000000000000000000000000000000000000000000000000000000000000000000000000000000000000000000000000000000000000000000000000000000000000000000000000000000000000000000000000000000000000000000000000000000000000000000000000000000000000000000000000000000000000000000000000000000000000000000000000000000000000000000000000000000000000000000000000000000000000000000000000000000000000000000000000000000000000000000000000000000000000000000000000000000000000000000000000000000000000000000000000000000000000000000000000000000000000000000000000000000000000000000000000000000000000000000000000000000000000000000000000000000000000000000000000000000000000000000000000000000000000000000000000000000000000000000000000000000000000000000000000000000000000000000000000000000000000000000000000000000000000
#015351:000000000000000000000000000000000000000000000000000000000000000000000000000000000000000000000000000000000000000000000000000000000000000000000000000000000000000000000000000000000000000000000000000000000000000000000000000000000000000000000000000000000000000000000000000000000000000000000000000000000000000000000000000000000000000000000000000000000000000000000000000000000000000000000000000000000000000000000000000000000000000000000000000000000000000000000000000000000000000000000000000000000000000000000000000000000000000000000000000000000000000000000000000000000000000000000000000000000000000000000000000000000000000000000000000000000000000000000000000000000000000000000000000000000000000000000000000000000000000000000000000000000000000000000000000000000000000000000000000000000000000000000000000000000000000000000000000000000000000000000000000000000000000000000000000000000000000000000000000000000000000000000000000000005700000000000000000000000000000000000000370000000000000000000000000000000000000057540000000000000000000000000000000000000000000000000000000000000000000000000000000000000000000000000000000000000000000000000000000000000000000000000000000000000000000000000000000000000000000000000000000000000000000000000000000000000000000000000000000000000000000000000000000000000000000000000000000000000000000000000000000000000000000000000000000000000000000000000000000000000000000000000000000000545600000000000000000000000000000000000000360000000000000000000000000000000000000056000000000000000000000000000000000000000000000000000000000000000000000000000000000000000000000000000000000000000000000000000000000000000000000000000000000000000000000000000000000000000000000000000000000000000000000000000000000000000000000000000000000000000000000000000000000000000000000000000000000000000000000000000000000000000000000000000000000000000000000000000000000000000000000000000000000000000000000000000000000000000000000000000000000000000000000000000000000000000000000000000000000000000000000000000000000000000000000000000000000000000000000000000000000000000000000000000000000000000000000000000000000000000000000000000000000000000000000000000000000000000000000000000000000000000000000000000000000000000000000000000000000000000000000000000000000000000000000000000000000000000000000000000000000000000000000000000000000000000000000000000000000000000000000000000000000000000000000000000000000000000000000000000000000000000000000000000000000000000000000000000000000000000000000000000000000000000000000000000000000000000000000000000000000000000000000000000000000000000000000000000000000000000000000000000000000000000000000000000000000000000000000000000000000000000000000000000000000000000000000000000000000000000000000000000000000000000000000000000000000000000000000000000000000000000000000000000000000000000000000000000000000000000000000000000000000000000000000000000000000000000000000000000000000000000000000000000000000000000000000000000000000000000000000000000000000000000000000000000000000000000000000000000000000000000000000000000000000000000000000000000000000000000000000000000000000000000000000000000000000000000000000000000000000000000000000000000000000000000000000000000000000000000000000000000000000000000000000000000000000000000000000000000000000000000000000000000000000000000000000000000000000000000000000000000000000000000000000000000000000000000000000000000000000000000000000000000000000000000000000000000000000000000000000000000000000000000000000000000000000000000000000000000000000000000000000000000000000000000000000000000000000000000000000000000000000000000000000000000000000000000000000000000000000000000000000000000000000000000000000000000000000000000000000000000000000000000000000000000000000000000000000000000000000000000000000000000000000000000000000000000000000000000000000000000000000000000000000000000000000000000000000000000000
#015371:00000000000000000000000000000000000000000000000000000000000000000000000000000000000000000000000000000000000000000000000000000000000000000000000000000000000000000000000000000000000000000000000000000000000000000000000000000000000000000000000000000000000000000000000000000000000000000000000000000000000000000000000000000000000000000000000000000000000000000000000000000000000000000000000000000000000000000000000000000000000000000000000000000000000000000000000000000000000000000000000000000000000000540000000000000000000000000000000000000000000000000054000000000000000000000000000000000000000000000000000000000000000000000000000000000000000000000000000000000000000000000000000000000000000000000000000000000000000000000000000000000000000000000000000000000000000000000000000000000000000000000000000000000000000000000000000000000000000000000000000000000000000000000000000000000000000000000000000000000000000000000000000000000000000000000000000000000000000000000000000000000000000000000000000000000000000000000000000000000000000000000000000000000000000000000000000000000000000000000000000000000000000000000000000000000000000000000000000000000000000000000000000000000000000000000000000000000000000000000000000000000000000000000000000000000000000000000000000000000000000000000000000000000000
#015341:000000000000000000000000000000000000000000000000000000000000000000000000000000000000000000000000000000000000000000000000000000000000000000000000000000000000000000000000000000000000000000000000000000000000000000000000000000000000000000000000000000000000000000000000000000000000000000000000000000000000000000000000000000000000000000000000000000000000000000000000000000000000000000000000000000000000000000000000000000000000000000000000000000000000000000000000000000000000000000000000000000000000000000000000000000000000000000000000000000000000000000000000000000000000000000000000000000000000000000000000000000000000000000000000000000000000000000000000000000000000000000000000000000000000000000000000000000000000000000000000000000000000000000000000000000000000000000000000000000000000000000000000000000000000000000000000000000000000000000000000000000000000000000000000000000000000000000000000000000000000000000000000000000000000000000000000000000000000000000000000000000000000000000000000000000000000000000000000000000000000000000000000000000000000000000000000000000000000000000000000000000000000000000000000000000000000000000000000000000000000000000000000000000000000000000000000000000000000000000000000000000000000000000000000000000000000000000000000000000000000000000000000000000000000000000000000000000000000000000000000000000000000000000000000000000000000000000000000000000000000000000000000000000000000000000000000000000000000000000000000000000000000000000000000000000000000000000000000000000000000000000000000000000000000000000000000000000000000000000000000000000000000000000000000000000000000000000000000000000000000000000000000000000005700000000000000000000000000000000000000370000000000000000000000000000000000000057540000000000000000000000000000000000000000000000000000000000000000000000000000000000000000000000000000000000000000000000000000000000000000000000000000000000545600000000000000000000000000000000000000360000000000000000000000000000000000000056000000000000000000000000000000000000000000000000000000000000000000000000000000000000000000000000000000000000000000000000000000000000000000000000000000000000000000000000000000000000000000000000000000000000000000000000000000000000000000000000000000000000000000000000000000000000000000000000000000000000000000000000000000000000000000000000000000000000000000000000000000000000000000000000000000000000000000000000000000000000000000000000000000000000000000000000000000000000000000000000000000000000000000000000000000000000000000000000000000000000000000000000000000000000000000000000000000000000000000000000000000000000000000000000000000000000000000000000000000000000000000000000000000000000000000000000000000000000000000000000000000000000000000000000000000000000000000000000000000000000000000000000000000000000000000000000000000000000000000000000000000000000000000000000000000000000000000000000000000000000000000000000000000000000000000000000000000000000000000000000000000000000000000000000000000000000000000000000000000000000000000000000000000000000000000000000000000000000000000000000000000000000000000000000000000000000000000000000000000000000000000000000000000000000000000000000000000000000000000000000000000000000000000000000000000000000000000000000000000000000000000000000000000000000000000000000000000000000000000000000000000000000000000000000000000000000000000000000000000000000000000000000000000000000000000000000000000000000000000000000000000000000000000000000000000000000000000000000000000000000000000000000000000000000000000000000000000000000000000000000000000000000000000000000000000000000000000000000000000000000000000000000000000000000000000000000000000000000000000000000000000000000000000000000000000000000000000000000000000000000000000000000000000000000000000000000000000000000000000000000000000000000000000000000000000000000000000000000000000000000000000000000000000
#016381:12220000000000000000000000000000
#016360:12220000000000000000000000000000
#016340:00000012220000000000000000000000
#0163a1:00000012220000000000000000000000
#016381:00000000000000000012000000000022
#0163b1:0000000000320032
#0163c1:00000000000000000000003232320000
#016360:00000000000000000012000000000022
#016330:0000000000320032
#016320:00000000000000000000003232320000
#017360:12220000000000000000000000000000
#017381:12220000000000000000000000000000
#0173a1:00000012220000000000000000000000
#017340:00000012220000000000000000000000
#0173c0:00000000000012220000000000000000
#017321:00000000000012220000000000000000
#017361:00000000000000000000120000520000
#017321:00000000000000000000003200002200
#017341:00000032
#0173c0:00000000000000000000120000520000
#017380:00000000000000000000003200002200
#0173a0:00000032
#018360:12220000
#018340:00320032000000000000000000000000
#018320:0032000000000000
#018381:00122200
#0183a1:00000000003200320000000000000000
#0183c1:0000003200000000
#018360:00001222
#018340:00000000000000000032003200000000
#018320:0000000000320000
#018381:00000012
#0183a1:00000000000000000000000000320032
#0183c1:0000000000000032
#019381:22
#019360:1200002200000000
#019320:00000032000000000000000000000000
#019350:0000000000000013
#020320:26
#019381:0000000000000013
#020381:26
#020321:0013
#020371:0000000000230000
#020371:00000000000000000000001300000000
#020321:0000000000000023
#0213b1:1323000000000000
#021371:00530000000000000000000000000000
#021321:0000132300000000
#021361:00000000005300000000000000000000
#0213b1:0013
#021361:0000000000230000
#021361:00000000000000000000001300000000
#0213b1:0000000000000023
#0223b1:0013
#022361:0000000000230000
#022361:00000000000000000000001300002300
#0223b1:0000000000000000000000000000000000000000000000000053000000000000
#023321:0013
#023371:0000000000230000
#023371:00000000000000000000001300002300
#023321:0000000000000000000000000000000000000000000000000053000000000000
#0243b1:13
#024371:0023000000000000
#024321:00130000
#024361:0000002300000000
#024361:0000000000130000
#0243b1:00000053
#024371:0000000000000023
#024320:00000000000000000000001300002300
#024360:0000000000000000000000000000000000000000000000000053000000000000
#025320:1323000000000000
#025360:00530000000000000000000000000000
#0253b1:0013230000000000
#025371:00000053000000000000000000000000
#025320:0000132300000000
#025360:00000000005300000000000000000000
#0253b1:0000001300000000
#025361:0023
#025371:0000000000130000
#025321:00000053
#025361:0000000000000023
#0253b0:00000000000000000000001300002300
#025370:0000000000000000000000000000000000000000000000000053000000000000
#026320:0013
#026360:0000000000230000
#0263b0:00000000000000000000001300002300
#026360:0000000000000000000000000000000000000000000000000053000000000000
#0273b0:0013
#027370:0000000000230000
#028320:00000000000000000013000000000000
#028370:00000000000000000000002300000000
#028361:00000000000000000013000000000000
#0283b1:00000000000000000000002300000000
#029351:11210000000000000000000000000000
#029321:0057000000000000000000000000000000000000000000000000000000000000
#0293a1:00000011210000000000000000000000
#029371:0000000000000057000000000000000000000000000000000000000000000000
#029321:00000000000000130023000000000000
#029361:0053
#029370:00000000000000000013002300000000
#0293b0:0000000000530000
#030360:00001222
#030320:0000000000530000
#030381:00001222
#0303b1:0000000000530000
#031321:00001323
#031341:00000000000000000053005300000000
#031361:0000000000530000
#0313b0:00001323
#031390:00000000000000000053005300000000
#031370:000000000000000000000000000000000000000000000000000000000000000000000000000000000000000000000000000000000000000000000000000000000000000000000000000000000000000000000000000000000000000000000000000000000000000000000000000000000000000000000000000000000000000000000000000000000000000000000000000000000000000000000000000000000000000000000000000000000000000000000000000000000000000000000000000000000000000000000000000000000000000000000000000000000000000000000000000000000000000000000000000000000000000000000000000000000000000000000000000000000000000000000000000000000000000000000000000000000000000000000000000000000000000000000000000000000000000000000000000000000000000000000000000000000000000000000000000000000000000000000000000000000000000000000000000000000000000000000000000000000000000000000000000000000000000000000000000000000000000000000000000000000000000000000000000000000000000000000000000000000000000000000000000000000000000000000000000000000000000000000000000000000000000000000000000000000000000000000000000000000000000000000000000000000000000000000000000000000000000000000000000000000000000000000000000000000000000000000000000000000000000000000000000000000000000000000000000000000000000000000000000000000000000000000000000000000000000000000000000000000000000000000000000000000000000000000000000000000000000000000000000000000000000000000000000000000000000000000000000000000000000000000000000000000000000000000000000000000000000000000000000000000000000000000000000000000000000000000000000000000000000000000000000000000000000000000000000000000000000000000000000000000000000000000000000000000000000000000000000000000000000000000000000000000000000000000000000000000000000000000000000000000000000000000000000000000000000000000000000000000000000000000000000000000000000000000000000000000000000000000000000000000000000000000000000000000000000000000000000000000000000000000000000000000000000000000000000000000000000000000000000000000000000000000000000000000000000000000000000000000000000000000000000000000000000000000000000000000000000000000000000000000000000000000000000000000000000000000000000000000000000000000000000000000000000000000000000000000000000000000000000000000000000000000000000000000000000000000000000000000000000000000000000000000000000000000000000000000000000000000000000000000000000000000000000000000000000000000000000000000000000000000000000000000000000000000000000000000000000000000053000000000000000000000000000000000000000000000000000000000000000000000000000000000000000000000000000000000000000000000000000000000000000000000000000000000000000000000000000000000000000000000000000000000000000000000000000000000000000000000000000000000000000000000000000000000000000000000000000000000000000000000000000000000000000000000000000000000000000000000000000000000000000000000000000000000000000000000000000000000000000000000000000000000000000000000000000000000000000000000000000000000000000000000000000000000000000000000000000000000000000000000000000000000000000000000000000000000000000000000000000000000000000000000000000000000000000000000000000000000000000000000000000000000000000000000000000000000000000000000000000000000000000000000000000000000000000000000000000000000000000000000000000000000000000000000000000000000000000000000000000000000000000000000000000000000000000000000000000000000000000000000000000000000000000000000000000000000000000000000000000000000000000000000000000000000000000000000000000000000000000000000000000000000000000000000000000000000000000000000000000000000000000000000000000000000000000000000000000000000000000000000000000000000000000000000000000000000000000000000000000000000000000000000000000000000000000000000000000000000000000000000000000000000000000000000000000000000000000000000000000000000000000000000000000000000000000000000000000000000000000000000000000000000000000000000000000000000000000000000000
#032360:00130000000000000000000000000000
#032320:00000023000000000000000000000000
#0323b1:00130000000000000000000000000000
#032371:00000023000000000000000000000000
#032371:00000000000000130000000000000000
#0323b1:00000000000000000023000000000000
#032320:00000000000000130000000000000000
#032360:00000000000000000023000000000000
#034320:132300000000
#0343b0:000000130023000000000000
#034360:00000012
#034320:000000000000000000000022
#034381:00000012
#0343c1:000000000000000000000022
#035351:000000000000135300000000
#035321:0000000000230000
#035380:000000000000135300000000
#0353b0:0000000000230000
#0363c0:00120000
#036370:0000002200000000
#036321:0000001200000000
#036371:0022
#036321:0000000000120000
#036371:00000022
#0363c0:00000012
#036370:0000000000000022
#0373a0:14
#037360:0024000000000000
#037320:00000014000000000000000000000000
#037360:00000000002400000000000000000000
#037370:00000013
#037390:00000000000000000000000000330000
#0373b0:0000000000000023
#038360:00130000
#038340:00000000003300000000000000000000
#038320:0000002300000000
#039320:13003300005333003300330000005300
#039370:00000053330000000000005333000000
#040360:23
#039361:13000000000000533300000000000000
#0393b1:00533300330033000053330033000000
#039371:0000000000000053
#0403b1:23
#0403a1:0014
#0403c1:0000000000220000
#040320:0000000014220000
#040360:0000000000000012
#041320:22
#041320:0012
#041360:0000000000220000
#0413c1:0012
#041381:0000000000220000
#041361:00000000000000000000000000000012
#042321:00520000000000000000000000000000
#042361:00000022000000000000000000000000
#042381:00000000000000120000002200000000
#0423c1:00000000000000000052000000000000
#043321:12
#043341:0022000000000000
#0433c0:0012000000000000
#0433a0:00220000
#043341:00120000
#043361:0000002200000000
#0433a0:0000001200000000
#043380:000000000000325353220000
#043350:000000000000000000000000005300530053000000000000
#043361:00001222
#043381:000000000000000000000000005300530053000000000000
#043351:000000000000005353000000
#045321:00130000
#045371:0000002300000000
#0453b1:00000013
#045361:0000000000000023
#046321:1300003300000000
#046361:0033000023000000
#046341:00330000
#0463b0:0000132300000000
#0463b0:0000000013000033
#046370:0000000000330000
#046390:00000033
#047370:23
#046321:0000000000001323
#047320:00130000
#047370:0000002300000000
#0473b0:00000013
#047360:0000000000000023
#0483b0:1323000000000000
#048360:00330000000000000000000000000000
#048320:0000132300000000
#048370:00000000003300000000000000000000
#0493b0:0013
#049360:0000000000230000
#049321:0000000000130000
#049371:00000023
#050361:0013
#0503b1:0000000000230000
#050371:00000000000000000000001300000000
#050321:00000000000000000000000000230000
#052321:13
#052371:0023000000000000
#0523b0:0013000000000000
#052360:00230000
#052320:0000000013230000
#0523b0:00000000000000000000001300230000
#0533b0:13
#053360:0053000000000000
#0533c0:00522200
#053370:0000005200000000
#053321:00001222
#053371:0000000000520000
#053371:0000000000000012
#0543c1:52
#054371:0022000000000000
#054371:00122200
#054321:0000005200000000
#055321:12322200
#055371:0052005200000000
#0553c0:00001222
#055370:0000000000520000
#056320:12220000
#056370:0052000000000000
#0563c1:00122200
#056371:0000005200000000
#056320:00001222
#056370:0000000000520000
