This file was generated by Ched 2.7.0.0.
#TITLE ""
#ARTIST ""
#DESIGNER ""
#DIFFICULTY 0
#PLAYLEVEL
#SONGID ""
#WAVE ""
#WAVEOFFSET 0
#JACKET ""
#REQUEST "ticks_per_beat 480"
#00002: 4
#BPM01: 100
#00008: 01
#TIL00: ""
#HISPEED 00
#MEASUREHS 00
#01212:00000014
#01218:2424
#01214:00240000
#01210:41
#04512:26000014
#04516:0014
#0451a:00140000
#04510:41
#0461a:14
#04612:0014
#05312:24140000
#05318:00001414
#05414:14140000
#0541a:00001414
#02814:00000014
#0281a:14
#02812:00140000
#02818:0014
#0281f:11
#0421a:14
#04212:0014
#0041a:14
#00414:00140000
#00418:0014
#00412:00000014
#00410:41
#0051a:14
#00514:00140000
#00518:0014
#00512:00000014
#01312:00000014
#01318:2424
#01314:00240000
#01614:00000014
#01618:24
#01612:00240000
#0161a:0024
#01714:00000014
#01718:24
#01712:00240000
#0171a:0024
#0181a:14
#01816:00140000
#01812:0014
#01818:00000014
#02114:00001414
#02118:00160000
#02112:16
#0201a:00001414
#02012:00160000
#02018:26
#02010:41
#02412:00160000
#02418:16001414
#0301a:14
#03018:00140000
#03212:00000014
#03218:14
#03214:00140000
#0321a:0014
#0351a:0014
#03514:00140000
#03614:14
#03618:00000014
#0361f:21
#03712:14
#03718:00000014
#03710:41
#03914:00000014
#0391a:14
#04114:00000014
#0411a:0014
#04116:00140000
#04112:24
#0431a:14
#04314:00140000
#04318:0014
#04312:00000014
#04716:0014
#04718:1600000000000034
#04712:00140000
#0471a:00000014
#03112:14
#03114:00140000
#03318:14
#03314:00140000
#03312:00000014
#0331a:0014
#0221a:0014
#02312:0014
#02714:0014
#02710:41
#0061a:14
#00612:00140000
#00618:0014
#00614:00000014
#0071a:14
#00712:00140000
#00718:0014
#02618:0014
#05112:1616
#05118:00160000
#0511a:00000014
#04914:0014
#04918:0026000000140000
#04912:26000014
#05018:2614
#05014:0000000000140000
#0501a:00000014
#05012:0026000000000000
#0481a:0034341434340000
#04818:14
#00812:14
#00818:00140000
#00814:0014
#0081a:00000014
#00912:14
#00918:00140000
#00914:0014
#0091a:00000014
#01012:14
#0101a:00140000
#01014:0014
#01018:00000014
#01112:14
#0111a:00140000
#01114:0014
#02518:00160000
#02512:16001414
#03818:14
#03814:00000014
#04016:00140000
#04012:0014
#04018:00000014
#0401a:24
#05212:14
#05216:00140014
#0521a:0014
#01914:14
#0291a:24
#02912:00240000
#02918:0024
#02914:00000024
#00018:00000034000034000000000000000000
#00114:00000034000034000000000000000000
#00312:00000034000034000000000000000000
#0021a:00000034000034000000000000000000
#0425a:64
#04252:0054
#04258:00140000
#04254:00000014
#0305a:54
#03058:00240000
#03654:54
#04552:16
#05658:00000014
#03152:64
#03154:00240000
#0355a:0014
#02058:16
#0225a:0054
#02352:0064
#02754:0054
#02658:0064
#05152:1616
#05158:00160000
#04958:0016000000000000
#05052:0016000000000000
#0485a:0000002400000000
#04858:64
#0475a:00000054
#03752:24
#03858:64
#0395a:24
#04652:0024
#0465a:24
#000380:14000034000034000000000000000000
#0003a0:00000024
#001340:14000034000034000000000000000000
#001320:00000024
#0023a0:14000034000034000000000000000000
#002380:00000024
#003320:14000034000034000000000000000000
#003340:00000024
#014380:1434
#0143a0:00340024
#015340:1434
#015320:00340024
#0223a0:1434
#022390:0034003400000000
#022380:00340024
#023320:1434
#023330:0034003400000000
#023340:00340024
#026380:1434
#026390:0034003400000000
#0263a0:00340024
#027340:1434
#027330:0034003400000000
#027320:00340024
#0303a0:14003424
#030380:00340000
#031320:14003424
#031340:00340000
#0343a0:1434
#034380:00340034
#0353a0:24
#036340:14
#036320:0024
#037320:14
#037340:0024
#038380:14
#0383a0:0024
#0393a0:14
#039380:0024
#0423a0:14
#042380:00240000
#042320:0014
#042340:00000024
#0443a0:14
#044390:0034000000000000
#044380:00340000
#044370:0000003400000000
#044360:00003424
#0463a0:14
#046380:00240000
#046320:0014
#046340:00000024
#0473a0:00000014
#047380:0000000000000034
#048380:34000024
#0483a0:0034343434340000
#055320:1434
#055340:00340024
#0563a0:1434
#056380:00340024
