This file was generated by Ched 2.7.0.0.
#TITLE ""
#ARTIST ""
#DESIGNER ""
#DIFFICULTY 0
#PLAYLEVEL
#SONGID ""
#WAVE ""
#WAVEOFFSET 0
#JACKET ""
#REQUEST "ticks_per_beat 480"
#00002: 4
#BPM01: 85
#00008: 01
#TIL00: ""
#HISPEED 00
#MEASUREHS 00
#0041a:0014
#00514:0014
#00618:0014
#00712:0014
#0081a:0014
#00810:0041
#00914:0014
#01212:0014
#01210:0041
#01318:0014
#01712:16
#01718:0016
#01812:16
#02112:16
#02118:0016
#02212:16
#02210:0041
#0251a:0014
#02614:0014
#02718:0014
#02918:16
#02912:0016
#02910:41
#03018:16
#03318:16
#03312:0016
#03418:16
#03718:16
#03912:16
#04012:0016
#04118:16
#04112:0016
#04218:16
#04512:0014
#04618:0014
#04714:0014
#0241f:0011
#01618:0026
#01610:0041
#02018:0026
#02812:0026
#0281f:0021
#03212:0026
#03612:0026
#03610:0041
#03818:0026
#010380:0014
#011380:0024
#014340:0014
#015340:0024
#018380:0016
#019380:26
#019320:0016
#020320:26
#022380:0016
#023380:26
#023320:0016
#024320:3626
#030320:0016
#031320:26
#031380:0016
#032380:26
#034320:0016
#035320:26
#035380:0016
#036380:26
#037320:0016
#038320:26
#039380:0016
#040380:26
#042320:0016
#043320:26
#043380:0016
#044380:3626
#0483a0:0014
#0503a0:00240000
