This file was generated by Ched 2.7.0.0.
#TITLE ""
#ARTIST ""
#DESIGNER ""
#DIFFICULTY 0
#PLAYLEVEL
#SONGID ""
#WAVE ""
#WAVEOFFSET 0
#JACKET ""
#REQUEST "ticks_per_beat 480"
#00002: 4
#BPM01: 85
#00008: 01
#TIL00: ""
#HISPEED 00
#MEASUREHS 00
#00412:0013
#00417:00001333
#00517:00331333
#00512:1313
#0051b:13
#00612:13
#0061b:0013
#00616:00001333
#00716:00331333
#0071b:1313
#00712:13
#0081b:13001313
#00818:0000001300000013
#00812:00001313
#00815:0000000000130000
#00810:0041
#00918:00130000
#0091b:13001313
#00912:1313
#00914:0000000000130013
#00916:00000013
#00915:00000033000000000000000000000000
#01016:00130000
#01012:13001313
#0101b:00000033000000001300000013000000
#01018:0000000000130000
#01015:0000000000000013
#01017:13
#01112:13000000000000001300000000000033
#01115:00130000
#01117:0013
#01119:0000000000130000
#0111b:13000013
#01116:00000013
#01217:13000000000000001300000000000033
#01216:00000013
#01212:1300000013130000
#0121b:00230013
#01210:0041
#01312:1300001300001300
#01317:13000013
#01316:00000000000000001300000000000033
#0131b:0000000013130000
#01418:00000000000000130000000000000013
#01412:00000013
#01416:13
#0141b:13
#01515:13000000000000130000000013000000
#0151b:00130000
#01518:0013
#01618:13000000000000000013001300000000
#0161b:00000000000000130000000000000033
#01612:00000000000000002300130000330000
#01610:0041
#01715:13001300000013000000000000130000
#0171b:00130013000000130000000013000000
#01712:00130000
#01718:00000000001300000000000000000000
#01815:13000000000013000000001300000013
#0181b:00130000
#01818:00000000000000130000130000001300
#01812:00000000000000002313000000000000
#0191b:23130000000000000013000000000013
#01915:0013003300130013
#01918:00000013000000130000001300130000
#01912:00000000001300002300000013000000
#02012:13000000000000130000000000000033
#0201b:00130000000000002300130000330000
#02015:00001300000000000013001300000000
#02018:00000013000000000000000000000000
#02118:1313000000001300
#02112:00130013000000000000000013000000
#0211b:0000130000130013
#02115:00000000000013130000130000000000
#02218:00130000000013000000000000130000
#02212:00130000
#02215:00000000000000130000131300000013
#0221b:0013
#02210:0041
#02312:00130000000000001300000000001300
#02318:00001300000000130000000000333333
#02315:00000013000013000033333300000000
#0231b:23000000001300000000130013000000
#02412:1300001300000000
#0241b:00130000000013000000000000000000
#02415:0013000000000000
#02418:00000013000000000000000000000000
#02414:00000012
#0241f:0011
#0251c:00120000
#02518:12
#02516:00000012
#02618:00000012
#0261c:00122200
#02815:00000000000000000013000000001300
#02818:00000000000000000000130000130000
#02812:00000000120000000000001300000013
#0281b:00002323
#0281f:0021
#0291b:00130000000000000000000000000013
#02915:0013001300000000
#02918:23132300
#02912:0000000000130000
#02917:00000000000000000000001300000000
#02914:00000013
#02919:00000000000000000000000000130000
#02916:0000000000000013
#02910:41
#03012:00130000000000000000001300000000
#03017:00130000000000000000000000000000
#03018:00000000000013000013000000000013
#03015:00000000000000130000130000001300
#0301b:00000000000000002300001300000000
#03115:00130000000013000000001300001300
#03118:00001300001300130000130000000013
#03112:23000013000000001313000000000000
#0311b:00000013000000000000000013130000
#03212:13002323
#0321b:00130000000000000000001300000013
#03218:00001300000000130013000000001300
#03215:00000013000000000000130000130000
#03312:00130000000000000000000000000013
#0331b:00001300000013130000130000000000
#03318:00000013000000000000000000000000
#03315:23130000
#03316:00000000000000000000001300000000
#03319:00000013
#03314:00000000000000000000000000130000
#03317:0000000000000013
#03415:00000000000013000013000000000013
#03418:00000000000000130000130000001300
#03412:00000000000000002300001600000000
#0341b:00130000000000002300000000000000
#03416:00130000000000000000000000000000
#03515:00001300000000001313000000000000
#03518:00130016000000000000000013130000
#03512:23000000000013000000001300000000
#0351b:23000000000000130000130000000000
#03615:00002300000000000000130000000013
#03618:00230000000000000013001300001300
#0361b:2313
#03612:00000023000000002300000000000000
#03610:0041
#0371b:0000000000131313
#03716:00000014
#03712:00261400
#03715:0013000000000000
#03718:00000013000026002300000000000000
#0381a:14
#03812:00001300130000000000000000130000
#03819:0000000000130000
#03815:00000000000000130000000000000000
#03818:00000000000013000000000000000013
#03817:00000013
#03814:00000000000000000000001300000000
#0381b:0013
#03816:00000000000000000013000000000000
#03912:0000002600131313
#03916:00000014
#0391a:0014
#03918:0013260000000000
#03915:00000013000000002300000000000000
#04012:14000000000013000000001300000013
#0401b:0013130000130013
#04015:00000000000000000013000000130000
#04018:00002323
#04218:00120000000013000000000000000013
#04216:00120000000000000000000000000000
#04215:00000000000000130000000000001300
#04212:00000000000000000000141400000000
#0421b:0013
#0411c:0000000000221200
#04112:00000013000000000000000012000000
#04115:00130000000023230000000000000000
#0411b:0013000000000000
#04118:23000000230000000000000000323232
#04116:00000000000000000000000000323232
#0431a:00001414000000000000000000000000
#04312:13002323
#04315:00330000001300000000130000001300
#04318:00000000000013000013000000130000
#0431b:00000000000000130000001300000013
#04418:00002313000000001300000000000000
#04412:0016
#04415:00230023000000000000000000000000
#0451b:13
#04515:0013
#04612:13
#0461b:0013
#04718:0013
#04712:13
#04815:13
#04812:00330000
#02712:00120000
#02716:12
#02718:00000012
#00457:0053
#00557:0053
#0055b:23
#00656:0063
#00756:0063
#00752:23
#00952:53
#01057:53
#0115b:53
#01156:00000053
#0125b:00000063
#01252:53
#01357:63
#01352:63000053
#01452:00000053
#01456:53
#0145b:53
#01555:53000063
#01558:0053
#01658:13
#01855:53000000000000000000005300000000
#01852:00130000
#0185b:00130000
#01958:00000013000000000000000000000000
#01952:00000000005300000000000000000000
#02258:00630000000000000000000000630000
#02252:00130000
#0225b:00135300
#02255:00000000000000000000005300000000
#0215b:00530000
#02058:00000053000000000000000000000000
#02352:0053
#0235b:00000063
#02355:00000013000000000000000000000000
#02455:0013
#02458:0013
#02452:0000005300000000
#0245b:0000005300000000
#02955:0063006300000000
#02958:00531300
#0295b:00000000000000000000000000000053
#03057:00530000000000000000000000000000
#03052:00530000000000000000000000000000
#0305b:00000000000000000000001300000000
#03152:00000013000000000000000000000000
#03255:00000053000000000000000000000000
#03355:00530000
#03352:00000000000000000000000000000063
#03452:00000000000000000000001600000000
#0345b:00630000000000000000000000000000
#03456:00630000000000000000000000000000
#03558:00000016000000000000000000000000
#03752:00365400
#03756:00000054
#03758:0000004600000000
#0385a:64
#03856:00140000
#03852:00130000
#03956:00000064
#0395a:0064
#03958:00460000
#03952:0000003600000000
#04052:54
#0415c:00000052
#04152:00000062
#04258:00520000000000000000000000000000
#04256:00620000000000000000000000000000
#0425b:0053
#04352:63
#0435b:00000000000000000000000000000053
#04452:0016
#04458:00000053000000005300000000000000
#04455:00000053000000000000000000000000
#0455b:23
#04555:0063
#04652:23
#0465b:0053
#04758:0063
#04752:63
#04855:53
#03652:0013
#004370:00001333
#0053b0:53
#005370:00333333
#0063b0:00230000
#006360:00001333
#007320:53
#007360:00333333
#008320:00230000
#009320:13
#009350:00000033230000000000000000000000
#010370:13
#0103b0:00000033230000000000000000000000
#0113b0:13
#011380:00230000
#011360:00000013
#011320:00000000000000000000000000000033
#012320:33
#012360:00230000
#0123b0:00000013
#012370:00000000000000000000000000000033
#013370:33
#0133b0:00230000
#013321:13
#013361:00230000
#013321:00000013
#013361:00000000000000000000000000000033
#014361:33
#014321:00230000
#0143b0:13
#014370:00230000
#014350:0000000013230000
#0143b1:0000000000132300
#014320:00000013
#014350:00000000000000000000000000000023
#015350:13
#015320:00230000
#015380:0013
#0153b0:00000023
#015351:00000013
#016321:23
#016351:00000013
#016321:00000000000000000000000000332300
#016380:0000000000000013
#0163b0:00000000000000000000000000000033
#0173b0:23
#017320:0000000000130000
#017350:00000023
#0173b0:0000000000000013
#018380:23
#018351:13
#018321:00230000
#018351:00000000000000000000001300000000
#018321:0000000000000023
#019321:00000000001300000000000000000000
#019351:00000000000033230000000000000000
#020381:00000013000000000000000000000000
#0203b1:00000000000000230000000000000000
#020381:00000013
#0203b1:00000000000000000000000000332300
#020350:0000000000000013
#020320:00000000000000000000000000000033
#021320:23
#0213b0:00130000
#021380:0000002300000000
#021320:00000000000000000000000000000013
#022350:00230000000000000000000000000000
#022381:00130000000000000000000000000000
#0223b1:00230000
#0223b1:0013
#022381:0000000000230000
#022351:00000000000000000000001300000000
#022321:00000000000000000000000000230000
#022380:00000000000000000000000000130000
#0223b0:00000000000000000000000000000023
#023320:0013
#023350:00000000000000000033333323000000
#0233b1:00000013
#023381:00000000000000000000000000333333
#024381:23
#024321:00000000001333000000000000000000
#024351:0023
#0243b0:0000001300000000
#024380:0023
#025320:1222
#025360:00320000
#025381:0012
#0253c1:00000032
#026381:22
#026360:12
#026320:00220000
#026320:0012
#026360:00000022
#0273c0:1222
#027380:00320000
#027361:0012
#027321:00000032
#028361:22
#028380:12
#0283c0:00220000
#029350:0013000000000000
#029320:00230000
#029381:00130000
#0293b1:0000002300000000
#029350:0000001300000000
#029320:0023
#0293b0:00000000000000000000000000000013
#030370:00330000000000000000000000000000
#0303b0:00230000
#030321:00130000000000000000000000000000
#030361:00230000
#032351:00000013000000000000000000000000
#032321:00000000000000230000000000000000
#033351:00130000
#033321:0000002300000000
#033321:00000000000000000000000000000013
#034361:00330000000000000000000000000000
#034321:00230000
#0343b0:00130000000000000000000000000000
#034370:00230000
#035320:0000000000000013
#036320:23
#036320:00000013
#036350:0000000000000023
#037380:13
#0373b0:0023000000000000
#037320:0014
#037360:00000054
#038320:24
#0383a1:14
#038361:00240000
#039321:13
#039351:0023000000000000
#0393a1:0014
#039361:00000054
#0403a1:24
#040320:14
#040360:00240000
#0413c0:0000000000123200
#041380:00000000000000000000000000323232
#042380:00320000000000000000000000000000
#0423c0:00220000
#041321:0000000000123200
#041361:00000000000000000000000000323232
#042361:00320000000000000000000000000000
#042321:00220000
#0423b1:0013
#042381:0000000000230000
#043321:13
#043351:00332300000000000000000000000000
#0433b1:00000000000000000000000000000013
#044381:00230000000000000000000000000000
#044381:00001333000000000000000000000000
#0443b1:0000002300000000
#044350:00000013000000000000000000000000
#044320:0000002300000000
#044380:0013
#0453b0:33
#045380:0023
#045351:0013
#046321:33
#046351:0023
#0463b0:0013
#047380:23
#047321:13
#047351:0023
#047380:0013
#0483b0:23
#048351:13
#048321:00333300
#050321:0022000000000000
#0483b0:0013
#0503c0:0022000000000000
