This file was generated by Ched 2.7.0.0.
#TITLE ""
#ARTIST ""
#DESIGNER ""
#DIFFICULTY 0
#PLAYLEVEL
#SONGID ""
#WAVE ""
#WAVEOFFSET 0
#JACKET ""
#REQUEST "ticks_per_beat 480"
#00002: 4
#BPM01: 85
#00008: 01
#TIL00: ""
#HISPEED 00
#MEASUREHS 00
#0041b:00001333
#00815:0013
#00818:0000000000130013
#00812:33000013
#0081b:0000001300000000
#00810:0041
#01018:1300000000130000
#01012:0013
#0101b:00000033000000000000000000001300
#01015:00000013
#0111b:00001313
#01115:0000000000130000
#01112:13
#01118:00000000000000000000000000000033
#00915:1300000000130013
#00918:0013
#0091b:00000013
#00912:00000033000000000000000000000000
#01212:00000000000000001300000000000033
#01218:1300000000130000
#01215:00000013
#01210:0041
#01312:13
#0131b:00000000000000001300000000000033
#01315:0000000000130000
#01318:0000001300001300
#01518:13000000000000130000000000000000
#01515:0013
#01512:00000013
#01618:00000000000000130000000000000000
#01612:00000000000000001333333300333333
#01615:00000013
#01610:0041
#01415:00000000000000130000130000000000
#0141b:13000013
#01418:00000000000000001300000000000033
#01718:0013000000001313
#01715:00000000130013000000000000130000
#0171b:00000000001300130000000000000000
#01712:0000000000130000
#01815:13000000000000130000001300000013
#01818:0000001300130013
#01812:00000000000000000013000000000000
#0181b:0023
#01912:00130000000000000000000000000013
#01918:0013000000000013
#01915:00000013000000000000130000130000
#0191b:23000000000033330000000013000000
#02218:00130000000000130000130000000000
#02212:0000001300000000
#0221b:00000000000000000000000000000013
#02215:0013
#02210:0041
#02118:0000131300000013
#02115:00001300000000000000000013000013
#0211b:0000000000130000
#02112:00000000001300130000000000000000
#0201b:13000000000000001333333300333333
#02012:00130000000000000000000000000000
#02015:00000013000000000000000000000000
#02018:0013000000001300
#0231b:00130013000000001300000000333333
#02315:23001300000000130000000000000000
#02318:00000000000013000033333313000000
#02312:00000000001300000000000000000000
#02415:00130000000000000000000000000000
#02418:00001300001300000000000012000000
#02412:00000013000000000000000000000000
#0241f:0011
#0251a:00120000
#02518:12000012
#02514:12
#02516:00121200
#02815:00000000000000000013001300000000
#0281b:0000000023130000
#02812:00000000000000000000000000130013
#02818:0000000000002313
#0281f:0021
#02915:00130000000000000000000013000000
#0291b:23001300000000000000000000130000
#02918:00000000130000000000001300000013
#02912:0000000000130013
#02910:41
#03015:00130000000000130000000000001300
#03018:00000000000013000033330000000013
#0301b:0013
#0311b:00000000001300000000000000000000
#03118:00000000000000130000000000000000
#03115:00333300000013000033333313000000
#03112:13000000000000001300000000333333
#03618:00230000000000000000130000000013
#03615:00002300000000000000001300001300
#0361b:00000023000000000000000013000000
#03612:0023
#03610:0041
#03717:00000014
#0371a:00241400
#03715:00000013000000000000000000000000
#03712:1300002400000000
#03718:0013000000000000
#03812:0000000013130000
#03818:00000000000000130000000000130000
#03815:00000000000013000000000013000013
#0381b:00000000000000000013001300000000
#0381a:14
#04018:00000000000013000013001300000000
#04012:1400000023130000
#0401b:00000000000000000000000000130013
#04015:0000000000002313
#04218:13330000000013000000130000001300
#04215:00000000000000130000001300000013
#04212:13330000000000000013000000000000
#0421b:0023
#04318:00001300001300130013001300000000
#04315:00000013000013000000000023001300
#04312:00130000000000002300130000000000
#0431b:23000000000000000000000000130013
#04418:0023000013000000
#04415:00230023000000000000000000000000
#0451b:13
#04518:0013
#00512:0013
#00515:00000033
#0051b:33
#02714:00120000
#02716:12000012
#0271a:12
#02718:00121200
#02616:00000012
#02618:0022
#03218:00130000000000000013001300000000
#03215:0013000000002313
#0321b:00000013000000000000000000130013
#03212:0000000023130000
#03318:00130013000000000000000013000000
#0331b:0000000000130013
#03315:00000000003333000000001300000013
#03312:23001300130000000000000000130000
#03418:00130000000000130000000000001300
#03415:00000000000013000033330000000013
#03412:0013
#03518:00333300000000130000000000000000
#03515:00000000000013000033333313000000
#0351b:13
#03512:00000000000000001300000000333333
#03918:13000013000000000000000000000000
#03915:0013000000001400
#03912:00241400
#0391a:0000002400000000
#04118:00130013000023000000000000333333
#04112:23001300000000000000000000333333
#04115:00000000230000230000000013000000
#0411b:0000000000231300
#0461b:13
#04615:0013
#04712:13
#04715:0013
#04812:13
#04815:00330000
#00618:00001333
#00615:33
#00715:0013
#00712:00000033
#00718:33
#0045b:0063
#00955:63
#01152:63
#0115b:00000053
#01255:00000063
#01258:53
#01352:63
#01358:00000053
#01555:0063
#01558:63
#01552:00000063
#01855:53
#01852:00130000
#01955:00000013000000000000000000000000
#02258:00630000000000000000000000000000
#0225b:00130000
#02055:00000063000000000000000000000000
#0205b:0063
#02058:00000063
#0235b:00000013000000006300000000000000
#02358:00000053
#02455:0013
#0295b:0063000000000000
#02958:00530000
#03055:00530000000000000000000000000000
#0305b:0053
#03058:00000000000000000000001300000000
#0375a:0064
#03757:00000064
#04458:0053
#04455:00000053000000000000000000000000
#0455b:23
#04558:0053
#03652:0013
#00552:0053
#01058:53
#0145b:53000063
#01655:13000053
#01652:0053
#03152:6353
#03155:00000013000000000000000063000000
#0325b:00000053000000000000000000000000
#03458:00630000000000000000000000000000
#03452:0063
#03455:00000000000000000000001300000000
#0355b:53
#03552:0053
#03555:00000063
#03558:00000013000000000000000000000000
#03352:00530000
#0385a:54
#03857:00140000
#03955:00000054
#03952:0054
#04052:64
#04155:00000053
#0415b:00000053
#04252:23
#04258:23
#04255:00000000000000000000001300000000
#0465b:23
#04655:0063
#04752:23
#04755:0063
#04852:23
#04355:00000013000000000000000000000000
#00658:0053
#00755:0063
#0043b0:00001333
#0053b0:33
#005380:00230000
#005320:0013
#005350:00000033
#006350:33230000
#006380:00001333
#007380:33
#0073b0:00230000
#007350:0013
#007320:00000033
#008320:33230000
#009350:13
#009320:00000033230000000000000000000000
#010380:13
#0103b0:00000033230000000000000000000000
#011320:13
#011350:00230000
#0113b0:00000013
#011380:00000000000000000000000000000033
#012380:33
#0123b0:00230000
#012350:00000013
#012320:00000000000000000000000000000033
#013320:33
#013350:00230000
#013380:00000013
#0133b0:00000000000000000000000000000033
#0143b0:33
#014380:00230000
#0143b0:00000013
#014380:00000000000000000000000000000033
#015380:33
#0153b0:00230000
#015350:0013
#015320:00000033
#016350:23
#016320:00000000000000001333333300333333
#016350:00000033
#017320:23
#018350:13
#018320:00230000
#019380:00000000001300000000000000000000
#0193b0:00000000000033332300000000000000
#020350:00000013000000000000000000000000
#020320:00000000000000230000000000000000
#0203b0:00000000000000001333333300333333
#020380:00000033
#0213b0:23
#022380:00130000000000000000000000000000
#0223b0:00230000
#022350:00000000000000000000001300230000
#0233b0:00000000000000001300000000333333
#023380:00000000000000000033333333000000
#0243b0:23
#024350:0000001323000000
#026360:12
#026340:00220000
#0263a1:12
#026381:00220000
#028381:12
#0283a1:00220000
#028340:12
#028360:00220000
#0293b0:0013002300000000
#029380:00330000
#030350:00130000000000000000000000000000
#030320:00230000
#0303b0:0013
#030380:00000000000000000033332300000000
#031320:13
#031350:00333323000000000000000000000000
#031320:00000000000000001300000000333333
#031350:00000000000000000033333333000000
#032320:23
#0323b0:00000013000000000000000000000000
#032380:0000002300000000
#033320:00130000
#033350:00000000003333230000000000000000
#034380:00130000000000000000000000000000
#0343b0:00230000
#034320:0013
#034350:00000000000000000033332300000000
#0353b0:13
#035380:00333323000000000000000000000000
#035320:00000000000000001300000000333333
#035350:00000000000000000033333333000000
#036320:23
#0373a0:0014
#037370:00000034
#0383a0:34
#038370:00240000
#039320:0014
#039350:00000034
#040320:34
#040350:00240000
#041350:0000000000133300
#041320:00000000000000000000000000333333
#042320:53330000000000000000000000000000
#042350:00230000
#0413b1:0000000000133300
#041381:00000000000000000000000000333333
#042381:53330000000000000000000000000000
#0423b1:00230000
#044351:00000013000000000000000000000000
#044321:0000002300000000
#044381:0013
#0453b1:33
#045381:0033
#0463b1:33
#046381:0023
#046350:0013
#047320:33
#047350:0033
#048320:33
#048350:00333300
#050320:0023000000000000
#048381:0013
#0503b1:0023000000000000
