This file was generated by Ched 2.7.0.0.
#TITLE ""
#ARTIST ""
#DESIGNER ""
#DIFFICULTY 0
#PLAYLEVEL
#SONGID ""
#WAVE ""
#WAVEOFFSET 0
#JACKET ""
#REQUEST "ticks_per_beat 480"
#00002: 4
#BPM01: 85
#00008: 01
#TIL00: ""
#HISPEED 00
#MEASUREHS 00
#00818:00001212
#00812:0000000012000012
#0081c:0000000000120000
#0081a:0000001200000000
#00810:0041
#0091c:1200000012000012
#00916:12001212
#00912:0000000000120000
#01012:12001212
#01018:1200000012000012
#01016:0000000000120000
#0111c:12001212
#01116:12000000000000001200000000000012
#01118:0000000000120000
#01216:1212
#01218:0012
#0121a:0000000000120000
#0121c:00220012
#01212:00220012
#01210:0041
#01318:1200001212000000
#01316:1212
#01314:0000000000120000
#01312:00000012
#0131c:00000012
#01416:12000000000000121200000000000012
#0141c:0012
#01414:0000000000120000
#01412:00000012
#0141a:0000000000120000
#01418:12000012
#01512:1212
#01518:12000000000000121200000000000000
#01516:00000012
#01618:12000012
#01616:00000000000000120000001200001200
#0161c:00000000000000001212000000000000
#01619:0000000000120000
#01612:00002313
#01610:0041
#0171b:0013
#01718:12120000000000120000120000120000
#01716:00001212000012000000000012000012
#0171c:00120000
#01712:0000130023120000
#01714:0000000000000012
#0171a:0000000000000012
#01818:12000000120000000000001200001212
#01812:12000000000000002300001200000000
#0181c:0012001200000000
#01816:00001200000000120000000000000000
#01819:00000000000000001212000000000000
#01815:0000000000120000
#01915:12120000000000000000000000000000
#01912:00001212000000002300000000000000
#01918:00001212000000001212000000000000
#0191c:00000000001200000000000000000000
#01919:0000001200000000
#01916:00000000000000120000121200000000
#0191b:23000000000000000000130000000012
#01913:00000000000000000000000000120000
#02112:00121300
#02116:12120000000000120000120000120012
#02118:00001212000012000000000012000000
#0211b:00132300
#0211a:0000000000000012
#0211c:0000000000120000
#02012:12000000000000001212000000320000
#02018:12000000000000120000001200001200
#0201b:00002313
#02016:00001212000000000000000012000000
#02014:00120000000000000000000000000000
#0201c:00001212000000000000000000000032
#02015:0000000000120000
#02218:00120000000000120000000000120000
#02216:00000000120000000000001200000000
#02212:00000000000012000000000000120000
#02215:00000000000000001212000000000000
#02219:0000000000120000
#0221c:00000000000000000000001200000000
#0221b:0023
#02210:0041
#02319:12120000000000000000000000000000
#0231c:00001212000000000000000000000000
#02316:00001212000000001212000000000000
#02312:23000000001200000000130000000000
#02315:0000001200000000
#02318:00000000000000120000121200000000
#0231b:00000000000000002300000000120000
#02313:00000000000000000000000000000012
#0241c:12000000001212000000000012000000
#02416:12000000001212000000000000000000
#0241a:00120000000000000000000000000000
#02418:00001212000000001200000000000000
#02412:00001212000000000000000000000000
#02417:00000012
#0241f:0011
#02517:00120000
#02512:00120012
#02516:1200000000000012
#02518:0012
#0251c:0000000000120000
#02612:00120012
#02617:00000012
#02616:0012
#02618:12120000
#0261c:0012000000000000
#02717:00120000
#0271c:00120012
#02718:1200000000000012
#02716:0012
#02712:0000000000120000
#0281c:00120000
#02816:12
#02812:00001200000000002600001623000016
#0281b:00001313
#02818:00000000000000000016000000160000
#02815:0000000000130013
#0281f:0021
#0291b:13000000130000000000130000000013
#02918:00130013000000000000001300130000
#02915:0013000000001313
#02912:23000000160000002c00000000000013
#02910:41
#03018:0000000000130000000000001300000000001300000000000000000000001300
#03012:00130000000000002300000000000000
#03015:0000000000130000000000000000130000000000130016000000000013000000
#0301b:00130000000000002300001300000000
#03017:13
#03115:00130016000000130000160000131613
#03118:00001300000013000013001300000000
#0311b:23000000001300001300000013000000
#03112:23000013000000001300000013000000
#03218:00160000000000002600131600001316
#0321b:1300001300002300
#03212:1300001c000000001316000013160000
#03215:00001900000000160000000000000000
#03312:13000000130000002c00130000000013
#03315:00130013000000000000001300130000
#03318:0013160000001313
#0331b:23000000000000000000000000000013
#03415:0000000000130000000000001300160000001300000013000000000000001600
#0341b:00130000000000002300000000000000
#03418:0000000000130000000000000000000000000000130016000000000013000000
#03412:00130000000000002300000000130000
#03416:13
#03515:00001300000013000016001300161300
#03518:00130013000000130000130000000013
#0351b:23000000001300001300000013000000
#03512:23000016000000001300000013000000
#03612:2c001313
#03615:00000000000000002913001329000013
#03618:0000000000130013
#03617:00323232000000000000000000000000
#03610:0041
#03712:13000000230000002c1300001c000000
#03718:00001300000000000000001300001300
#03715:29000013290000000000130000130000
#0371b:00000000000000000000000000000013
#03812:2c1300001c0000002900000019000000
#03815:00001300001316000000130000160000
#03818:00000013000000000013001300000013
#0381b:0013
#0391b:13000000230000000013000000000000
#03915:00001300000000000000001300001300
#03918:00000013000000000000130000130000
#03912:19000000290000002c0000001c000013
#0401b:00130000000000000000000000000000
#04018:00001300001300002600161326001613
#04015:00000013000016000013000000130000
#04012:2c1c1616
#04112:16000000130029002c00130000000013
#04115:00130013290000000000000000001300
#04118:26001300000000000000000000130000
#04116:00000000001600000000000000000000
#0411b:00000000000000000000230000000023
#04218:1300000000130000000000000000000000000000000013000000000000001300
#04212:00130000000000002300000000000000
#04215:1300000000130000000000000000130000000000000000000000000000000000
#0421b:00130000000000002300000000000000
#04318:00000000001300000000130000130000
#04315:00000013000013160013001600001316
#04312:2323
#0431b:23000023
#04412:132c2c2c000000001600000000000000
#0441b:13
#0441c:0000000000120012
#04418:00001212
#04416:00000012
#04518:12001212
#04512:0000120000120012
#04516:12001212
#04616:12
#0461c:00121212
#04618:1200000000120012
#04612:00001212
#04716:0000000000120012
#04712:12001212
#0471c:12001212
#04812:12
#0481c:12
#04816:0012
#04818:0012
#00416:0012
#00414:00000012
#00512:12
#00514:00120012
#00516:0012
#00618:0012
#0061a:00000012
#0071c:12
#0071a:00120012
#00718:0012
#00852:0052
#00858:00000052
#0095c:5262
#00956:52000062
#00958:00000042000000000000000000000000
#00952:00420000
#01052:62000052
#01058:6252
#01056:00000032000000000000000000000000
#0105c:00320000
#0115c:52000062
#01158:00420000
#01156:5262
#01152:00420000
#01258:12
#01256:1252
#0125c:00000052
#01252:00000052
#01358:5262
#01356:52
#01352:00000062
#0135c:00000062
#01458:62000052
#01456:62
#01552:52
#01558:5252
#01556:00000052
#01652:12
#01658:12000052
#01656:0000000000000052
#0175c:00520000
#01758:0000000000520000
#01852:52000000120000000000005200000000
#01856:0022000000000000
#01858:00000000120000000000005200000000
#01952:00000012000000000000000000000000
#01958:00000012000000000000000000000000
#02058:0000000000000062
#02056:00000052000000000000000062000000
#0205c:00000052000000000000000000000000
#02152:00620000
#02156:00000000000000000000620000000052
#02258:00620000000000000000000000620000
#02256:00000000120000000000006200000000
#0225c:00000000120000000000006200000000
#02252:00000000000000000000000000620000
#0235c:00000012000000000000000000000000
#02356:00000012000000000000000000000000
#02456:0000005200000000
#02452:0012
#0245c:00000022
#02458:0052
#02552:00220052
#02556:6200000000000022
#02558:0052
#0255c:0000000000220000
#02652:00000022
#02656:0062
#02658:52520000
#0265c:0022000000000000
#0275c:00220062
#02758:5200000000000022
#02756:0062
#02752:0000000000220000
#02856:62420000
#02852:0022000016000000
#0285c:00420000
#02955:0000004600000000
#02952:00363c00
#0295b:00000000530000000000000000000053
#03052:00530000330000000000000000000000
#03058:0000000000230000000000000000000000000000000000000000000000000000
#03055:0000000000230000000000000000000000000000000046000000000000000000
#0305b:00630000430000000000004300000000
#03057:23
#03152:00000033000000000000000000000000
#03155:00000036000000000000000000000000
#03252:0000005c000000000000000000000000
#03258:0016
#03352:00000000630000004c00000000000063
#03358:00460000
#03355:0000003600000000
#03455:0000000000230000000000000000000000000000000033000000000000000000
#0345b:00630000430000000000000000000000
#03458:0000000000230000000000000000000000000000000056000000000000000000
#03452:00530000330000000000000000000000
#03456:23
#03552:00000066000000000000000000000000
#03558:00000043000000000000000000000000
#03652:5c000053
#03655:0049
#03752:53530000
#03755:0000493600000000
#0395b:63630000
#03952:00390000
#03955:0000004600000000
#03855:00000000000016000000000000560000
#03852:0039
#04055:0000001600000000
#04058:0046
#04152:00000000630039004c00530000000063
#0415b:00000000000000000000530000000053
#04156:00000000002600000000000000000000
#04155:00490000
#04258:2300000000230000000000000000000000000000000013000000000000000000
#04252:00530000330000000000001300000000
#04255:2300000000230000000000000000000000000000000000000000000000000000
#0425b:00630000430000000000000000000000
#04452:0000005c000000001600000000000000
#0445c:0000000000220022
#04458:00005252
#04558:52
#04552:0000000000220022
#04556:00006262
#04656:62
#04658:0000000000220022
#0465c:00006262
#04756:0000000000220022
#04752:62005252
#0475c:62
#04852:52
#0485c:52
#04856:0052
#04858:0062
#04355:00000013000000000000000000000000
#0435b:00000013000000000000000000000000
#0043c0:0012
#005380:32
#0053c0:0032
#006380:32220000
#006321:12220000
#006321:0012
#007361:32
#007321:0032
#008361:32220000
#0083c0:12220000
#008320:0012
#008360:0000000000522200
#008381:00000012
#0083c1:0000000000000052
#0093c1:32
#009381:00005222000000000000000000000000
#009360:12
#009320:0052220000000000
#0093c0:0012
#009380:0000000000522200
#009361:00000012
#009321:0000000000000052
#010321:32
#010361:00005222000000000000000000000000
#010380:12
#0103c0:0052220000000000
#010380:0012
#0103c0:0000000000522200
#010321:00000012
#010361:0000000000000052
#011361:32
#011321:0052220000000000
#0113c0:12
#011380:0052220000000000
#011360:0012
#011320:0000000000522200
#0113c1:00000012
#011381:0000000000000052
#012381:22
#012361:0000000012000052
#012321:0000000000523200
#013361:32
#013321:0052220000000000
#0123c0:00000012
#012380:00000000000000000000000000005222
#013380:12
#0133c0:0052220000000000
#013380:0000000012000052
#0133c0:0000000000523200
#014380:32
#0143c0:0052220000000000
#013321:00000012
#013361:00000000000000000000000000005222
#014361:12
#014321:0052220000000000
#014381:00000012
#0143c1:00000000000000000000000000005222
#015321:12
#015361:0052220000000000
#015380:12
#0153c0:0052220000000000
#015380:0012
#0153c0:0000000000522200
#015361:00000012
#015321:0000000000000052
#016321:22
#016381:00000012
#0163c1:0000000000000022
#016360:0000000000000012
#017320:22
#0173c0:00120000
#017380:0000002200000000
#017380:0000000000120000
#0173c0:00000022
#018320:12220000
#018360:0052000000000000
#018380:00000000000000000000001200000000
#0183c0:00000000000000000000000000220000
#018321:00000000000000000000001200000000
#018361:00000000000000000000000000220000
#019381:00000000000000000000000012220000
#019361:00000000000000000000000000001222
#020361:00000012000000000000000000000000
#020321:0000002200000000
#0203c0:00000012000000000000000000000000
#020380:0000002200000000
#020360:00000012
#020320:00000000000000000000000000322200
#020381:0000000000000012
#0203c1:00000000000000000000000000000032
#0213c1:22
#021321:00120000
#021361:0000002200000000
#021361:0000000000120000
#021321:00000022
#021361:00000000000000000000000000000012
#022321:00220000000000000000000000000000
#022380:00120000000000000000000000000000
#0223c0:00220000
#022360:00000000000000000000001200000022
#022320:00000000000000000000000000320000
#0223c1:00000000000000000000001200000022
#022381:00000000000000000000000000320000
#023361:00000000000000000000000012220000
#023381:00000000000000000000000000001222
#024361:0000001200000000
#024321:0022
#024380:0012
#0243c0:00000052
#025380:22
#025361:1222
#025321:00520000
#025380:00001222
#0253c0:0000000000520000
#025321:00000012
#025361:0000000000000052
#026321:22
#026380:12320000
#0263c0:0052000022000000
#026361:0012
#026321:00000052
#027361:22
#027380:1222
#0273c0:00520000
#027361:00001222
#027321:0000000000520000
#0273c0:00000012
#027380:0000000000000052
#0283c0:22
#028361:12220000
#028321:0052000000000000
#0293b1:00130000
#029351:0000002600000000
#0293b1:00000000000000000000000000000013
#030371:53
#0303b1:00330000230000000000000000000000
#030351:0000000000530000000000000000000000000000000000000000000000000000
#030320:00130000230000000000000000000000
#030380:0000000000530000000000000000000000000000000000000000000000000000
#032320:0000001c000023000000000000000000
#033320:00130000
#033350:0000002600000000
#033320:00000000000000000000000000000013
#034360:53
#034320:00330000230000000000000000000000
#034380:0000000000530000000000000000000000000000000000000000000000000000
#0343b1:00130000230000000000000000000000
#034351:0000000000530000000000000000000000000000000000000000000000000000
#034381:00000000000000000000001600000000
#034351:00000000000000000000000000260000
#035321:00000016000000000000000000000000
#035351:00000000002600000000000000000000
#036321:1c
#036371:00323232000022000000000000000000
#036321:00000013
#036351:0000000000000023
#037321:13
#037351:0023000000000000
#037321:00130000
#037351:0000002600000000
#0383b1:00000000000000000000000013230000
#038350:00000000000000000000000000160000
#038320:00000000000000000000000000000026
#0393b0:13
#039380:0023000000000000
#0393b0:00130000
#039350:0000002600000000
#041320:0000132900000000
#041360:00000000005600000000000000000000
#041320:0000000000130000
#0413b0:00000023
#0413b1:0000000000130000
#041321:00000023
#041321:00000000000000000000000000000013
#042351:53
#042321:00330000230000000000000000000000
#042381:0000000000530000000000000000000000000000000000000000000000000000
#0413b0:00000000000000000000000000000013
#042380:53
#0423b0:00330000230000000000000000000000
#042350:0000000000530000000000000000000000000000000000000000000000000000
#042380:00000000000013230000000000000000
#042380:00000000000000000013230000000000
#042351:0000000000130000
#042321:00000000000000000000002300000000
#042351:00000000000000000000000000001323
#043351:00132300000000000000000000000000
#043380:0013000000000000
#0433b0:00000023000000000000000000000000
#0433b0:00000000000000001323000000000000
#043320:00000000000000000000000013230000
#044320:0000001c000000000000000000000000
#044370:0000002200000000
#044380:00001232
#0443c0:0000000000520052
#045380:32
#0453c0:00220000
#045360:00001232
#045320:0000000000520052
#046360:32
#046320:00220000
#0463c0:00001232
#046380:0000000000520052
#0473c0:32
#047380:00220000
#047321:12
#047361:00220000
#047321:00001232
#047361:0000000000520052
#048321:32
#048361:00220000
#0483c0:12
#048380:00220000
#048360:0012
#050320:0022000000000000
#048381:0012
#0503c1:0022000000000000
