This file was generated by Ched 2.7.0.0.
#TITLE ""
#ARTIST ""
#DESIGNER ""
#DIFFICULTY 0
#PLAYLEVEL
#SONGID ""
#WAVE ""
#WAVEOFFSET 0
#JACKET ""
#REQUEST "ticks_per_beat 480"
#00002: 4
#BPM01: 85
#00008: 01
#TIL00: ""
#HISPEED 00
#MEASUREHS 00
#0081a:0014
#00814:00000014
#00810:0041
#0091a:14
#00912:0014
#00918:00000014
#01012:14
#0101a:0014
#01014:00000014
#01118:14000014
#01112:0014
#01214:14
#01210:0041
#0161a:0014
#01614:00000014
#01610:0041
#01718:1414
#01712:00140000
#01714:00000014
#0181a:14
#01812:0014
#01818:00000014
#01914:14000034
#0191a:00140000
#02018:00000014
#02014:00340000
#02114:1414
#0211a:00140000
#02118:00000014
#02212:14
#0221a:0014
#02214:00000014
#02210:0041
#02318:14000034
#02312:00140000
#02514:14
#02518:0014
#02612:14
#02618:0014
#02714:14
#0271a:0014
#02814:14
#02812:00000014
#02818:0024
#0281f:0021
#0291a:14
#02914:00140000
#02918:0014
#02912:00000014
#02910:41
#0301a:14
#03012:0014
#03018:00000014
#03114:14000034
#0311a:00140000
#0321a:00000014
#03214:00342400
#03312:14
#03318:00140000
#03314:0014
#0331a:00000014
#03412:14
#0341a:0014
#03414:00000014
#03518:14000034
#03512:00140000
#03614:00000014
#03618:00342400
#03610:0041
#0371a:14
#03712:00140000
#03718:0014
#03818:00000014
#03814:0024
#03912:14
#0391a:00140000
#03914:0014
#04014:00000014
#0401a:0024
#0411a:14
#04114:00140000
#04118:0014
#04112:00000014
#04218:14
#04212:00140000
#0421a:0014
#04214:00000014
#04318:14
#04312:00140000
#0431a:0014
#04314:00000014
#04418:14
#04412:00140000
#0241f:0011
#02418:00340000
#0051a:3434
#00712:3434
#02858:0014
#03254:0014
#03658:0014
#03758:0054
#03954:0064
#0043a0:0014
#0053a0:3434
#006380:24
#006320:0014
#007320:3434
#008340:24
#0123a0:0014
#012390:00000034
#013380:24
#013320:0014
#013330:00000034
#014340:24
#014380:0014
#014390:00000034
#0153a0:24
#015340:0014
#015330:00000034
#016320:24
#019320:0014
#019340:00000034
#020340:34340000
#020320:0024
#0233a0:0014
#023380:00000034
#024380:34340000
#0243a0:0024
#031340:00001434
#032320:34
#032340:00342400
#035380:00001434
#0363a0:34
#036380:00342400
#037380:0014
#0383a0:00240000
#039340:0014
#040320:00240000
#0443a0:0014
#046380:00240000
#046340:0014
#047320:0034
#048340:00343400
#050320:00240000
