This file was generated by Ched 2.7.0.0.
#TITLE ""
#ARTIST ""
#DESIGNER ""
#DIFFICULTY 0
#PLAYLEVEL
#SONGID ""
#WAVE ""
#WAVEOFFSET 0
#JACKET ""
#REQUEST "ticks_per_beat 480"
#00002: 4
#BPM01: 178
#00008: 01
#TIL00: ""
#HISPEED 00
#MEASUREHS 00
#0001a:14
#00114:14
#00218:14
#00312:14
#0041a:14
#00514:14
#00618:14
#00712:14
#01412:14
#01410:41
#01518:14
#01614:14
#0171a:14
#01812:14
#01918:14
#02014:14
#0211a:14
#02212:14
#02312:14
#02418:14
#02518:14
#02614:14
#02610:41
#02714:14
#0281a:14
#0291a:14
#04214:14
#04218:0014
#04412:0016
#04418:26
#04410:41
#04518:16
#04512:0016
#04618:16
#04612:0016
#04812:1616
#04918:1616
#05012:16
#05018:0016
#05112:16
#05118:0016
#05218:0016
#05212:26
#05312:16
#05318:0016
#05412:16
#05418:0016
#05618:1616
#05712:1616
#05818:16
#05812:0016
#05918:16
#05912:0016
#0681a:14
#06918:14
#0701a:14
#07118:14
#07314:14
#07418:14
#07410:41
#07512:14
#08412:0016
#08418:26
#0841f:21
#08518:16
#08512:0016
#08510:41
#08618:16
#08612:0016
#08812:1616
#08918:1616
#09012:16
#09018:0016
#09112:16
#09118:0016
#09218:0016
#09212:26
#09312:16
#09318:0016
#09412:16
#09418:0016
#09618:1616
#09712:1616
#09818:16
#09812:0016
#09918:16
#09912:0016
#0761f:11
#06010:41
#0685a:54
#0705a:54
#06958:24
#07158:24
#0083a0:14
#0093a0:24
#010340:14
#011340:24
#012380:14
#013380:24
#030320:14
#031340:34
#032320:34
#033340:24
#0343a0:14
#035380:34
#0363a0:34
#037380:24
#038320:14
#038330:0000003400000000
#038340:00000024
#0403a0:14
#040390:0000003400000000
#040380:00000024
#043340:1424
#047380:1626
#055320:1626
#0603a0:1400000000000024
#062340:1400000000000024
#064380:1400000000000024
#066320:1400000000000024
#0683a0:14
#069380:34
#0703a0:34
#071380:34
#0723a0:24
#0763a0:14
#0773a0:24
#078340:14
#079340:24
#080380:14
#081380:24
#082320:14
#083320:24
#087380:1626
#095320:1626
#1003a0:1400000000000024
#102340:1400000000000024
#104380:1400000000000024
#106320:1400000000000024
#108380:1400343400240000
