This file was generated by Ched 2.7.0.0.
#TITLE ""
#ARTIST ""
#DESIGNER ""
#DIFFICULTY 0
#PLAYLEVEL
#SONGID ""
#WAVE ""
#WAVEOFFSET 0
#JACKET ""
#REQUEST "ticks_per_beat 480"
#00002: 4
#BPM01: 178
#00008: 01
#TIL00: ""
#HISPEED 00
#MEASUREHS 00
#00018:12
#0001a:00120012
#0001c:0012
#00012:12
#00114:12
#00118:12
#00116:00000012
#00216:12
#0021c:12
#00214:0012
#0021a:0012
#00212:0000000000000012
#00218:0000000000000012
#00712:13
#00718:0023
#00412:13
#00414:00130013
#00416:0013
#0041b:0013
#00512:13
#00517:13
#0051b:00000013
#00519:0000000000000013
#00318:12
#0031c:00000000000032321200000000000000
#00312:12
#00612:13
#00616:0013
#0061b:0013
#00617:13
#00812:1300002300000023
#00815:0000130000130000
#00818:0000001300000013
#0081b:0000000000230000
#00912:13
#00918:13000013
#00915:00131300
#0101a:00000014
#01016:24
#01012:23
#0131a:14
#01512:13
#01515:0013000000000000
#01518:00130000
#0151b:0000001300000000
#01516:0000001300000000
#01517:00000013
#01412:1313
#01415:00130013
#01418:0000001300000013
#0141b:0000000000130000
#01410:41
#01616:13
#01612:0000130000000013
#0161b:0013
#01615:0000000000130000
#01618:00000013
#0171b:13
#01718:0013000000001300
#01715:00130000
#01712:0000001300000000
#0191b:13
#01918:0013000000000000
#01915:00130000
#01912:0000001300000000
#01917:0000001300000000
#01916:00000013
#0181b:1313
#01818:00130013
#01815:0000001300000013
#01812:0013000000130000
#02112:13
#02115:0013000000002300
#02118:00130000
#0211b:0000001300000000
#02012:1300000000130000
#02018:0013000000001300
#02015:0000130000000013
#0221b:00130013
#02218:1600000013000013
#02215:0000001300130000
#02212:26230023
#02315:1300000000130000
#02318:0013000000000000
#0231b:0000131300001300
#02312:00230023
#02418:1313000013000013
#02415:0000001300130000
#0241b:00130013
#02412:00230023
#02515:1313000000000000
#0251b:00130000
#02518:0000001300000000
#02512:00230000
#02612:00130013
#02615:0000000013000013
#02618:2600001300130000
#0261b:00230023
#02610:41
#02718:1300000000130000
#02715:0013000000000000
#02712:0000131300001300
#0271b:00230023
#02818:1300001300130000
#02815:1300000013000013
#02812:00000013
#0281b:00230023
#02918:1313000000000000
#02912:00130013
#02915:0000001300000000
#0291b:0000230000131300
#03018:0000130000130000
#03015:0000001300001300
#03012:0000000000000013
#0301b:0013
#0311b:13
#03118:0000001300001300
#03115:0000130000000013
#03112:0000000000130000
#0321b:1300001300000000
#03215:0013000000130000
#03218:00000000130000000000001300000000
#03212:0000001300001300
#03315:1313001300000013
#03318:00000000130000000000000000000013
#03312:0013
#0331b:0013
#03412:1313
#03415:0000130000130000
#03418:0000001300001300
#0341b:0000000000000013
#0361b:0000001300001300
#03618:0013000000130000
#03612:1300001300000000
#03615:00000000130000000000001300000000
#03718:1313001300000000
#03715:00130000
#0371b:0013
#03712:0013
#04015:0013000000130000
#04018:00131300
#0401b:0000001300000000
#0401a:24000024
#04012:0000002400002400
#03812:2400001300002400
#03815:00130000
#03818:0000000000130000
#0381b:00000013
#0381a:2400002400000000
#03917:00120000
#0391b:0012000000000000
#03913:00000000000012000000000000323232
#03918:00000000000000000032323200000000
#04115:00160000
#04112:0000000015250000
#04119:0000000025150000
#04214:14240000
#04212:00001626
#04218:24142616
#04312:13
#0431b:13
#04317:00000022
#04318:00000000000033330000000000000000
#04315:00000000000033330000000000000000
#04418:1300001300000000
#04412:1300001300000014
#04415:0000130000130000
#0441a:00000014
#04410:41
#0451b:00130000
#04515:00001313
#04512:00130000
#04518:0000000000130013
#04615:1300001300000000
#0461b:1300001300000000
#04618:0000130000130000
#0461a:00000014
#04612:00000014
#04716:00130013
#0471b:00130013
#04714:0000001300000000
#04712:0013
#04717:0013
#04719:0000000000130000
#05215:13
#0521b:1300001300000000
#05218:0000130000130000
#05212:0000001300001400
#0521a:0000000000000014
#05312:00130000
#05318:00001313
#0531b:00130000
#05315:0000000000130013
#05418:13
#05412:1300001300001400
#05415:0000130000130000
#0541b:0000001300000000
#0541a:00000014
#05517:00130013
#05512:00130013
#05519:0000001300000000
#0551b:0013
#05516:0013
#05514:0000000000130000
#04916:0000001400140014
#05012:1400000000240000
#0501a:1400002400000024
#05016:0000131300000013
#05017:0000000000130000
#05112:0023000013000000
#0511b:0023
#05115:00230023
#05118:0000002300000000
#05716:0000001400140014
#0581a:1400000000240000
#05812:1400002400000024
#05817:0000131300000013
#05816:0000000000130000
#0591b:0023000013000000
#05918:00230023
#05912:0023
#05915:0000002300000000
#06012:1300001300000023
#06016:00130000
#0601b:0000001300130000
#06017:0000000000000013
#06010:41
#0611b:0013000000000000
#06117:0013
#06112:0000002313000000
#06116:0023000000000000
#06216:0000131300130014
#06217:13
#06219:0013000000000000
#0621b:00130000
#06212:1300000000000023
#06316:0014000000000000
#06318:0013
#06315:0000001300000000
#0631b:0023000000000000
#06312:0000000000260000
#0641b:1300001300000023
#06417:00130000
#06412:0000001300130000
#06416:0000000000000013
#06612:1300000000130000
#0661b:1300001300130023
#06616:0000140014000014
#06716:0014000000000000
#06712:0023000013000000
#0671b:0000001300000000
#06718:0000000000142400
#06714:00000000000000000000001400000000
#06816:0000131300000000
#06812:13
#06817:1300000000131300
#06912:0000000013000013
#06916:0013130000000000
#06918:0000000000130000
#06915:00000013
#0701b:1300131300001300
#07012:1313
#07016:0000000000141300
#0711b:00001313
#07117:0013130000000000
#07112:00000013
#07116:0000000000140000
#07218:13260026
#07215:00130000
#0721b:0013
#07212:26002613
#0731b:00130000
#07316:1300000000000014
#07312:0000001300001300
#07318:00000000000000001300001300000000
#07315:0000000000130000
#07416:1300001400140000
#07412:0000000000130016
#07418:0000000000000016
#0741b:1300001300000000
#07417:00130000
#07410:41
#07516:0014001400000000
#07512:00131300
#0751b:00132300
#07612:00120000
#0761c:0000001200000000
#07616:0000000000120000
#07618:00000012
#0761f:11
#07712:00120000
#07718:0012
#07714:0000000000120000
#0781c:00120000
#07812:0000001200000000
#07818:0000000000120000
#07816:12000012
#0791c:0000121200000000
#07916:0012
#07914:00000012
#0791a:0000000000120000
#07918:0000000000000012
#08012:12
#0811c:00120000
#0811a:0012
#08115:0000001200000000
#08113:0000000000120000
#08216:00141414
#08212:2424
#0821a:00240024
#08312:13
#0831b:13
#08315:00000000000033330000000026000000
#08318:00000000000033330000000000000000
#0841b:1300001300000000
#08415:1300001300000000
#08412:00130026
#08418:0000000000130026
#0841f:21
#08517:00130000
#08516:0013
#08512:00130000
#0851b:0000000000130000
#08518:00000013
#08515:0000000000000013
#08510:41
#08716:00131300
#0871b:0000001300000000
#08718:00000013
#08715:0000000000000013
#08918:0000001300000000
#0891b:0000000000130000
#08912:00000013
#0901a:14
#09012:0000131300000013
#0901b:0000000000130000
#09016:0000242400240024
#09112:0014140013000000
#09116:00002423
#0911a:0024240000000000
#08618:0000000000132600
#0861b:1300001300000000
#08612:1300001300002600
#08615:00130000
#09212:1300001300000026
#0921b:00130000
#09218:2300001300002600
#09215:0000000000130000
#09312:0000000000130000
#09315:00000013
#09318:0000000000000013
#09316:00130000
#09317:0013
#0931b:00130000
#09412:0000000000130000
#09418:2300001300000000
#0941b:00130000
#09415:1300002300002600
#09519:0000000000130000
#0951b:0000000000000013
#09517:0000001300000000
#09512:00230000
#09514:0023
#09516:00000023
#09715:0000001300001300
#0971b:00130000
#09718:0000000013000013
#09712:0000000000130000
#09812:1400000000130000
#0981b:0000131300000013
#0981a:14
#09816:0000242400240024
#09912:0014001400000000
#0991b:0013
#0991a:0014001400000000
#09916:00142400
#09917:00000023
#10012:1300131300000013
#1001b:1300001300130000
#10017:0000000000000013
#10117:0000001300000000
#10116:0013000000000000
#10112:0016
#10118:00000016
#1041b:0000001300130000
#10417:1300000000000013
#10412:1300130000000013
#10416:0000001300000000
#10512:0000001300001600
#1051b:0013000000000000
#10518:0016
#1061b:1300000000130013
#10612:1300001300130000
#10616:00141400
#10615:0000000000000013
#1031b:0013
#10318:00130000
#10315:0000001300000000
#10312:0000000000260000
#1071b:00131300
#10712:1300001300000000
#10714:0000000000142400
#10718:00001300000000000000001400000000
#10816:12120000
#10818:0000001200120000
#10215:0000000000000013
#1021b:1300000000130000
#10218:0000000000000013
#10212:1300001300000000
#10217:0000001300000000
#10216:0000000000130000
#03512:13
#03515:0000001300001300
#03518:0000130000000013
#0351b:0000000000130000
#06512:0013000000000000
#06516:0013
#0651b:0000002313000000
#06517:0023000000000000
#01112:0000000000240000
#0111a:0000000000000024
#01216:24
#04818:2600000026000026
#04812:00260026
#05612:2600000026000026
#05618:00260026
#08816:2800000028000028
#08812:00280028
#09612:2800000028000028
#09616:00280028
#00158:52
#00752:53
#00758:0053
#00552:53
#00358:52
#0035c:0052
#00657:53
#0065b:0053
#00852:13
#0085b:13
#00955:0053
#00958:53
#01056:54
#0105a:00000024
#01052:13
#01256:54
#0135a:14
#02252:16
#0235b:0000005300000000
#02752:0000006300000000
#02658:16
#02558:0000005300000000
#02955:0000006300000000
#02952:00000053
#0295b:00000063
#02855:63
#03055:13
#03058:13
#0315b:63
#03158:0000005300000000
#03252:0000001300000000
#0325b:0000006300000000
#03258:00000000000000000000002300000000
#03352:0053
#0335b:0063
#03452:13
#0365b:0000001300000000
#03652:0000005300000000
#03655:00000000000000000000002300000000
#0375b:0063
#03752:0053
#0405a:44000044
#04052:0000003400003400
#03852:14000014
#0385a:1400001400000000
#04254:34
#04252:0036
#04258:00440046
#04355:0013
#04352:53
#0435b:63
#04358:0013
#04458:5300005300000000
#0445a:00000014
#04452:0000000000000014
#0455b:00630000
#04655:6300006300000000
#0465a:00000014
#04652:00000014
#04858:4600000046000046
#04852:00360036
#04756:00000053
#01556:0000005300000000
#01752:0000006300000000
#01957:0000006300000000
#0215b:0000005300000000
#05255:63
#05252:0000006300001400
#0525a:0000000000000014
#05352:00530000
#05458:53
#0545b:0000005300000000
#05452:00000014
#0545a:00000014
#05557:00000063
#05652:3600000036000036
#05658:00460046
#05052:14
#0505a:14
#0515b:0053
#05155:00000013
#0585a:14
#05852:14
#05952:0063
#05958:00000013
#06052:1300005300000000
#06057:0000000000000053
#06152:0053
#06157:0053
#0615b:0053000000000000
#0645b:1300006300000000
#06456:0000000000000063
#06758:00000014
#06852:13000013
#06857:53000053
#06856:0000006300000000
#0685b:0000001300000000
#0705b:13000013
#07052:63
#07056:00000063
#07252:16001653
#07258:00160016
#07356:23
#07456:5300001400140000
#07452:0000000000000016
#07458:0000000000000016
#07552:0053
#0755b:0053
#07658:13000052
#07655:13
#07856:00000062
#08057:00000012
#08052:52
#08352:53
#0835b:63
#08355:0013
#08358:0013
#0845b:53
#08455:0000005300000000
#08452:00000016
#08458:0000000000000016
#08557:00630000
#08756:0053
#0905a:14
#09056:13
#08856:4800000048000048
#08852:00380038
#09156:00005413
#08652:0000006300001600
#0865b:53
#08658:00000016
#09252:6300000000000016
#09258:0000006300001600
#09458:0000005300000000
#09455:63000016
#08952:00000053
#09852:14
#0985a:14
#09652:3800000038000038
#09656:00480048
#09956:0064
#09957:00000013
#10052:1300005300000000
#1005b:53
#10057:0000000000000053
#10152:0036
#10158:00000046
#10156:0053000000000000
#10457:63
#10456:0000006300000000
#10452:1300000000000063
#1055b:0063000000000000
#10558:0046
#10552:00000036
#10655:0000000000000053
#10758:0053000000000000
#10752:23
#1075b:00230000
#10754:00000014
#10255:0000000000000053
#10258:0000000000000053
#10252:53
#1025b:53
#03552:53
#03555:0000006300000000
#06352:0000000000160000
#06552:0063000000000000
#06556:0063
#0655b:0063
#09356:00530000
#10352:0000000000160000
#001380:12
#0013c0:00000022
#003380:12
#0033c0:00000000000032323200000000000000
#004380:22
#005320:13
#005360:00000023
#006370:13
#0063b0:0033
#007370:23
#007321:13
#007351:0023
#007380:0013
#0083b0:23
#009380:13
#0093b0:0023
#009351:0013
#010321:23
#010360:14
#0103a0:00000054
#011360:0000000000240000
#012360:14
#013320:24
#0143b0:13
#014380:00230000
#015360:0000001300000000
#015320:00000023
#0163b0:13
#016370:00230000
#017320:0000001300000000
#017350:00000023
#019370:0000001300000000
#0193b0:00000023
#020380:0000001300000000
#0203b0:0000000000230000
#0213b0:0000001300000000
#021380:00000023
#0233b0:0000001300000000
#023380:0000000000230000
#025380:0000001300000000
#0253b0:0000000000230000
#025321:0000000000132300
#025380:0000000000001323
#025351:0000000000000013
#026351:23
#027321:0000001300000000
#027351:0000000000230000
#028351:13
#028321:00230000
#029351:0000001300000000
#029321:0000000000230000
#029321:00000013
#030351:23
#0293b0:00000013
#030380:23
#0313b0:13
#031380:00230000
#031380:0000001300000000
#0313b0:0000000000230000
#0323b0:0000001300000000
#032380:00000000000000000000005300000000
#0333b0:23
#033320:0013
#033350:00000023
#0333b1:0013
#033381:00000023
#035321:13
#035351:00230000
#035351:0000001300000000
#035321:0000000000230000
#036321:0000001300000000
#036351:00000000000000000000005300000000
#037321:23
#0373b1:0013
#037381:00000023
#037320:0013
#037350:00000023
#0393b0:0012
#039380:00000000000000000032323222000000
#039361:00000012
#039331:00000000000000000000000000323232
#040331:22
#043321:13
#043351:00000000000033332300000000000000
#0433b0:13
#043380:00000000000033332300000000000000
#044380:13
#0443b0:00230000
#044380:0000001300000000
#0443b0:0000000000230000
#0453b0:00130000
#045380:0023
#046350:13
#046320:00230000
#046350:0000001300000000
#046320:0000000000230000
#047360:00000013
#048320:23
#049320:0000132300000000
#0493b0:0000000013230000
#049320:0000000000001323
#0513b0:0013
#051380:00000023
#052350:13
#052320:00230000
#052320:0000001300000000
#052350:0000000000230000
#053320:00130000
#053350:0023
#054380:13
#0543b0:00230000
#0543b0:0000001300000000
#054380:0000000000230000
#055370:00000013
#0563b0:23
#0573b0:0000132300000000
#057320:0000000013230000
#0573b0:0000000000001323
#059320:0013
#059350:00000023
#0603b0:13230000
#060320:0000001300000000
#060360:0000000000230000
#060370:0000000000000013
#0613b0:0033000000000000
#061370:0000002300000000
#061320:0013
#061360:00000023
#061371:0013
#0613b1:00000023
#0623b1:0000001300230000
#064321:13230000
#0643b1:0000001300000000
#064371:0000000000230000
#064361:0000000000000013
#065321:0033000000000000
#065361:0000002300000000
#0653b1:0013
#065371:00000023
#065360:0013
#065320:00000023
#068370:13
#0683b0:0000002300000000
#068361:0000001300000000
#068321:00000023
#068370:00000013
#0693b0:0023
#070320:13
#070360:0000002300000000
#070360:00000013
#071320:0023
#072320:00000013
#073360:53
#073320:00230000
#074360:13
#074320:00230000
#075320:0013
#076350:23
#0753b1:0013
#076381:23
#076381:00000012
#0773c1:00220000
#0773a1:00000012
#0783a1:22
#078361:00000012
#079321:00220000
#080321:12
#080371:00000022
#081381:00000012
#082381:22
#083321:13
#083351:00000000000033332300000000000000
#0833b0:13
#083380:00000000000033332300000000000000
#0843b0:13
#084380:00230000
#084350:0000001300000000
#084320:0000000000230000
#085370:00130000
#0853b0:0023
#0863b0:13
#086380:00230000
#086320:0000001300000000
#086350:0000000000230000
#087360:0013
#087320:00000023
#089320:0000132300000000
#089350:0000000013230000
#089320:00000013
#090360:23
#091360:0014
#0913a0:00000024
#092320:13
#092350:00230000
#092380:0000001300000000
#0923b0:0000000000230000
#093360:00130000
#093320:0023
#094350:13
#094320:00230000
#094380:0000001300000000
#0943b0:0000000000230000
#099360:0014
#099320:00000024
#1003b0:13
#100370:00230000
#100320:0000001300000000
#100360:0000000000230000
#100370:0000000000000013
#1013b0:0023000000000000
#101361:0013000000000000
#101321:0000002300000000
#102321:13
#102351:00230000
#1023b0:13
#102380:00230000
#102350:0000000000000013
#103320:0023000000000000
#102381:0000000000000013
#1033b1:0023000000000000
#104371:13
#1043b1:00230000
#104361:0000001300000000
#104321:0000000000230000
#104321:0000000000000013
#105361:0023000000000000
#1053b0:0013000000000000
#105370:0000002300000000
#106350:0000000000000013
#107320:53
#107350:0023000000000000
#107381:0013002300000000
#1073b1:00530000
#1083c1:12220000
#108321:0000001200220000
