This file was generated by Ched 2.7.0.0.
#TITLE ""
#ARTIST ""
#DESIGNER ""
#DIFFICULTY 0
#PLAYLEVEL
#SONGID ""
#WAVE ""
#WAVEOFFSET 0
#JACKET ""
#REQUEST "ticks_per_beat 480"
#00002: 4
#BPM01: 178
#00008: 01
#TIL00: ""
#HISPEED 00
#MEASUREHS 00
#00014:12
#00016:00120000
#0001a:0012
#00018:00000012
#00116:12
#00218:1200000000000012
#0021c:0012
#00212:12
#00216:0012
#00418:00130000
#00412:0013
#00415:00000013
#00518:13
#00515:0000000000000013
#00316:12
#00312:00000000000032321200000000000000
#00618:13
#0061b:0013
#00918:13
#01016:00000014
#01012:24
#01512:13
#01518:0013000000000000
#01515:00130000
#0151b:0000001300000000
#01412:1313
#01415:00130013
#01418:0000001300000013
#0141b:1300000000130000
#01410:41
#01612:1300000000000013
#01615:0000130000130000
#01618:1313
#0161b:00130013
#01718:13
#01715:0013000000000000
#0171b:00130000
#01712:0000001300000000
#0191b:13
#01915:0013000000000000
#01918:00130000
#01912:0000001300000000
#0181b:1313
#01818:00130013
#01815:0000001300000013
#01812:0013000000130000
#02118:13130000
#02112:0013000000000000
#02115:0000001300000000
#0201b:13000013
#02015:0013000000000013
#02018:00130000
#02218:00001323
#02215:0000001300000000
#02212:2400000000130013
#0221a:24
#0221b:00230000
#02318:13000023
#02315:0013001300000000
#0231b:00230000
#02415:1313
#02418:0013000000130000
#0241b:0000001300000013
#02412:00230023
#02515:13000023
#02518:0013001300000000
#02512:00230000
#03018:00130013
#03015:0000001300130000
#03012:1300000000000013
#0301b:1313
#0311b:13
#03115:0000001300000013
#03118:00000013
#0321b:13000000000000000000001300000000
#03215:00130000
#03218:0000001300000000
#03312:0013000000000000
#03318:00131300
#03315:0000001300000000
#03815:00130000
#03812:0000000000130000
#0381b:0000002300000000
#03818:23000023
#03915:00130000
#03918:00001300000000000033333333333333
#03912:0000001300000000
#04115:00130000
#04113:0000000014240000
#04119:0000000024140000
#04214:14240000
#04212:00001626
#04218:24142616
#0431a:14
#04312:14
#04318:00000000000034340000000000000000
#04314:00000000000034340000000000000000
#04418:13000013
#04415:0000001300000013
#04410:41
#04515:00001313
#04512:00130000
#04518:0000000000130013
#0451b:00130000
#0471b:00130013
#04718:0000001300130000
#04715:0013
#05012:1400000000000024
#05018:0000140000000014
#05014:0000002400140000
#0501a:0000000000240000
#06116:0000002313000000
#0611b:0000001313000000
#06119:0013000000000000
#06114:0023000000000000
#06218:0013000000000013
#06212:1300000000000023
#06215:00130000
#06315:0013000013000000
#06318:0000001300260000
#0631b:0023000000000000
#06612:1300000000130000
#0661b:1300000000130023
#06615:0000130013000013
#06618:0000001300000000
#06718:0013000013002600
#06715:0000001300130000
#06712:0023000000000000
#0681b:00130000
#06812:13000013
#06818:0000000000130000
#06815:0000001300000000
#0691b:0013
#06915:00130013
#06912:0000000000130000
#06918:0013000000000013
#0701b:13
#07015:0000001300130000
#07018:00001313
#07118:00000013
#07115:0000000000130000
#0731b:0000130000000013
#07312:0000001300000000
#07318:00000000000000001300001300000000
#07315:0000000000131300
#07415:1300001300000013
#07418:0000000000130000
#0741b:0000001300000013
#07412:0000000000130000
#07410:41
#07512:0013000013000000
#07515:00130000
#07518:0000001300000000
#0751b:0023
#07612:00130000
#07618:0000001300000000
#07615:0000000000130000
#0761b:00000013
#0761f:11
#0781b:00130000
#07812:0000001300000000
#07818:0000000000130000
#07815:00000013
#07715:0013
#07718:0000000000130000
#07712:00000013
#0791b:0000001300000000
#07916:0013
#07914:00000013
#07919:0000000000130000
#07917:0000000000000013
#08012:13
#0811b:00130013
#08118:0013
#08115:0000001300000000
#08112:0000000000130000
#08312:13
#0831b:13
#08318:00000000000033330000000000000000
#08315:00000000000033330000000000000000
#0841b:13
#08415:0000001300000000
#08418:00000024
#08414:0000000000000024
#0841f:21
#08515:00001313
#08518:0000130000000013
#0851b:0000000000130000
#08510:41
#08718:0000130000000013
#08715:0000001300001300
#0871b:0013
#08918:00001313
#0891b:00130000
#08915:0000001300000000
#08912:0000000000130000
#0861b:0000001300000000
#08612:13
#08614:00000024
#10018:0000001300000013
#1001b:13
#10012:0000001300000013
#10015:13
#10115:0013000013000000
#10118:0000001300001300
#1011b:0013000000000000
#1031b:0013
#10318:00130000
#10315:0000001300000000
#10312:0013000000260000
#10819:12120000
#10815:0000001200120000
#10212:13
#1021b:0000000000000013
#10218:0000001300000000
#10215:0000000000130000
#00812:13
#02615:00001323
#02618:0000001300000000
#0261b:0000000000130013
#02612:24230000
#0261a:24
#02610:41
#02715:13000023
#02718:0013001300000000
#02712:00230000
#02818:1313
#02815:0013000000130000
#02812:0000001300000013
#0281b:00230023
#02918:13000023
#02915:0013001300000000
#0291b:00230000
#03415:00130013
#03418:0000001300130000
#0341b:1300000000000013
#03412:1313
#03512:13
#03518:0000001300000013
#03515:00000013
#03612:13000000000000000000001300000000
#03618:00130000
#03615:0000001300000000
#0371b:0013000000000000
#03715:00131300
#03718:0000001300000000
#04015:00130000
#04012:0000000000130000
#04018:23000023
#0401b:0000002300000000
#04615:13000013
#04618:0000001300000000
#04912:00130000
#04917:0000001300000000
#04914:0013
#04919:0000000000130000
#04916:00000013
#0491b:0000000000000013
#05215:13000013
#05218:0000001300000013
#05318:00001313
#0531b:00130000
#05315:0000000000130013
#05312:00130000
#05512:00130013
#05515:0000001300130000
#05518:0013
#05418:13000013
#05415:0000001300000000
#0581a:1400000000000024
#05814:0000140000000014
#05818:0000002400140000
#05812:0000000000240000
#0571b:00130000
#05716:0000001300000000
#05719:0013
#05714:0000000000130000
#05717:00000013
#05712:0000000000000013
#06017:0000000000000013
#06012:0000000000000023
#06010:41
#06517:0000002313000000
#06512:0000001313000000
#06514:0013000000000000
#06519:0023000000000000
#06416:0000000000000013
#0641b:0000000000000023
#08218:1313
#08215:00130013
#08212:2323
#0821b:00230023
#09212:13
#09218:0000001300000024
#09214:00000024
#09318:00001313
#09315:0000130000000013
#09312:0000000000130000
#09518:0000001300002300
#09515:0000230000000013
#09512:0023
#09715:00001313
#09712:00130000
#09718:0000001300000000
#0971b:0000000000130000
#09412:0000001300000000
#0941b:13
#09418:00000024
#09918:0014001400000000
#09914:00140000
#0991a:0024
#09912:0024
#10415:0000001300000013
#10412:13
#1041b:0000001300000013
#10418:13
#10518:0013000013000000
#10515:0000001300001300
#10512:0013000000000000
#1061b:1300000000130000
#10612:1300000000130013
#10618:0000130013000013
#10615:0000001300000000
#10715:0013000013000000
#10718:0000001300130000
#1071b:0013000000000000
#10712:00000026
#00715:0023
#01118:0000000000000024
#01212:24
#05112:0023
#0511b:0023000023000000
#05115:00230000
#05118:0000002300000000
#07212:2626
#07218:00260026
#08812:2600000026000026
#08818:00260026
#09018:0000002400000024
#09014:0000240000240000
#09112:0024000024000000
#0911a:00242400
#04818:2323
#04815:00230000
#04813:00000024
#04819:0000000000000024
#05615:2323
#05618:00230000
#05619:00000024
#05613:0000000000000024
#0591b:0023
#05912:0023000023000000
#05918:00230000
#05915:0000002300000000
#09618:2600000026000026
#09612:00260026
#09814:0000002400000024
#09818:0000240000240000
#00156:52
#00558:53
#00356:62
#00352:0062
#00755:0063
#00658:53
#0065b:0053
#00958:53
#01052:54
#01056:00000024
#01252:54
#0225a:14
#02252:14
#02355:0000005300000000
#02558:0000005300000000
#0315b:63
#03155:0000005300000000
#03258:0000005300000000
#0325b:00000000000000000000002300000000
#03358:0053
#03858:13000013
#0385b:0000001300000000
#0435a:64
#04358:0014
#04352:54
#04354:0014
#04458:53000013
#04455:0000006300000013
#0475b:00000053
#0155b:0000005300000000
#01752:0000006300000000
#01952:0000006300000000
#02155:0000005300000000
#05052:14
#05152:0063
#05155:00000013
#0515b:0053
#05158:00000013
#0615b:0063
#06156:0063
#06758:00000016
#06852:13000013
#06855:0000001300000000
#0705b:13
#07058:00000053
#07252:1616
#07258:00160016
#07455:5300000000000013
#0745b:0000000000000013
#07552:0053
#0755b:0053
#07658:13
#07655:13
#0765b:00000053
#07855:00000063
#08055:00000013
#08052:53
#08352:53
#0835b:63
#08355:0013
#08358:0013
#0845b:53
#08455:0000005300000000
#08458:00000014
#08454:0000000000000014
#08852:3600000036000036
#08858:00460046
#0865b:0000005300000000
#08652:63
#08654:00000014
#08958:00000053
#0905b:13
#10058:0000005300000000
#1005b:53
#10052:0000005300000000
#10055:53
#10252:53
#06358:0000000000160000
#10352:0000000000160000
#00852:53
#02758:0000006300000000
#02955:0000006300000000
#02652:14
#0265a:14
#0305b:13
#03052:13
#03552:53
#03558:0000006300000000
#03655:0000006300000000
#03652:00000000000000000000002300000000
#03755:0063
#0345b:13
#03452:13
#04058:13000013
#0405b:0000001300000000
#04655:63000013
#04658:0000005300000000
#04858:1313
#04855:00130000
#04853:00000014
#04859:0000000000000014
#05255:63000013
#05258:0000005300000013
#05552:00000063
#05458:53000013
#05455:0000006300000000
#05655:1313
#05658:00130000
#05659:00000014
#05653:0000000000000014
#0585a:14
#0595b:0053
#05952:0063
#05958:00000013
#05955:00000013
#06557:0053
#06552:0053
#07752:00000053
#09152:00000014
#0915a:00000014
#09252:63
#09258:0000006300000014
#09254:00000014
#09755:00000063
#09452:0000006300000000
#0945b:53
#09458:00000014
#09658:4600000046000046
#09652:00360036
#09852:13
#0995a:00000014
#09952:00000014
#10155:0013
#10158:00000013
#10455:0000006300000000
#10452:63
#1045b:0000006300000000
#10458:63
#10558:0013
#10555:00000013
#10752:00000016
#001360:12
#001320:00000022
#003360:12
#003320:00000000000032323200000000000000
#004360:22
#005380:13
#0053b0:00000023
#006380:13
#0063b0:0033
#007380:23
#007350:0013
#008320:33
#008350:00000023
#009380:13
#0093b0:0023
#010320:14
#010360:00000054
#011320:0000000000240000
#012320:14
#013360:24
#0153b0:0000001300000000
#015380:00000023
#017320:0000001300000000
#017350:00000023
#019320:0000001300000000
#019350:00000023
#020320:0000001300000000
#020350:0000000000230000
#021350:0000001300000000
#021320:00000023
#023350:0000001300000000
#023320:0000000000230000
#025380:0000001300000000
#0253b0:0000000000230000
#027380:0000001300000000
#0273b0:0000000000230000
#029350:0000001300000000
#029320:0000000000230000
#0313b0:13
#031380:00230000
#031350:0000001300000000
#031320:0000000000230000
#032380:0000001300000000
#0323b0:00000000000000000000005300000000
#033380:23
#033380:0013
#0333b0:00000023
#035320:13
#035350:00230000
#035380:0000001300000000
#0353b0:0000000000230000
#036350:0000001300000000
#036320:00000000000000000000005300000000
#037350:23
#037350:0013
#037320:00000023
#0393b0:0013
#039380:00000000000000000033333333333333
#040380:23
#0433a0:14
#043380:00000000000034342400000000000000
#043321:14
#043341:00000000000034342400000000000000
#044381:13
#0443b1:00230000
#044351:0000001300000000
#044321:0000000000230000
#046351:13
#046321:00230000
#046381:0000001300000000
#0463b1:0000000000230000
#0473b1:00000013
#048381:23
#051321:0013
#051351:00000023
#0513b0:0013
#051380:00000023
#052350:13
#052320:00230000
#052380:0000001300000000
#0523b0:0000000000230000
#054380:13
#0543b0:00230000
#054350:0000001300000000
#054320:0000000000230000
#055320:00000013
#056350:23
#0593b0:0013
#059380:00000023
#059321:0013
#059351:00000023
#060381:13230000
#060320:13230000
#060350:0000001300230000
#0603b1:0000001300230000
#0613b1:0013
#061371:00000023
#061360:0013
#061320:00000023
#0623b0:0000001300230000
#064350:13230000
#0643b1:13230000
#064381:0000001300230000
#064320:0000001300230000
#065320:0013
#065360:00000023
#065371:0013
#0653b1:00000023
#070381:00000013
#0713b1:0023
#074351:13
#074321:00230000
#075321:0013
#076351:23
#0753b0:0013
#076380:23
#0763b0:00000013
#077380:00230000
#077320:00000013
#078350:23
#078350:00000013
#079320:00230000
#080320:13
#080350:00000023
#083320:13
#083350:00000000000033332300000000000000
#0833b1:13
#083381:00000000000033332300000000000000
#0843b1:13
#084381:00230000
#084351:0000001300000000
#084321:0000000000230000
#086321:13
#086351:00230000
#0863b1:0000001300000000
#086381:0000000000230000
#089381:00000013
#0903b1:23
#091321:00001424
#0913a0:00001424
#092320:13
#092350:00230000
#092380:0000001300000000
#0923b0:0000000000230000
#0943b0:13
#094380:00230000
#094320:0000001300000000
#094350:0000000000230000
#097350:00000013
#098320:23
#0993a0:00001424
#099321:00001424
#1003b1:13
#100381:00230000
#100350:13
#100320:00230000
#100380:0000001300000000
#1003b0:0000000000230000
#100321:0000001300000000
#100351:0000000000230000
#102321:13
#102351:00230000
#104321:13
#104351:00230000
#104380:13
#1043b0:00230000
#104350:0000001300000000
#104320:0000000000230000
#1043b1:0000001300000000
#104381:0000000000230000
