This file was generated by Ched 2.7.0.0.
#TITLE ""
#ARTIST ""
#DESIGNER ""
#DIFFICULTY 0
#PLAYLEVEL
#SONGID ""
#WAVE ""
#WAVEOFFSET 0
#JACKET ""
#REQUEST "ticks_per_beat 480"
#00002: 4
#BPM01: 178
#00008: 01
#TIL00: ""
#HISPEED 00
#MEASUREHS 00
#00018:12
#0001c:0012
#0001a:00120012
#00012:12
#00118:12
#00112:00000012
#00218:1200000000000012
#0021a:00120000
#0021c:0012
#00212:12
#00318:12
#00316:0000001212000000
#0031a:00000000000000120000000000000000
#00418:12
#0041a:00120012
#0041c:0012
#00414:00120012
#00416:0012
#00512:12000012
#00518:12000012
#00514:0000120000000012
#00516:0012
#0051a:0000000000000012
#0061c:12000012
#00616:12
#00618:00121200
#0061b:0000001200000000
#00612:00120012
#00615:0000000000000012
#00712:1212
#00716:00120000
#0071c:00122200
#00719:0000001200000000
#00812:0000142300000023
#00817:0000001300000013
#00816:00000014000000001400130014000000
#0081a:0014000000000000
#0081b:0000000000230000
#00912:00001300000000130000130000000000
#00915:16161613
#0091b:00000013000013000000001300000000
#00914:0000000000000014
#00918:00000000000000000000000000130014
#01018:26000000000000000000000000160000
#01012:26
#01212:0016
#01218:26
#01312:16
#01416:00120012
#01412:1200000012000012
#01414:0000001200000000
#0141c:0012
#01419:0000000000120012
#01410:41
#0151c:1200001200000000
#01512:00120000
#01516:0012001200000000
#01519:00120000
#01612:1200000012000012
#01616:0000120000120000
#01619:00000012
#0161c:0000000000000012
#01712:00120000
#01719:12120000
#01716:0012001200000000
#0171c:0000001200000000
#0181c:1200000012000012
#01816:1212000000000012
#01818:0000121200001200
#0191c:00120000
#01912:1200001200000000
#01918:0012001200000000
#01916:00120000
#0201c:1200000000000012
#02018:0000120000120000
#02015:00000012
#02012:1212000000000012
#0211c:00120000
#02118:0012001200000000
#02112:0000000000120000
#02115:12120000
#02117:00000022
#02212:1313
#02214:0013001300000000
#02216:0000130000141314
#02217:2713
#0221b:00230023
#02312:1300001300000000
#02317:1300001300000000
#02314:0013000000000000
#02319:0013000000000000
#02316:00130000
#0231b:00230000
#0261b:1313
#02619:0013001300000000
#02617:00130013
#02616:0000000013140014
#02612:27230023
#02610:41
#0271b:1300001300000000
#02716:1300001300000000
#02719:0013000000000000
#02714:0013000000000000
#02717:00130000
#02712:00230000
#02512:1300130000130000
#0251b:00001300000013000000001300000000
#02518:0000000000000013
#02516:0013001300000000
#02517:13230000
#02412:1313
#02414:0013000000130000
#02416:0000130000002314
#02417:1313
#02419:0000001300000000
#0241b:00230000
#0291b:13000000130000000000130000000013
#02917:0013001300000000
#02912:0013001300001300
#02916:13230000
#02918:00000000000000000000000000130000
#02915:0000000000000013
#02814:0000001300000000
#02816:1300000013000014
#0281b:1313
#02819:0000000000130000
#02812:00230000
#02817:00000023
#03018:13
#03015:13
#0301b:00130000
#03017:00000013
#03012:0000000013000013
#03016:0000001400000000
#03212:1300001300000013
#0321b:13000000000000000000001300000000
#03215:0013130000000000
#03218:00000013000000000000000000000000
#03217:0000001300000000
#03216:0000000000130000
#03214:00000013
#03312:13000000000013000000000000130000
#03316:0013140013000000
#0331b:0013000013001300
#03317:0000001300000000
#03318:0000000000000013
#03315:00000000000000000000000000000013
#03118:13
#03112:00130000
#0311b:0000000013000013
#03115:13
#03116:0000001400001300
#03412:13000000000013000000001300000000
#03415:0000130000000013
#0341b:1300001300130000
#03418:0013
#0351b:13000000000013000000001300000000
#03518:0000130000000013
#03512:1300001300130000
#03515:0013
#0361b:1300001300000013
#03612:13000000000000000000001300000000
#03618:0013130000000000
#03615:00000013000000000000000000000000
#03616:0000001300000000
#03617:0000000000130000
#03619:00000013
#0371b:13000000000013000000000000000013
#03717:0013000013000000
#03712:0013000013001300
#03716:0000141300000000
#03718:00000000000000000000000000130000
#03715:0000000000000013
#03819:0013130000000000
#03816:00000013000000000014000000000000
#0381a:0000000014140000
#03812:2600002900002c00
#0391c:0012000000000000
#03918:00120012
#03914:00000000000012000000001200000000
#03915:00000000000000000012000000000000
#03913:00000000000000000000000000120000
#03912:00000000000000000000000000000012
#0391a:0012
#03919:0000000000120000
#03917:0000000000000012
#04115:0013
#04118:0000000023160000
#04112:0000130000260000
#0411b:00130000
#04014:0013130000000000
#04017:00000013000000000000000000000000
#04012:0000000014142c00
#04016:00000000000000000014000000000000
#04018:26
#04015:0000002900000000
#04212:1c131c001c131c00
#04215:00000016000000160000001600000016
#0421b:0000001300000000
#04216:0000000000000014
#04318:16000000000036360000000000000000
#04312:16
#04315:000000000000000000000000000000000000263636363636
#0431b:00000023
#0441b:1300001300000000
#04412:0000130013130016
#04416:0000001300000000
#04418:00000016
#04410:41
#04516:0014000000141314
#04517:00130000
#04512:13131300
#0451b:1300001300001300
#04612:1300001300001600
#0461b:0000130013130000
#04617:0000001300000000
#04618:16000016
#04716:0014140014001400
#04714:0000001300000000
#04712:1313
#04719:0000000000130000
#0471b:13130013
#04918:0000001300001313
#04915:00000000000000001300000000130013
#0491b:00130000
#04912:0000000000130000
#05012:1400002600160026
#0501a:14
#05018:0014141600260016
#05014:00000014000000000000000000000000
#05016:00000014
#05112:00162400
#05118:0000231600000000
#0511a:000000000000000000000000003434143434000000000000
#05116:000000000000000000000000143434143434000000000000
#0511b:0023000000000000
#05115:0000002300000000
#05212:1300000013131600
#0521b:0000131300000000
#05216:0000001300000000
#05218:1600000000000016
#05316:0014130000140014
#0531b:13131300
#05312:1300001300001300
#05317:00000013
#0541b:1300000013130000
#05412:1600131300001600
#05417:0000001300000000
#05418:00000016
#05516:0014140014001400
#05519:0000001300000000
#0551b:1313
#05514:0000000000130000
#05512:13130013
#0581a:14
#05812:1400001600260016
#05814:0014140000000000
#05818:00000014000026000000160000002600
#05816:00000014
#05918:0000162300000000
#05912:000000230000000000160000003434143434000000000000
#05916:000000000000000000000000143434143434000000000000
#05915:00230000
#0591a:0024
#0601a:14140000
#06016:0013131300130013
#06012:2400001300000023
#06010:41
#06116:0013000013001300
#06119:00120000
#06112:00131300
#0611b:0000002300000000
#06216:0013131313000013
#06212:1300001300000000
#0621a:1400140000140000
#0621b:0000000000000023
#06312:1300131300130000
#0631b:0013000000000000
#06316:0000000013280012
#0631a:00000000000000001400000000120000
#06318:00000000000000000000000000000012
#06314:00000012
#06412:14140000
#06417:0013131300130013
#0641b:0000001300000023
#0641a:24
#06517:0013000013001300
#06515:00120000
#0651b:00131300
#06512:0000002300000000
#0661b:1313
#06617:0013001313130013
#06612:1400140000140023
#0671b:1300001300000000
#06712:0013000013002c00
#06717:0013
#06714:00000000000000000000001800000000
#06716:0000000000140000
#06816:1314140014141300
#06817:0000001300000000
#06812:13000014
#0681b:0000001300000000
#06916:1313001300130000
#06912:0000130013000013
#0691b:0000000000130000
#06914:00000013
#06917:0000000000000013
#06919:00000013
#0701b:0013131300000000
#07012:1300000013130000
#07016:0013001300000000
#07017:13001313
#0701a:00000014
#0711b:00131313
#07115:00000000000000000013000000130000
#07118:0000000000130013
#07112:00000000000000000000001300000013
#07117:1313001300000000
#07215:0013000000000000
#0721b:00000013000000000000000000000000
#07216:2800001428140000
#07212:00000000280000140000000028000000
#0721a:00000000000000000000001400000000
#0731b:0013000000000000
#07316:0013000000000000
#07314:00130000
#07312:00000000000013000000001300000013
#07317:0000001300000000
#07319:00130000
#0731a:0000000014140000
#07315:00000000000000000013000000130000
#07318:0000000000001414
#07412:1c00001300000016
#07415:0013131600160000
#0741b:0000000000130000
#07418:00000013000000001400000000001600
#07414:00000014
#07410:41
#07512:00001300000013000000000000000014
#07517:0013001300000014
#0751b:00130000
#07516:00130000
#0751a:0014
#07519:0000000000140000
#07518:00000014
#07515:00000000000000000014000000000000
#07514:00000000000000000000001400000000
#07513:00000000000000000000000000140000
#0761c:0000121200000000
#07616:0000001200000000
#07618:0000000000121200
#07612:2c000012
#0761f:11
#0771c:1212
#07716:00120012
#07712:0012
#07714:0000001200000000
#0771a:0000000000120000
#07718:00000012
#0781c:12000012
#07812:0000121200000000
#07818:0000001200000000
#07816:0000000000121200
#07912:12
#07918:0000120000120000
#0791c:0012
#0791a:0000001200001200
#07916:0000000012000012
#07914:00000012
#08018:12
#08012:12000012
#08016:00121200
#0801c:0000001200000000
#08116:1200000000120000
#0811c:00120012
#08112:0000001200000000
#08118:0012
#08216:00120000
#08218:00261426
#08214:00000014
#08212:2626
#08318:16
#08312:26000000000036360000000023000000
#08315:000000000000000000000000000000000000263636363636
#0841b:0000130000000013
#08417:0000001300000000
#08412:1300001300001300
#08416:0000000013130000
#08415:0000000000002626
#0841f:21
#0851b:13131313
#08512:1300130000140000
#08516:0014001300001314
#08510:41
#0861b:1300001300001300
#08612:16130000
#08616:0000001300000000
#08617:0000000013130000
#08618:0000000000000013
#08615:00000026
#08716:0014140014001414
#08719:0000001300000000
#08712:1313
#08714:0000000000130000
#0871b:13130013
#0921b:1300001300001300
#09212:2600130000000013
#09216:0000001300000000
#09217:0000000013130000
#09215:0000000000002626
#0931b:13130000
#09312:13131313
#09317:0000001300001300
#09316:0014000000000014
#0931a:0000000000140000
#09412:1300002300001300
#0941b:00130000
#09417:0000001300000000
#09416:0000000013130000
#09415:0000000000002613
#09418:26
#09516:0014240024002414
#09514:0000001300000000
#0951b:1313
#09519:0000000000130000
#09512:13130013
#08917:00130013
#0891b:0000001300000013
#08912:00000000000000001300000000130000
#08916:00000000000000000000130000000013
#09012:1400002600160026
#0901a:14
#09018:0014241600260016
#09014:00000014000000000000000000000000
#09016:00000014
#09112:00162300
#09118:0000231600000000
#09119:000000000000000000000000003535153535000000000000
#09116:000000000000000000000000003333133333000000000000
#09115:0000002315000000
#0911b:0023000000000000
#09716:00130013
#09712:0000001300000013
#0971b:00000000000000001300000000130000
#09717:00000000000000000000130000000013
#0981a:14
#09812:1400001600260016
#09814:0014240000000000
#09818:00000014000026000000160000002600
#09816:00000014
#09918:0000162300000000
#09912:000000230000000000160000003535153535000000000000
#09917:000000000000000000000000003333133333000000000000
#09916:0015
#09915:00230000
#0991b:0023
#10012:14140000
#10017:0013131300130013
#1001b:0000001300000013
#1001a:24
#10117:0013000013001300
#10115:00120000
#10112:0000001300000000
#1011b:00131300
#10217:0013131313000013
#1021b:1300001300000000
#10212:1400140000140013
#1031b:1300131300130000
#10312:0013000014280000
#10317:0013
#10314:00000000000000000000000000120000
#10316:00000000000000000000000000000012
#10318:0000000000000012
#1031a:00000012
#1041a:14140000
#10416:0013131300130013
#10412:2400001300000013
#10516:0013000013001300
#10519:00120000
#1051b:0000001300000000
#10512:00131300
#10612:1313
#10616:0013001313130013
#1061a:1400140000140000
#1061b:0000000000000013
#10712:1300001300002c00
#1071b:0013000013000000
#10716:0000000013140000
#10714:00000000000000000000001800000000
#1081c:1200001200000000
#10818:00120000
#10812:1200001200000000
#10816:0000000000120000
#05715:0000001300001313
#05718:00000000000000001300000000130013
#05712:00130000
#0571b:0000000000130000
#08817:0014000000140000
#08815:2600001400000000
#0881b:00230023
#08812:2300000023000026
#09615:2614000000140000
#09617:0000001400000000
#09612:00230023
#0961b:2323
#09618:0000000000000026
#01118:0000000000260000
#01115:00000026
#01112:0000000000000026
#0481b:00230023
#04812:2300000023000026
#04816:24
#05612:00230023
#0561b:2323
#05618:0000000000000026
#05616:24
#00358:52
#00356:0052
#00252:52
#00158:52
#00052:52
#00558:52
#00656:52
#00652:00220000
#00658:0062
#0065c:00000022
#00752:6252
#00756:00220000
#0075c:0052
#00852:16
#00858:16
#00955:1616
#01058:46000000000000000000000000260000
#01052:56
#01252:0026
#01258:66
#01352:16
#01556:0000005200000000
#0155c:0000005200000000
#01756:0000005200000000
#0175c:0000005200000000
#01958:0000005200000000
#01952:0000005200000000
#02158:0000006200000000
#02257:47
#02356:0000000000330000
#0235b:00000033
#02352:0000005300000000
#02357:0000005300000000
#0275b:0000006300000000
#02756:0000006300000000
#02757:0000000000430000
#02752:00000043
#02652:37
#0255b:0000005300000000
#02457:0053
#02952:0000006300000000
#02856:0063
#0285b:53
#03058:13
#03055:53
#03252:0000001300000000
#03257:0000005300000000
#0325b:00000000000000000000002300000000
#03356:0053
#03158:63
#0345b:53
#03452:13
#03552:63
#0365b:0000001300000000
#03656:0000006300000000
#03652:00000000000000000000002300000000
#03757:0063
#03852:3600003900003c00
#04158:0000000000460000
#04152:0000000000360000
#04058:46
#04055:0000004900000000
#04052:0000004c
#04252:1c1c1c1c
#04358:1616
#04352:56
#04355:00000026
#0445b:5300005300000000
#04456:0000003300000000
#04452:3600000000000036
#04458:00000046
#04557:00530000
#0455b:0000002300000000
#04652:6300006300003600
#04657:0000004300000000
#04658:46000046
#04856:44344434
#0485b:00530023
#04852:6300000063000016
#04858:0000000000000016
#05052:1400000000160056
#0505a:14
#05058:0000001600000016
#0515a:0000000000240000
#05156:0000000054243400
#05152:00005434
#05252:63000036
#0525b:0000005300000000
#05256:0000003300000000
#05258:4600000000000046
#05356:00630000
#05352:0000002300000000
#0545b:53
#05452:3600006300003600
#05457:0000004300000000
#05458:00000046
#0585a:14
#05852:1400001600000016
#05858:0000000000160056
#05652:0000630000002316
#0565b:5353
#05658:0000000000000016
#05656:34443444
#06056:0000005300330053
#0605a:14
#06156:0053000053003300
#06152:00230000
#06256:0000000023000053
#0625a:0000000000440000
#06252:0000006300000000
#06352:23
#0635b:0063000000000000
#06356:0000000000180000
#06457:0000006300430063
#06452:14
#06557:0063000063004300
#0655b:00230000
#0665b:53
#06657:0023000000000063
#06652:0000000000340000
#0675b:23
#06752:0053000000001c00
#06856:53000053
#06857:0000006300000000
#06852:13000014
#0685b:0000001300000000
#07052:53
#07056:0023000000000000
#0705b:0000006300000000
#07057:13002363
#0705a:00000014
#07256:4848
#07252:00380038
#07452:1c00001300000016
#07455:0000001600160000
#0745b:0000000000130000
#07458:0000000000000016
#07652:1c
#07658:00000052
#0775c:22
#07756:00000052
#07856:00000062
#07952:22
#08058:52000032
#08052:00000032
#0805c:0000002200000000
#0815c:00000052
#08256:00120000
#08258:12161416
#08252:1616
#08254:00000014
#08358:66
#08352:1616
#08355:00000026
#08457:0000006300000000
#08452:6300004300000000
#08455:0000000000004636
#08458:46
#08552:00530000
#08556:0000002300000000
#0865b:5300003300000000
#08656:0000005300000000
#08652:36
#08655:00000036
#0885b:00530023
#08852:6300000063000016
#08855:4600362446003600
#08858:0000000000000016
#08857:0024000000240000
#0925b:5300003300000000
#09256:0000005300000000
#09255:0000000000003646
#09252:36
#0935b:00630000
#09357:0000002300000000
#09452:6300004300000000
#09457:0000006300000000
#09458:46
#09455:00000046
#09652:0000630000002316
#0965b:5353
#09658:0000000000000016
#09655:3624460036244600
#09657:0000002400000000
#09052:1400000000160056
#0905a:14
#09058:0000001600000016
#09159:0000000000250000
#09156:0000000000230000
#09155:00005535
#09152:00005333
#0985a:14
#09852:1400001600000016
#09858:0000000000160056
#10057:0000006300430063
#10052:14
#10157:0063000063004300
#1015b:00234300
#10257:0000000023000063
#10252:0000000000340000
#1025b:0000005300000000
#1035b:23
#10352:0053000000180000
#10456:0000005300330053
#1045a:14
#10556:0053000053003300
#10552:00233300
#10652:63
#10656:0023000000000053
#1065a:0000000000440000
#10752:2300001c
#1075b:0063000000000000
#10852:52
#1085c:0000005200000000
#05952:0000000000240000
#05956:0000000064244400
#0595a:00006444
#09952:0000000000250000
#09957:0000000000230000
#09956:00006545
#0995b:00006343
#0475b:00000053
#05552:00000053
#000320:12
#001360:22
#001381:12
#0013c1:00000022
#002321:12
#003361:22
#003380:12
#0033c0:0000002200000000
#003360:0012
#004320:22
#005380:12
#0053c0:0022
#006360:1222
#006320:00520000
#006381:0012
#0063c1:00000052
#007381:22
#007320:1232
#007360:00520000
#008380:26
#0073c1:0012
#008321:26
#010321:16
#010381:00000000000000000000000000560000
#011321:0000000000260000
#012381:16
#012321:0056
#013381:26
#014381:12
#0143c1:00220000
#015361:0000001200000000
#015321:00000022
#0153c0:0000001200000000
#015380:00000022
#016380:1222
#0163c0:00320000
#017360:0000001200000000
#017320:00000022
#0173c1:0000001200000000
#017381:00000022
#018321:0012
#018361:00000022
#019381:0000001200000000
#0193c1:00000022
#019320:0000001200000000
#019360:00000022
#020360:0000001200000000
#020320:0000000000220000
#021380:0000001200000000
#0213c0:0000000000220000
#023320:0000001300000000
#023360:0000000000230000
#023371:0000001300000000
#0233b1:0000000000532300
#024371:0013
#0243b1:00000023
#0253b1:0000001300000000
#025371:0000000000230000
#025351:0000000000001323
#0273b1:0000001300000000
#027371:0000000000230000
#027360:0000001300000000
#027320:0000000000532300
#0283b0:13
#028370:00230000
#028360:0013
#028320:00000023
#029320:0000001300000000
#029360:0000000000230000
#030350:13
#030320:00230000
#0303b0:0000000013230000
#030361:0000000000130000
#030341:00000000000000000000003300000000
#030321:00000023
#031381:13
#0313b1:00230000
#031321:0000000013230000
#031370:0000000000130000
#031390:00000000000000000000003300000000
#0313b0:00000023
#032370:0000001300000000
#0323b0:00000000000000000000005300000000
#033370:23
#033360:0013
#033320:00000023
#0343b0:13
#034380:00230000
#034350:0000000013230000
#034380:0000000000001323
#035320:13
#035350:00230000
#035380:0000000013230000
#035350:0000000000001323
#036360:0000001300000000
#036320:00000000000000000000005300000000
#037360:23
#037370:0013
#0373b0:00000023
#043320:16
#043380:00000000000036362600000000000000
#043350:000000000000000000000000000000000000163636363636
#044320:26
#0443b1:13
#044371:00230000
#0443b1:0000001300000000
#044371:0000000000230000
#045371:00132300
#0453b1:0000003300000000
#046321:13
#046361:00230000
#046321:0000001300000000
#046361:0000000000230000
#0473b1:00000013
#048361:24
#048320:13
#048360:00240000
#0483b1:00130000
#048361:0024
#048320:0013
#048360:00000024
#0483b1:00000013
#048381:0000000000000026
#049321:0000132300000000
#0493b1:0000000013230000
#050321:0000000000000016
#051321:0023000000000000
#051361:00001424
#0513a1:000000000000000000000000003434343434000000000000
#051320:00001424
#051360:000000000000000000000000003434343434000000000000
#052320:13
#052360:00230000
#0523b0:0000001300000000
#052370:0000000000230000
#053360:00132300
#053320:0000003300000000
#0543b0:13
#054370:00230000
#054320:0000001300000000
#054360:0000000000230000
#055320:00000013
#056360:24
#0563b1:13
#056361:00240000
#056320:00130000
#056360:0024
#0563b1:0013
#056361:00000024
#056320:0000000000001326
#0573b0:0000132300000000
#057320:0000000013230000
#058380:0000000000000016
#0593b0:0023000000000000
#059360:00001424
#059320:000000000000000000000000003434343434000000000000
#0593a1:00001424
#059361:000000000000000000000000003434343434000000000000
#060361:0000001300000000
#0603b1:0000000000230000
#060361:0000000000000013
#0613b1:0023000000000000
#061360:0013002300000000
#061320:00530000
#061360:0013
#0613b0:00000023
#062320:0000001300230000
#062360:0053
#062360:0000000000000013
#063320:53
#063360:0023000000000000
#0633b1:0013000000000000
#063361:0000002300000000
#064371:0000001300000000
#064321:0000000000230000
#064371:0000000000000013
#065321:0023000000000000
#065370:0013002300000000
#0653b0:00530000
#065370:0013
#065320:00000023
#0663b0:13230000
#066370:0053000000000000
#066370:0000000000000013
#0673b0:53
#067370:0023000000000000
#067321:0013000000000000
#067371:0000002300000000
#068361:13
#0683b1:0053230000000000
#068371:0000001300000000
#068321:0000000053230000
#068361:00000013
#0693b1:53535353535353532300000000000000
#0693a1:0053005300530053005300530053005300000000000000000000000000000000
#070321:13230000
#070361:0053000000000000
#0703b1:0000001300230000
#070371:0053
#070371:00000013
#071321:53535353535353532300000000000000
#071331:0053005300530053005300530053005300000000000000000000000000000000
#076381:00000012
#0773c1:52
#077381:00220000
#077361:00000012
#078321:22
#078361:00000012
#079321:52
#079361:00220000
#080381:12000022
#0803c1:0000005200000000
#0813c1:00000012
#082381:22
#083381:16
#083321:00000000000036362600000000000000
#083351:000000000000000000000000000000000000163636363636
#084381:26
#084320:13
#084360:00230000
#084370:0000001300000000
#0843b0:0000000000230000
#085320:00132300
#085360:0000003300000000
#0863b0:13
#086370:00230000
#086360:0000001300000000
#086320:0000000000230000
#088320:13
#088370:0054000000000000
#088350:00260000
#0883b1:00130000
#088351:0000005426000000
#088320:0013
#088370:0000000000540000
#088350:00000026
#0883b1:00000013
#088381:0000000000000026
#089321:00130000
#089361:0000002300000000
#089371:0013
#0893b1:0000000000230000
#090321:0000000000000016
#091321:0023000000000000
#091351:00001525
#091391:000000000000000000000000003535353535000000000000
#091320:00001323
#091360:000000000000000000000000003333333333000000000000
#0923b0:13
#092370:00230000
#092360:0000001300000000
#092320:0000000000230000
#0933b0:00132300
#093370:0000003300000000
#094320:13
#094360:00230000
#094370:0000001300000000
#0943b0:0000000000230000
#0963b0:13
#096350:0054260000000000
#096321:00130000
#096371:0000005400000000
#096351:0026
#0963b0:0013
#096350:0000000000542600
#096321:0000000000001326
#0973b1:00130000
#097371:0000002300000000
#097361:0013
#097321:0000000000230000
#098381:0000000000000016
#0993b1:0023000000000000
#099361:00001525
#099321:000000000000000000000000003535353535000000000000
#0993b0:00001323
#099370:000000000000000000000000003333333333000000000000
#100370:0000001300000000
#100320:0000000000230000
#100370:0000000000000013
#101320:0023000000000000
#101371:0013002300000000
#1013b1:00530000
#101371:0013
#101321:00000023
#1023b1:0000001300230000
#102371:0053
#102371:0000000000000013
#1033b1:53
#103371:0023000000000000
#103320:0013000000000000
#103370:0000002300000000
#104360:0000001300000000
#1043b0:0000000000230000
#104360:0000000000000013
#1053b0:0023000000000000
#105361:0013002300000000
#105321:00530000
#105361:0013
#1053b1:00000023
#106321:13230000
#106361:0053000000000000
#106361:0000000000000013
#107321:53
#107361:0023000000000000
#1073b0:0013000000000000
#107360:0000002300000000
#108320:12
#108360:00220000
#1083c0:0000001200000000
#108380:0000000000220000
