This file was generated by Ched 2.7.0.0.
#TITLE ""
#ARTIST ""
#DESIGNER ""
#DIFFICULTY 0
#PLAYLEVEL
#SONGID ""
#WAVE ""
#WAVEOFFSET 0
#JACKET ""
#REQUEST "ticks_per_beat 480"
#00002: 4
#BPM01: 178
#00008: 01
#TIL00: ""
#HISPEED 00
#MEASUREHS 00
#0001a:14
#00014:0014
#00118:14
#00112:0014
#00218:14
#00214:0014
#00412:14
#00418:0014
#00514:14
#0051a:0014
#00614:14
#00618:0014
#0081a:14
#00814:0014
#00918:14
#00912:0014
#0101a:14
#01214:14
#0141a:14
#01414:00140000
#01418:0014
#01412:00000014
#01410:41
#01612:14
#01618:00140000
#01614:0014
#0161a:00000014
#01818:14
#01812:00140000
#0181a:0014
#01814:00000014
#02014:14
#0201a:00140000
#02012:0014
#02018:00000014
#0221a:1414
#02214:00140014
#02318:1414
#02312:00140000
#02412:1414
#02418:00140014
#02514:1414
#0251a:00140000
#02618:1414
#02612:00140014
#02610:41
#0271a:1414
#02714:00140000
#02814:1414
#0281a:00140014
#02912:1414
#02918:00140000
#0301a:14
#03114:14
#03218:14
#03412:14
#03518:14
#03614:14
#04114:0000140000140000
#04118:0014
#0421a:14
#04214:00140000
#04218:0014
#04212:00000014
#0431a:14
#04418:00140000
#04414:0014
#04412:24
#0441a:24
#04410:41
#04514:00140014
#04518:0014
#0461a:14
#04614:00140000
#04618:0014
#04718:00140014
#04714:0014
#0491a:00140000
#04914:0014
#04918:00000014
#05218:00140000
#05214:0014
#05212:24
#05314:00140014
#05318:0014
#0541a:14
#05414:00140000
#05418:0014
#05518:00140014
#05514:0014
#0571a:00140000
#05714:0014
#05718:00000014
#06012:14140000
#06018:00001414
#06010:41
#06114:14140000
#0611a:00001414
#06212:14140000
#06218:00001414
#06314:14140000
#0641a:14140000
#06414:00001414
#06518:14140000
#06512:00001414
#0661a:14140000
#06614:00001414
#06718:14140000
#07214:1414
#07218:00140000
#07714:14
#0771a:0014
#07812:14
#07818:0014
#07914:14
#0791a:0014
#07618:0014
#0761f:11
#08414:00140000
#08418:0014
#0841a:24
#08412:24
#0841f:21
#08518:00140014
#08514:0014
#08510:41
#08612:14
#08618:00140000
#08614:0014
#08714:00140014
#08718:0014
#08912:00140000
#08918:0014
#08914:00000014
#09214:00140000
#09218:0014
#0921a:24
#09318:00140014
#09314:0014
#09412:14
#09418:00140000
#09414:0014
#09514:00140014
#09518:0014
#09712:00140000
#09718:0014
#09714:00000014
#1001a:14140000
#10014:00001414
#10118:14140000
#10112:00001414
#1021a:14140000
#10214:00001414
#10318:14140000
#10412:14140000
#10418:00001414
#10514:14140000
#1051a:00001414
#10612:14140000
#10618:00001414
#10714:14140000
#10818:1400001400000000
#10814:0000140000140000
#0381a:24
#03816:0000002400000000
#03812:00000024
#04012:24
#04016:0000002400000000
#0401a:00000024
#04814:2424
#04818:00240026
#04812:0000000000000026
#05614:2424
#05618:00240026
#05612:0000000000000026
#0821a:24
#08214:00240000
#08219:0024
#08213:00000024
#08318:24
#08818:2400000024000026
#08814:00240000
#08812:00000026
#09618:2400000024000026
#09614:00240000
#09612:00000026
#01518:00343400
#01714:00343400
#0191a:00343400
#02112:00343400
#07019:0034
#0701a:0000000000340000
#07410:41
#0105a:54
#01254:54
#0305a:54
#03154:54
#03258:54
#03452:64
#03558:64
#03654:64
#0335a:0014
#03752:0014
#0435a:54
#0515a:00000014
#0595a:00000014
#06354:00000014
#06758:00000014
#08358:14
#09152:00000014
#09952:00000014
#10358:00000014
#10754:00000014
#0033a0:1424
#007320:1424
#0103a0:14
#011380:0024
#012340:14
#013320:24
#0153a0:14
#015380:00343424
#017320:14
#017340:00343424
#019380:14
#0193a0:00343424
#021340:14
#021320:00343424
#0303a0:14
#030380:00000024
#031340:14
#031320:00000024
#032380:14
#0333a0:0024
#034320:14
#034340:00000024
#035380:14
#0353a0:00000024
#036340:14
#037320:0024
#0433a0:14
#043380:0024
#0443a0:00000014
#0453a0:24
#046320:00000014
#047320:24
#050320:14240000
#050380:00001424
#051340:14240000
#0513a0:00001424
#0523a0:00000014
#0533a0:24
#054320:00000014
#055320:24
#058320:14240000
#058380:00001424
#059340:14240000
#0593a0:00001424
#063340:00001424
#067380:00001424
#068320:14000034
#068340:0000003400000000
#069340:0024
#0703a0:1400000000343400
#070380:0000003400000000
#070390:0034
#071380:0024
#072380:00000014
#073380:0024
#074320:1400000000340000
#074340:0000003400000034
#075320:00343400
#076320:24
#080320:14
#080340:00000034
#081320:0024
#084320:00000014
#085320:24
#0863a0:00000014
#0873a0:24
#0903a0:14240000
#090340:00001424
#091380:14240000
#091320:00001424
#092320:00000014
#093320:24
#0943a0:00000014
#0953a0:24
#0983a0:14240000
#098340:00001424
#099380:14240000
#099320:00001424
#103380:00001424
#107340:00001424
