This file was generated by Ched 2.7.0.0.
#TITLE ""
#ARTIST ""
#DESIGNER ""
#DIFFICULTY 0
#PLAYLEVEL
#SONGID ""
#WAVE ""
#WAVEOFFSET 0
#JACKET ""
#REQUEST "ticks_per_beat 480"
#00002: 4
#BPM01: 128
#00008: 01
#TIL00: ""
#VOLUME: ""
#HISPEED 00
#MEASUREHS 00
#0001a:000000520000000012000000000000000000000000000000
#00018:0000001200000000
#00016:000000000012000000000000
#00014:000000000000000000000012000000520000000000520000
#00017:0052000000520052
#00013:005200000000000000000000
#00015:000000000052000000000000000000000000520000000000
#00019:000000000000520000000000000000000052000000000000
#0001c:00520000
#00012:000000005200000000520000
#0001b:000000000000005200005200
#00518:1300001300000000
#00512:1300001300000000
#00515:0000000013000013
#0051b:0000000013000013
#00510:41
#00612:130000000000000000120012000000140000000000005400
#00618:130000121200000000000000
#0061c:001200000000000000000000
#00616:000000120012000000000000140000140000000014000000
#0061a:000000140054
#00614:0000000000000054
#0071b:1300001300000000
#00715:1300001300000000
#00718:0000000013000013
#00712:0000000013000013
#0081b:13130000
#00815:1300132300000000
#00812:000000130000000000130000000000000000000000000012
#00818:000000130000230000130000230000000000000000001200
#0081c:00000012
#0081a:000000000012
#00816:000000000000000000000000000000000000001200000000
#00814:0000000000000012
#00915:0013001300000013
#00912:00130000
#00918:0000001300130013
#0091b:00001313
#0101b:130013000000000013000000000000130000000013000000
#01018:000000130013000000130013000000000000000000130013
#01015:0013131300001313
#01012:13130013
#01112:130000000000000000130000000000000013000000130000
#01115:130000000000000000000000000013000013000000000000
#0111b:0013000013000013
#01116:0013000000000000
#01119:00130000
#01114:00130000
#01117:0000001300000000
#01118:0013
#01218:000000130013000013000000000000000000000000130000
#01215:000000130000000013000013000000000000130000130000
#0121b:000000000013000000000000000000130000000000000000
#01212:000000000000000000000013000000000000130000000000
#01315:2300001300000000
#0131b:0000001313000000
#01312:0000000013000013
#01318:2300000000000013
#01412:13
#01418:1300000000000053
#0141b:0000530000000013
#01415:0000005300000053
#01512:1300001300000000
#0151b:1300000000000013
#01515:0000000013000013
#01518:0000001313000000
#0161b:13000013
#01615:1300000000000013
#01612:0000530000131300
#01618:000000000000000000530000000000130000000013000013
#01718:0013001300000013
#0171b:00130000
#01715:0000001300130013
#01712:00001313
#01710:41
#01812:130013000000000013000000000000130000000013000000
#01815:000000130013000000130013000000000000000000130013
#01818:0013131300001313
#0181b:13130013
#0191b:13
#01918:130000000012000000000052000000000000000052120000
#01914:000000120000000000000000520000000000520000000012
#01916:000000001200000000520000000000000000000000520000
#0191a:000000000000000052000000000000000052000000001200
#0191c:000000000000005200000000
#01912:0000000000520000
#02016:12
#0201b:0013001300130000
#02018:000000000000130000000000130000000000130000130013
#02015:000000130000000000530000000000530000000013000000
#02012:00535353
#02119:0013001300000000
#02112:1300160000130000
#0211b:230000130013
#02115:000000000000000000000000000013000000130000000013
#02118:000000000000130000000000000000000013000000130000
#02512:2323130000005313
#02515:000000130000000000130000530000130000530000000013
#02518:130000000000000000530000130000530000130013000000
#0251b:2323130000530013
#02715:130013000000000000130013000000130013000000130000
#02718:000000130000130013000000130013000000130013000000
#0271b:000000000013000000000000000000000000000000530000
#02712:0000000000000053
#02214:0013001300000000
#02218:000000160000001300130000
#02212:130000130013
#0221b:1300000000130000
#02215:000000000000130000000000000000000013000000130000
#03018:000000130000130000000000130000130013000000130000
#0301b:0000005313001300
#03015:130000130000000000130000000013000000130013000000
#03012:1300000053130013
#02815:001300230000001300230000000000000000000000000000
#02818:001313001313000000000000
#0281b:230000000013000000000013000000000000000000000000
#02812:23232c00
#02916:000000000012
#02918:000000000000000000130000000000000000000000130012
#02913:000000000012
#0291b:230000000013000000000000000000000000000000000012
#02919:0012
#0291c:0012
#02912:220000000000000000130000130000000013000000000000
#02915:2200001300000000
#02910:41
#03215:000000130000130000000000130000130013000000130013
#03218:130000130000000000130000000013000000130013000000
#0321b:1300000053130013
#03212:0000005313001300
#03118:000000000000000000130000000000000000000012000000
#03115:0000001312000013
#0311b:000000000000000000130000130000000013000012000000
#03116:000000000000000000000000000000000000000000000012
#03113:000000000000000000000000000000000000000000000012
#03112:230000000013000000000000120000000000000000000000
#03119:22
#0311c:22
#03312:130000130000000000130000000000000000000013000000
#03318:130000000000000000000000000000000000000000000000000000000000000000530000000000000000000000000000000000000000000000000000000000000000000000000000130000000000000000000000000000000000000000000000130000000000000000000000000000001300000000000000000000000000000000000000000000000000000000000000130000000000000000000000000000000000000000000000000000000000000000000000000000000000000000000000
#03315:000000000000000000130000000000000013000000130000
#0331b:00000053000000000000000000000000000000000000000000000000000000002300000000000000130000000000000000000000000000001300000000000000
#03319:00530000000000000000000000000000000000000000000000000000000000000000000000000000000000000000000000000000000000000000000000000000
#0331a:0053000000000000000000000000000000000000000000000000000000000000
#03314:00000000000000000053000000000000000000000000000000000000000000000000000000000000000000000000000000000000000000000000000000000000
#03316:0000000000530000000000000000000000000000000000000000000000000000
#03415:130000000000000000000000000000000000000000000000000000000000000000530000000000000000000000000000000000000000000000000000000000000000000000000000130000000000000000000000000000000000000000000000130000000000000000000000000000001300000000000000000000000000000000000000000000000000000000000000130000000000000000000000000000000000000000000000000000000000000000000000000000000000000000000000
#0341b:130000130000000000130000000000000000000013000000
#03418:130000000000000000130000000000000013000000130000
#03412:00000053000000000000000000000000000000000000000000000000000000002300000000000000130000000000000000000000000000001300000000000000
#03414:00530000000000000000000000000000000000000000000000000000000000000000000000000000000000000000000000000000000000000000000000000000
#03413:0053000000000000000000000000000000000000000000000000000000000000
#03419:00000000000000000053000000000000000000000000000000000000000000000000000000000000000000000000000000000000000000000000000000000000
#03417:0000000000530000000000000000000000000000000000000000000000000000
#03612:1400141314001413
#0361a:14141414
#03618:000013000000000000130000000013000000000000130000
#03615:000000130000000013000000000000130000000013000000
#0361b:0013000000130000
#03718:001300000000000000230000000000000000000000000000
#03715:001300000013000000000000
#03717:001300000000
#03714:000000000013000000000000000000000000000000000000
#03716:000000000000001300000000000000000000000000000000
#03713:001300
#03712:0000000000000000000000132c0000000000000000000000
#0371b:23
#0371a:0023000000000000
#03719:00230000
#03515:1300132300120000
#0351b:13130000
#03512:0013001300120000
#03518:0013231300000000
#03519:0000000000000012
#0351c:0000000000000012
#03815:0013001300130013
#03812:00131313
#0381c:000000000000220000002200220022000000220000120000
#03819:000000000000000000000022002200220000000000000000
#03912:1300000000120000
#03918:120012000000000000000000000000000000001200000000
#0391c:000000000012000000000000000000000000000000000000
#03915:000000000000000000000000000000001200000000000012
#03913:000000000000000000000000000000000012000000000000
#0391b:00000012
#0391a:000000000012
#03914:0000000000000012
#03917:000000000000000000000012
#0401c:120000000012000000000012000000000000000000000012
#04012:000012000000000012000000000000000052000000000000
#04016:000000120000000000120000000000000000000000000052
#04018:000000000000120000000000120000000012000000000000
#0401a:000000000012
#04019:1212001200000000
#04015:00121200
#04014:000000000052
#04112:12
#04113:0012000000000000
#04114:00120000
#04115:0000001200120000
#04116:00001212
#04118:120000000000001200000000
#04119:000000120000000000000000000000000012000000000000
#0411a:000000120000000000001200
#04117:0000000000000012
#0411b:000000000000000000120000000000000000000000000012
#0411c:0012
#0471b:00120012
#04718:00121212
#04715:0012
#04712:52525252
#0471c:52
#04813:00120012
#04816:00121212
#04819:0012
#0481c:52525252
#04812:52
#04912:1212
#04915:0012000000120000
#04918:00120012
#0491b:0000001200000012
#0491c:52
#05012:12000012
#05013:001200000000000000000000
#05018:000000120000000000000000000000000000001200000000
#05019:000000000012000000000000000000000000000000000000
#05014:000000120000000000001200
#05015:001200
#0501a:0000001200000012
#0501b:000000000000000000000012000000000000000000000000
#05016:000000000000000000000000120000000012000000001200
#05017:000000000000001200000000
#0501c:000000000000000000000000000000120000000000000012
#05112:24001454
#05116:240000140000000000000000000000140000000000000012
#0511a:0014000000541400
#05118:000000000012
#05115:0000000000000013
#0511b:000000000012
#05113:000000000000000000000000000000000000000000000012
#0511f:00210000
#05215:000000130000130000130000130000130013000000130013
#05212:00131313
#05218:130000130000000013001300000000000000130013000000
#0521b:130000000000000000000013000000130000000000130000
#05210:00410000
#05418:000000130000001300130000130000130013000000130013
#05412:130000000000000000000013000000130000000000130000
#05415:000000001313001300131300
#0541b:00131313
#0551b:1313001300530053
#05515:13000000000000000000005300000000000000000000000013000000000000001300000000000000130000000000000013000000000000001300000000000000
#05518:0000001323131313
#05512:00000053000000000000000000000000000000000000000000000000000000002300000000000000000000000000000053000000000000000000000000000000
#05514:00530000000000000000000000000000000000000000000000000000000000000000000000000000000000000000000000000000000000000000000000000000
#05513:0053000000000000000000000000000000000000000000000000000000000000
#05519:00000000000000000053000000000000000000000000000000000000000000000000000000000000000000000000000000000000000000000000000000000000
#05517:0000000000530000000000000000000000000000000000000000000000000000
#05612:1313001300530053
#05618:13000000000000000000005300000000000000000000000013000000000000001300000000000000130000000000000013000000000000001300000000000000
#05615:1300001323131313
#0561b:00000053000000000000000000000000000000000000000000000000000000002300000000000000000000000000000053000000000000000000000000000000
#05619:00530000000000000000000000000000000000000000000000000000000000000000000000000000000000000000000000000000000000000000000000000000
#0561a:0053000000000000000000000000000000000000000000000000000000000000
#05614:00000000000000000053000000000000000000000000000000000000000000000000000000000000000000000000000000000000000000000000000000000000
#05616:0000000000530000000000000000000000000000000000000000000000000000
#0581a:14141414
#05812:1413140014131400
#05815:000013000000000000130000000013000000000000130000
#05818:000000130000000013000000000000130000000013000000
#0581b:0000001300000013
#05715:130000230000000000000000530000130013000000130000
#0571b:130000000000000000530000130013000000130013000000
#05712:000000130000000000000000530000130013000000130000
#05718:230000130000000000530000130013000000130013000000
#05915:001300000000000000230000000000000000130000000000
#05918:001300000013000000000000
#05916:001300000000
#05919:000000000013000000000000000000000000000000000000
#05917:000000000000001300000000000000000000000000000000
#0591a:001300
#0591b:000000000000000000000013000000000000000000000000
#05912:23002c13
#05913:0023000000000000
#05914:00230000
#06015:0013131300001300
#06018:0013001313005300
#06012:00130013
#0601b:0013
#0611b:130000000000000000000000130000000013000000000013
#06118:13530013
#06112:000000130000001300001300
#06115:5300130000130013
#06110:41
#06212:1616
#06218:130013000000160000130013000013000000160000130013
#06215:000000130013000013000000000000130013000013000000
#06312:1600001300001300
#0631b:0013000013000013
#06318:000000130000130000000000130013000000000013001300
#06315:000000000000130000130000000000130013001300000013
#06418:160000130013000013000000160000130013000013000000
#06412:00160016
#06415:000013000000000000130013000013000000000000130013
#0651a:00000014
#0651b:0000131313000000
#06518:0000000000000000130000001300000000000000130000000054000000000000
#06512:2c00001313130054
#06515:00000000000000000000000000000000130000000000000000000000000000001300000000000000130000000000000000000000005400000000000000000000
#06519:00000000000000000000000000000000000000000000000000000000000000000000000000000000000000000000000000540000000000000000000000000000
#06517:00000000000000000000000000000000000000000000000000000000000000000000000000000000000000000000000000000054000000000000000000000000
#06516:00000000000000000000000000540000
#06514:0000000000000000000000000000000000000000000000000000005400000000
#06513:00000000000000000000000000000000000000000000000000000000000000000000000000000000000000000000000000000000000000540000000000000000
#06712:0000141400001414
#06716:000000000014000014000014000014000014000014000000
#0671a:1414000014140000
#06818:001300001300001300001300000000000000000000000000
#06815:000013000013000013000013000000000000000000000000
#0681b:2323232300000000
#06812:232323232c000000
#06612:140013000000140000130000140013000000140000130000
#0661a:14141414
#06618:000013000000000000130000000013000000000000130000
#06615:000000130000000013000000000000130000000013000000
#0661b:000000130000000013000000000000130000000013000000
#00118:000012000000000000120000000012000000000000120000
#00116:000000120000000012000000000000120000000012000000
#0011a:00141414
#00112:24141414
#00212:130000005300000000130000130000005300000000130000
#0021b:130000130000130000005300000000130000130000005300
#00214:005300000000005300000000000000000000000000000000005300000000005300000000000000000000000000000000
#00216:005300530000000000000000005300530000000000000000
#00219:000000000000000000000000005300000000005300000000000000000000000000000000005300000000005300000000
#00217:000000000000005300530000000000000000005300530000
#00316:000012000000000000120000000012000000000000120000
#00318:000000120000000012000000000000120000000012000000
#00312:14141414
#0031a:00141414
#07112:14141414
#07118:000012000000000000120000000012000000000000120000
#07116:000000120000000012000000000000120000000012000000
#0711a:14141414
#07110:41
#07212:130000000000005300000000130000000000005300000000
#07218:005300000000130000000000005300000000130000000000
#07215:005300000000000000000000005300000000000000000000005300000000000000000000005300000000000000000000
#0731a:14141414
#07316:000012000000000000120000000012000000000000120000
#07318:000000120000000012000000000000120000000012000000
#07312:14141414
#07517:001200001200001200001200
#07519:0012000000120000
#07515:0000001200000012
#0751a:14000014
#0791a:000000520000000012000000000000000000000000000000
#07918:0000001200000000
#07916:000000000012000000000000
#07914:000000000000000000000012000000520000000000520000
#07917:0052000000520052
#07913:005200000000000000000000
#07915:000000000052000000000000000000000000520000000000
#07919:000000000000520000000000000000000052000000000052
#0791c:00520000
#07912:000000005200000000520000
#0791b:000000000000005200005200
#0801b:12
#08015:52
#08012:52
#0041b:130000005300000000130000130000005300000000530000
#00412:130000130000130000005300000000130000130000005300
#00419:005300000000005300000000000000000000000000000000005300000000005300000000000000000000005300000000
#00417:005300530000000000000000005300530000000000005300
#00414:000000000000000000000000005300000000005300000000000000000000000000000000005300000000005300000000
#00416:000000000000005300530000000000000000005300530000
#05316:000000000000000000000000000000140000000012000000
#05312:230000000013000000000000000000540000140000000000
#05318:000000000000000000130000000000000000000000130012
#05313:000000000012
#0531b:000000000000000000130000000000000000000000000012
#05315:0000001300000000
#05319:22
#0531c:22
#0531a:00000054
#07718:000012000000000000120000000012000000000000120000
#07716:000000120000000012000000000000120000000012000000
#07712:14000014
#0241b:000000000013000000000000130000000000000000130000
#02412:000000131300
#02415:0000000000130000
#02417:000000000000000000000000000000000013000000000000
#02414:00000013
#02419:000000000000000000000000000000000000001300000000
#02416:000000000013
#02418:000000000013000000000000000000000000000000001300
#02612:0000001313000000
#0261b:1300001300000013
#02618:00000000000000000000000000000013
#0431f:11
#0431a:000000000062000000000000520000000000000062000000
#04319:00000062
#0431b:000000000000000000000062
#0741b:130000000000005300000000130000000000005300000000
#07415:005300000000130000000000005300000000130000000000
#07418:005300000000000000000000005300000000000000000000005300000000000000000000005300000000000000000000
#07612:130000000000005300000000130000000000005300000000
#07618:005300000000130000000000005300000000130000000000
#07615:005300000000000000000000005300000000000000000000005300000000000000000000005300000000000000000000
#0781b:130000000000005300000000130000000000005300000000
#07815:005300000000130000000000005300000000130000000000
#07812:2323232323232323
#07818:005300000000000000000000005300000000000000000000005300000000000000000000005300000000000000000000
#02318:005300005300005300005300
#0231b:005300005300005300005300
#02315:000000000053000000000053000000000053000000000053
#02312:000000000053000000000053000000000053000000000053
#0451c:5200000000000062
#04512:52
#0451a:000000000000000000620000000000000000000000000000000000000000000000000000000000000000000062000000
#04518:000000000000000000620000000000000000000000000062
#04612:52000000000000000000000000620000
#0461c:52
#04614:00000000000000006200006200000000
#04616:00000000000000000062000000000000
#04412:52
#0441c:52
#04416:0062
#04414:00000062
#00555:00330000
#00552:00000043
#0055b:00330000
#00558:00000043
#0065a:0014
#00656:0014
#00758:00430000
#0075b:00000033
#00752:00430000
#00755:00000033
#00855:0000000000130000
#00858:0000000000130000
#0085b:0000000000130000
#00958:00330000
#0095b:00330000
#00952:00000043
#00955:00000043
#01155:13
#01152:13
#01255:000000000000000000000053000000000000000000000000
#01252:000000000000000000000053000000000000000000000000
#0135b:00130000
#01352:00130000
#01355:00000013
#01358:00000013
#01458:0013
#01452:0013
#01555:00130000
#01558:00130000
#0155b:00000013
#01552:00000013
#01655:0013
#0165b:0013
#01658:0000000000130000
#01652:0000000000130000
#0195b:13
#01958:13
#01752:00430000
#01755:00430000
#0175b:00000033
#01758:00000033
#02152:53
#02158:00230000
#0225b:63
#02255:00230000
#02852:001c
#0365a:14141414
#03652:14141414
#0395c:000000000012000000000000000000000000000000000000
#03956:000000000012000000000000000000000000000000000000
#0415b:000000000000000000000000000000000000000000000012
#0585a:14141414
#05852:14141414
#05955:00000053
#05952:00001c53
#0605b:1353
#06058:1353
#06052:00000063
#06055:00000063
#0615b:53
#06158:53
#06152:00630000
#06155:00630000
#06252:1616
#06258:00160016
#06352:16
#06458:1616
#06452:00160016
#06552:1c
#06957:000000000012000000000000000000000000000000000000
#06652:14141414
#0665a:14141414
#0335b:00330000
#03358:00330000
#03455:00430000
#03452:00430000
#05552:00430000
#05555:00430000
#05658:00330000
#0565b:00330000
#05152:54340000
#05156:5424340000000000
#0515a:0024000000000000
#0245b:000000000053000000000000000000000000000000000000
#02458:000000000053000000000000000000000000000000000000
#0265b:53
#02652:0063
#02956:000000000000000000000000000000000012000000000000
#02959:000000000000000000000000520000000012000000000000
#0295c:0052
#02958:000000000012000000000000000000000000000000000000
#02955:520000000012000000000000000000000000000000000000
#02952:52
#03155:000000000000000000000000620000000012000000000000
#03152:0062
#03159:620000000012000000000000000000000000000000000000
#0315c:62
#03158:000000000000000000000000000000000012000000000000
#03156:000000000012000000000000000000000000000000000000
#06852:001c
#03752:001c
#05359:620000000012000000000000000000000000000000000000
#0535c:62
#05356:000000000012000000000000000000000000000000000000
#07258:0013000000130000
#07252:0000001300000013
#07455:0013000000130000
#0745b:0000001300000013
#07658:0013000000130000
#07652:0000001300000013
#07855:0013000000130000
#0785b:0000001300000013
#000330:122200000000000000000000
#000371:000012220000000000000000000000000000000000000000
#0003a2:000012220000000000000000000000000000000000000000
#000350:000000120022000000000000000000000000000000000000
#000391:000000000012220000000000000000000000000000000000
#0003c2:000000000012220000000000000000000000000000000000
#000320:000000122200000000000000
#0003b0:000000000000122200000000
#000371:000000000000000000000000000012220000000000000000
#000342:000000000000000000000000000012220000000000000000
#000390:000000000000000000000000000000120022000000000000
#000351:000000000000000000000000000000000012220000000000
#000322:000000000000000000000000000000000012220000000000
#0003b0:000000000000000000122200
#000371:000000000000000000000000000000000000000012220000
#000342:000000000000000000000000000000000000000012220000
#000390:0000000000000012
#001390:22
#002360:001300230000000000000000000000000000000000000000
#002320:000013230000000000000000
#002370:000000000000001300230000000000000000000000000000
#0023b0:000000000013230000000000
#002360:000000000000000000000000001300230000000000000000
#002320:000000000000000013230000
#002370:000000000000000000000000000000000000001300230000
#0023b0:000000000000000000000013
#0033b0:23
#004370:001300230000000000000000000000000000000000000000
#0043b0:000013230000000000000000
#004360:000000000000001300230000000000000000000000000000
#004320:000000000013230000000000
#004370:000000000000000000000000001300230000000000000000
#0043b0:000000000000000013230000
#004360:000000000000000000000000000000000000001300230000
#005350:13230000
#0053b1:13230000
#005321:00001323
#005380:00001323
#0063a0:000000000000000000142400
#007380:13230000
#007321:13230000
#0073b1:00001323
#007350:00001323
#0083b0:0000000013230000
#008381:0000000013230000
#008352:0000000013230000
#0093b1:13230000
#009382:13230000
#009322:00001323
#009351:00001323
#010321:0000000013230000
#010352:0000000013230000
#011382:000000000000000000000000000000130023000000000000
#012322:1323000000000000
#0123b1:1323000000000000
#012351:000000000000000000000013000000000000000000000000
#012381:0000000000230000
#012322:000000000000000000000013000000000000000000000000
#012352:0000000000230000
#0133b2:13230000
#013321:13230000
#013351:00001323
#013382:00001323
#0143b2:13230000
#014351:0013002300000000
#014380:00132300
#014322:0000001323000000
#014350:0000000000130023
#014382:0000000000001323
#015352:13230000
#015380:13230000
#0153b0:00001323
#015322:00001323
#016322:13230000
#016380:0013002300000000
#016351:00132300
#0163b2:0000001323000000
#017321:13230000
#017352:13230000
#0173b2:00001323
#017381:00001323
#0183b1:0000000013230000
#018382:0000000013230000
#0193a2:000000122200000000000000
#019361:000000000000000012220000000000000000000000000000
#019382:000000000000000000120022000000000000000000000000
#019341:000000000000000000000012220000000000000000000000
#0193c2:000000000000122200000000
#019321:000000000000000000000000000012220000000000000000
#0193a2:000000000000000000000000000000120022000000000000
#019341:000000000000000000000000000000000012220000000000
#019382:000000000000000000122200
#019361:000000000000000000000000000000000000000012220000
#020321:0013230000000000
#020352:0000132300000000
#020321:0000001323000000
#020352:0000000013230000
#020321:0000000000132300
#021321:1323
#021381:00530000
#0223b1:1323
#022351:00530000
#022381:000000000000000000000000000000000000000000000013
#023381:002300000000000000000000
#0233b2:132300000000000000000000
#023350:000013000023000000000000000000000000000000000000
#023322:000000130023000000000000000000000000000000000000
#0233b1:000000000013000023000000000000000000000000000000
#023382:000000132300000000000000
#023320:000000000000000013000023000000000000000000000000
#023352:000000000000000000130023000000000000000000000000
#023381:000000000000000000000013000023000000000000000000
#0233b2:000000000000132300000000
#023350:000000000000000000000000000013000023000000000000
#023322:000000000000000000000000000000130023000000000000
#0233b1:000000000000000000000000000000000013000023000000
#023382:000000000000000000132300
#023320:000000000000000000000000000000000000000013000023
#023352:000000000000000000000000000000000000000000130023
#023381:000000000000000000000000000000000000000000000013
#024381:000000000033000000000000000000000000000000000000
#024321:0000002300000000
#0243b2:130000000033000000000000000000000000000000000000
#024352:0000002300000000
#025382:000000000000000013230000000000000000000000000000
#025352:000000000000000000000013230000000000000000000000
#0253b2:000000000000000000000000000013230000000000000000
#025381:000000000000000000000000000013230000000000000000
#025321:000000000000000000000000000000000013230000000000
#025352:000000000000000000000000000000000013230000000000
#026322:130000000023000000000000000000000000000000000000
#0263b1:13
#026351:000000000023000000000000000000000000000000000000
#0263b1:000000000000000000000000130000000023000000000000
#026322:0013
#026382:000000000000000000000000000000000023000000000000
#027322:1300000000000023
#0273b1:0000000013000023
#029351:12
#029381:000000000022000000000000000000000000000000000000
#029322:12
#029352:000000000022000000000000000000000000000000000000
#029392:0012
#029362:000000000000000000000000000000000022000000000000
#0293c1:0012
#029391:000000000000000000000000000000000022000000000000
#0303b1:0000132300000000
#030322:0000001323000000
#031392:12
#031362:000000000022000000000000000000000000000000000000
#0313c1:12
#031391:000000000022000000000000000000000000000000000000
#031351:0012
#031381:000000000000000000000000000000000022000000000000
#031322:0012
#031352:000000000000000000000000000000000022000000000000
#032322:0000132300000000
#0323b1:0000001323000000
#0333b1:00000013000000000000000000000000230000000000000000000000000000000000000000000000000000000000000000000000000000000000000000000000
#033382:00000000000000000000001300000000230000000000000000000000000000000000000000000000000000000000000000000000000000000000000000000000
#034322:00000013000000000000000000000000230000000000000000000000000000000000000000000000000000000000000000000000000000000000000000000000
#034351:00000000000000000000001300000000230000000000000000000000000000000000000000000000000000000000000000000000000000000000000000000000
#0353c1:0000000012220000
#035392:0000000012220000
#035322:0000000000001222
#035351:0000000000001222
#037321:00000012
#038321:22
#037352:00000012
#038352:22
#0373c0:00000012
#0383c0:22
#037393:00000012
#038393:22
#039362:000000120022000000000000000000000000000000000000
#040322:000000000000000000000000000000120022000000000000
#040342:000000000000000000122200
#040362:000000000000000000000000000000000000000000120022
#043322:12
#044322:22
#0433a0:000000000012000000000000220000000000000000000000
#0443c0:12
#0453c0:22
#045322:12
#046322:22
#0463c0:12
#0473c0:22
#047322:12
#048322:22
#0483c0:12
#0493c0:22
#051320:14240000
#051360:0054000000000000
#051362:14240000
#0513a2:0054000000000000
#0513a2:0000000014240000
#051320:0000000000142400
#053390:12
#053360:000000000022000000000000000000000000000000000000
#0533c2:12
#053392:000000000022000000000000000000000000000000000000
#053322:0000000014240000
#0533a0:0000000000142400
#054350:1323000000000000
#055320:00000013000000000000000000000000230000000000000000000000000000000000000000000000000000000000000000000000000000000000000000000000
#055352:00000000000000000000001300000000230000000000000000000000000000000000000000000000000000000000000000000000000000000000000000000000
#0553b2:000000000000000000000000000013230000000000000000
#055322:000000000000000000000000000000000013230000000000
#0553b2:000000000000000000000000000000000000000013230000
#0563b2:00000013000000000000000000000000230000000000000000000000000000000000000000000000000000000000000000000000000000000000000000000000
#056380:00000000000000000000001300000000230000000000000000000000000000000000000000000000000000000000000000000000000000000000000000000000
#056320:000000000000000000000000000013230000000000000000
#0563b0:000000000000000000000000000000000013230000000000
#056320:000000000000000000000000000000000000000013230000
#057380:0000132300000000
#0573b2:0000132300000000
#057353:0000001323000000
#057321:0000001323000000
#059321:00000013
#060381:23
#059353:00000013
#0603b3:23
#0603b3:0013
#060383:00000023
#060381:0013
#060351:00000033
#061381:3323
#061351:00330000
#060322:00000013
#061352:23
#0613b3:13
#061383:00230000
#061322:00130000
#061352:0023
#067361:1424000000000000
#069371:120000000022000000000000000000000000000000000000
#0723b1:1323000000000000
#072382:001300230000000000000000000000000000000000000000
#0723b2:0000132300000000
#072321:000000000000001300230000000000000000000000000000
#0723b1:0000000013230000
#072382:000000000000000000000000001300230000000000000000
#0723b2:0000000000001323
#072321:000000000000000000000000000000000000001300230000
#074321:1323000000000000
#074352:001300230000000000000000000000000000000000000000
#074322:0000132300000000
#0743b1:000000000000001300230000000000000000000000000000
#074321:0000000013230000
#074352:000000000000000000000000001300230000000000000000
#074322:0000000000001323
#0743b1:000000000000000000000000000000000000001300230000
#075321:14240000
#0753a2:00142400
#075321:00001424
#0763b1:1323000000000000
#076382:001300230000000000000000000000000000000000000000
#0763b2:0000132300000000
#076321:000000000000001300230000000000000000000000000000
#0763b1:0000000013230000
#076382:000000000000000000000000001300230000000000000000
#0763b2:0000000000001323
#076321:000000000000000000000000000000000000001300230000
#0773a1:14240000
#077322:00142400
#0773a1:00001424
#078351:001300230000000000000000000000000000000000000000
#0783b1:000000000000001300230000000000000000000000000000
#078351:000000000000000000000000001300230000000000000000
#0783b1:000000000000000000000000000000000000001300230000
#079331:122200000000000000000000
#079372:000012220000000000000000000000000000000000000000
#0793a3:000012220000000000000000000000000000000000000000
#079351:000000120022000000000000000000000000000000000000
#079392:000000000012220000000000000000000000000000000000
#0793c3:000000000012220000000000000000000000000000000000
#079321:000000122200000000000000
#0793b1:000000000000122200000000
#079372:000000000000000000000000000012220000000000000000
#079343:000000000000000000000000000012220000000000000000
#079391:000000000000000000000000000000120022000000000000
#079352:000000000000000000000000000000000012220000000000
#079323:000000000000000000000000000000000012220000000000
#0793b1:000000000000000000122200
#079372:000000000000000000000000000000000000000012220000
#079343:000000000000000000000000000000000000000012220000
#079391:000000000000000000000000000000000000000000120022
#079352:000000000000000000000000000000000000000000000012
#080352:22
#079323:000000000000000000000000000000000000000000000012
#080323:22
