This file was generated by Ched 2.6.4.0.
#TITLE ""
#ARTIST ""
#DESIGNER ""
#DIFFICULTY 0
#PLAYLEVEL
#SONGID ""
#WAVE ""
#WAVEOFFSET 0
#JACKET ""
#REQUEST "ticks_per_beat 480"
#00002: 4
#BPM01: 128
#00008: 01
#TIL00: ""
#HISPEED 00
#MEASUREHS 00
#0021a:14
#00312:14
#00412:14
#0051a:14
#00510:41
#00614:14
#0071a:14
#00814:14
#00918:14
#01012:14
#01118:14
#01212:14
#0131a:14
#01414:14
#01518:14
#01612:14
#01718:14
#01710:41
#01812:14
#0191a:14
#02014:14
#02918:2616
#02910:41
#03118:1616
#03012:1616
#03212:1616
#03518:16
#03512:0016
#03618:16
#03712:16
#03718:0016
#03812:16
#03918:14
#04014:14
#05118:0016
#05112:26
#0511f:00210000
#05318:16
#05312:0016
#05512:16
#05518:0016
#05718:16
#05712:0016
#05818:16
#05912:16
#05918:0016
#06012:16
#06118:14
#06114:0014
#06110:41
#06312:0014
#06512:0014
#06618:14
#06614:0014
#06718:14
#06814:14
#06818:0014
#06914:14
#0711a:14
#07110:41
#0721a:14
#07312:14
#07412:14
#0431f:11
#05210:00410000
#0003a0:14
#0013a0:24
#021380:14
#022380:24
#023340:14
#024340:24
#0253a0:14
#0263a0:24
#027320:14
#028320:24
#033380:1626
#034320:1626
#041380:140000000000000000000000000000000000000000000024
#043340:14
#044340:24
#045380:14
#046380:24
#047320:14
#048340:24
#0493a0:14
#050380:24
#052320:1626
#054380:1626
#056320:1626
#062380:14
#063380:24
#0643a0:14
#0653a0:24
#0753a0:1434
#0763a0:3424
#077320:1434
#078320:3424
#0793a0:14
#0803a0:24
