This file was generated by Ched 2.6.4.0.
#TITLE ""
#ARTIST ""
#DESIGNER ""
#DIFFICULTY 0
#PLAYLEVEL
#SONGID ""
#WAVE ""
#WAVEOFFSET 0
#JACKET ""
#REQUEST "ticks_per_beat 480"
#00002: 4
#BPM01: 128
#00008: 01
#TIL00: ""
#HISPEED 00
#MEASUREHS 00
#0431f:11
#04314:000000000012000000000000000000000000000012000000
#04316:000000000000000000000000000000000000000000000012
#04318:0000000000000012
#05917:0013000000001300
#05912:000000130013000000000000000000000000000000000000
#0591b:130000000000000000000013000000000000000000130000
#05916:1300000000000013
#00018:000000120000000000000000000012000000000012000000
#00014:120012000000000000320000000000120000000000120000
#0001a:120000000000120000000000120000000012000000000012
#00016:000000000012000000000032000000000000120000000000
#00015:000000000032000000000000
#07916:000000120000000000000000000012000000000012000000
#0791a:000012000000000000320000000000120000000000120000
#07918:000000000012000000000032000000000000120000000000
#07914:120000000000120000000000120000000012000000000012
#07919:000000000032000000000000
#0801a:12
#0401a:1200001200120000
#04017:000000001200001200000000
#04019:00120012
#04016:000000000012000000000000000000000012000000000000
#04018:0012000000000012
#04015:001200000000000000001200
#04014:000000000000000000000000120000000000000000000012
#0401c:0012
#01418:00000013
#0141b:0000130000130000
#01415:0000000000000013
#01416:1313000000000000
#01417:0000001313000000
#01412:00130000
#00615:00000013
#00612:0000130000130000
#00618:0000000000000013
#00617:1313000000000000
#00616:0000001313000000
#0061b:00130000
#03716:0013001300000000
#03717:13130000
#0371b:0023002300000000
#03712:23232400
#0371a:0024
#07612:1300001313001313
#0761b:0013130000131300
#07618:1313
#07615:00130000
#0751b:13131313
#07512:23131313
#07515:0000001300000013
#07518:0013000000130000
#07412:0000000000000013
#07417:13
#0741b:0013000000000000
#07416:0000001300001300
#0721b:0000000000000013
#07216:13
#07212:0013000000000000
#07217:0000001300001300
#00212:0000130000001313
#00217:0013
#00219:0000001300000000
#0021b:13130000
#00214:0013000000000000
#00216:13
#05019:00000015
#05017:000000000013000000000000000000000000000000000000
#05012:330033330033330033330033330033330033333333333333
#01916:130000000000000000000000000000000000000000000013
#01918:0000000000130000
#01913:000000000000001300000000
#01919:0013
#01914:000000000000000000000013000000000000000000000000
#0191a:0000001300000000
#01915:001300
#0191b:00130000
#0231b:0013000000000000
#02317:001300
#02318:0000000000000013
#02315:00000013
#02312:1400000000130000
#02417:000000000013000000000000130000000000000000130000
#02416:000000000013000000000000000000000000130000000000000000000000000000000000000000000000000000000000
#02412:1300000013000013
#0241b:13
#02616:000000000013000000000000130000000000000000000013
#02617:000000000013000000000000000000000000130000000000000000000000000000000000000000000000000000000000
#0261b:1300000013000013
#02612:1300000000000013
#02517:0013000000001313
#02516:1300131300000000
#02512:0013000000000013
#0251b:13
#02214:000000000014
#02218:000000000000000000000014
#0221a:00000014
#0221b:000000000000000000000013000000000000000000000000
#02216:0013000000000000
#07319:0000000000000013
#07312:13
#07316:0013000000000000
#0731b:0000001300001300
#07114:0000000000000013
#07117:0013000000000000
#07112:0000001300001300
#0711b:23
#07110:41
#00319:0013000000000013
#00317:13
#00312:1313
#0031b:00130013
#00314:0000001300000000
#00316:00130000
#00114:0013000000000013
#00112:00130013
#0011b:0013
#00119:0000001300000000
#00117:00130000
#00116:23
#0631b:1300130000130000
#06312:0000001300000013
#06314:00001313
#06316:0000000000130000
#06319:00001313
#06317:0013001300000013
#0611b:0000001300000013
#06119:00001313
#06117:0000000000130000
#06114:00001313
#06112:1300130000130000
#06116:0013001300000013
#06110:41
#01212:000000000013000000000000000000130000000000000000
#01219:001300
#01217:000000130013000000000000000000000000000000000000
#01215:0000000000000013
#01218:00000013
#01216:000000000000000000000013000000000000000000000000
#01214:001300
#0121b:13
#00916:00000013000000001300000000001300
#00912:13
#0091b:1300000013000013
#00917:0000001300001300
#06014:000000000000000000000000000000000013000000000000
#06017:230000000000000000000000000000000013000000000000000000000000000000000000130000000000000000000000
#0601b:000000000013000000000000000000000000000000000000
#06012:1313
#06019:0000000000130013
#05812:000000000013000000000000000000000000000000130000
#05816:130000000000000000000000000000000013000000000000000000000000000000000000130000000000000000000000
#05817:0000000000000013
#0581b:13001313
#0571b:000000130013000000000000000000000000000000000000
#05716:0013000000001300
#05712:130000000000000000000013000000000000000000130000
#05717:1300000000000013
#0561b:2300000000000013
#05617:000000000023000000000023000000000000130000000000
#05616:000000000000000023000000000000130000000000130000
#05612:0023000000001300
#05417:1313001300000023
#0541b:00131323
#05416:00131323
#05412:0013001300000023
#04717:000000000000000013000013000000000000000000000000
#0471b:13000013
#04719:0000000000000013
#0361b:0000000013000013
#03617:13000013
#03616:000000000000000000000000000000000013000000000000000000000000000000000000000000000000130000000000
#03612:130000000013000000000000000000000000130000000000
#03516:130000000000000000000013000000000000000000130000
#03517:000000130013000000000000000000000000130000000000
#03512:0013000000000000
#0351b:130000000000000013000013000000000000000000130000
#03412:0000000000000013
#03416:00000013
#03417:2300000000000013
#0341b:000000000023000000000023000000000000130000000000
#01819:0013000013000013
#01812:1300000000131300
#0181b:0000131300000000
#01814:0000000013000013
#01817:1300000000131300
#01816:0000131300000000
#01712:1313
#01716:0000001300001300
#01714:0000000000000013
#0171b:13
#01717:00000013000000001300000000000000
#01710:41
#01317:0000001313000013
#01316:00000013000000000000000013000000
#01312:1300000013000013
#0131b:23
#01019:000000000000000013000000000000000000000000130000
#01014:0000001300001300
#01015:0000000000130000
#01012:1313000013000000
#01016:00130000
#01013:0000000000000013
#0101a:00000013
#0101b:000000000013000000000000000000130000000000000000
#01017:000000000000000000000013000000000000000000000000
#00416:0013
#00414:0000001300000000
#00412:13130000
#0041b:00130000
#00419:0013000000000000
#00417:13
#03816:00000012
#0381a:240000000000120000000000000000000012000000000000
#03818:0000000000000012
#03814:0000120000000012
#03812:24
#04114:000000000000000000000000000000000000000000000012
#0411a:000000000000000000000000000000000000000000000012
#04117:120000000000000000000000000012000000000000120000
#04119:000000120000000000120000120000000000000012000000
#04116:00000012
#04118:000000000000000000000000000000000012000000000000
#04115:0000120000120000
#04112:0012001212000000
#0411c:00120000
#03916:120000120000000012000000000000000000000000000000
#03914:000000000012000000000012000000000000000000000000
#0391a:121200
#03918:000012000012000000000012000000000000000000000000
#07818:000000000000000000000000000000000013000013000013
#07813:000013
#07814:000000000000001300000000
#0781a:000000000000000000000000001300000000000000000000
#07819:0000000000230000
#07812:2323000000002300
#07815:0000000023000023
#0781b:0000232300000000
#0321b:0013000013001300
#03217:0000131300000000
#03216:0013000013002300
#03214:0000000000000013
#03212:1300131300000000
#03219:0000000000000023
#06915:16
#0491a:0000000000000013
#04919:00000013
#04917:130000130000000000000013000000000000000000000000
#04918:0000000000130000
#04912:0033333333333333
#04819:000000130013000000000000000000000000000000130000
#0481b:000000000000000013000013000000000000130000000000
#04817:13
#03017:000000000000130000130013000000000000000000000000
#03012:0000001300000000
#03015:0000000000000013
#0301b:0000000000130000
#03018:00000013
#05316:130000000000000000000000000000000013000000000000
#05317:000000000013000000000000130000000000000000000000
#05312:000000000000000000000000230000000000000000000013
#05319:0000000000000013
#05314:000000000013
#0531b:23
#06817:000000000000000000000013000000000000000000000000
#0681b:1300000000001313
#06812:130000000000000013000000000000000000000000130000
#06816:0013000000000000
#06717:130000000000000000000000000000000013000000000000000000000000000000000000000000000000000000000000
#0671b:000000000013000000000000000000000000000000000000
#06712:1313
#06718:0000000000000013
#06715:00000013
#06616:000000000000000000000013000000000000000000000000
#0661b:130000000000000013000000000000000000000000130000
#06612:1300000000001313
#06617:0013000000000000
#06418:0000000000130000
#06415:0000000000130000
#0641b:230000000023000000000000000000000000000000000000
#06412:230000000023000000000000000000000000000000000000
#0621b:130000000000000000000000000000000000000000000013000000000000000000000000000000000000000000000000
#06215:000000000013000000000000000000000000000000000000
#06212:130000000000000000000000000000000000000000000013000000000000000000000000000000000000000000000000
#06218:000000000013000000000000000000000000000000000000
#05217:000000000000000000130013000000000000000000000000
#05212:1300000000130000
#05218:0000000000000013
#05215:00000013
#05219:00130000
#05216:0013000000000000
#05214:00130000
#0521b:0013000000000000
#05210:00410000
#0511b:0013
#05116:000000230013
#05112:000000000026000000000000000000000013000000000000
#0511f:00210000
#05118:000000000026000000000000000000000000000000000000
#03316:000000000000000023000013000000000000000000000000
#03317:0000000000231300
#0331b:000000000023000013000023000000000000000000230000
#03312:23000023
#03117:130000000000000000000000000000000013000000000000
#03116:000000000013000000000000130000000000000000000000
#03118:000000000000000000000000000000000000000000000013
#03115:0000000000000013
#0311b:000000230013
#03112:23
#0291b:000000000013000000000000130000000000000000000000
#02912:130000000000000000000000000000000013000013000000
#02916:000000000000000000000000230000000000000000000013
#02917:2300000000000013
#02910:41
#01512:1300001313000000
#0151b:00000013000000000000000013000000
#01517:1313
#0071b:1300001313000000
#00712:00000013000000000000000013000000
#00716:1313
#00516:0000001313000013
#00517:00000013000000000000000013000000
#0051b:1300000013000013
#00512:23
#00510:41
#0651b:0000000000130000
#06515:0000000000000013
#06518:00000013
#0771b:0000230000000013
#07712:2300000000130000
#07718:0000001300002300
#07715:0013000023000000
#0451a:000000000012000000000000000000000000000012000000
#04518:000000000000000000000000000000000000000000000012
#04516:0000000000000012
#02712:0000000013000013
#02716:0000001300000000
#02717:000000000000000000000000130000000000000000000013
#0271b:1300001300000013
#01112:130000000000000000130000000000000013000000130000
#01115:000000130000130000000000000013000000000000000000
#01117:0000000000000013
#02112:2313
#02116:0000000000130000
#0211b:23130000
#02117:0013000000000000
#02012:0000000013130000
#02016:0000001300000013
#0201b:0000130000000013
#02017:0013000000130000
#02014:00000013
#02019:00000013
#0161b:0000000000130000
#00812:0000000000130000
#0461c:0012
#04618:0000120000000012
#04616:0012000000001200
#0461a:0000001200000000
#04614:12
#04414:0000001200000012
#04416:00120012
#04418:000000120000000000000012000000120000000000000000
#0441a:12
#0281b:0023
#02812:0023
#0551b:230000000000000023000023000000000000230000000000
#05517:000000000023000000000000000000000000000000230000
#05516:230000000000000000000023000000000000230000000000
#05512:000000230023000000000000000000230000000000230000
#01452:0013
#0535b:430000000000000000000000000000000043000000000000
#05352:000000000033000000000000330000000000000000000000
#05356:23
#05357:0023
#05157:000000000000000000000000000000000013000000000000
#05156:0033
#05158:000000000016000000000000000000000000000000000000
#05152:000000000016000000000000000000000000000000000000
#0515b:0063
#07855:0000001300000000
#07858:0013000000000000
#07752:0000000000000013
#0775b:0000000000130000
#07755:0000001300000000
#07758:0013000000000000
#03152:130000000000000000000000000000000013000000000000
#0315b:000000000013000000000000130000000000000000000000
#03157:53
#03156:0063
#0065b:0013
#06957:000000000012000000000000000000000000000000000000
#06955:56
#02957:130000000000000000000000000000000013000000000000
#02956:000000000013000000000000130000000000000000000000
#0295b:0063
#02952:53
#06057:130000000000000000000000000000000023000000000000000000000000000000000000000000000000000000000000
#0605b:000000000063000000000000000000000000000000000000
#06052:53
#0135b:13
#01357:0053
#01352:5313
#01356:00000023000000000000000000000000
#00552:13
#00556:0063
#00557:00000023000000000000000000000000
#0055b:6313
#0285b:0013
#02852:0013
#06452:000000000053000000000000000000000000000000000000
#0645b:000000000063000000000000000000000000000000000000
#06458:0000000000230000
#06455:0000000000230000
#05657:000000000000000000000053000000000000000000000000
#0555b:000000000000000000000063000000000000000000000000
#0385a:14
#03852:14
#07652:0000001300000013
#0765b:0013000000130000
#07555:0000001300000013
#07558:0013000000130000
#02457:000000000053000000000000000000000000000000000000
#02456:000000000023000000000000000000000000000000000000000000000000000000000000000000000000000000000000
#02452:5313
#0245b:13
#02656:000000000063000000000000000000000000000000000000
#02657:000000000023000000000000000000000000000000000000000000000000000000000000000000000000000000000000
#0265b:6313
#02652:13
#0595b:000000000000000000000063000000000000000000000000
#04757:000000000000000000000053000000000000000000000000
#0475b:63
#01752:1313
#0175b:63
#01757:00000023000000005300000000000000
#05057:000000000053000000000000000000000000000000000000
#06857:000000000000000000000053000000000000000000000000
#06757:000000000000000000000000000000000023000000000000000000000000000000000000000000000000000000000000
#0675b:000000000063000000000000000000000000000000000000
#06752:53
#06656:000000000000000000000063000000000000000000000000
#0625b:000000000000000000000000000000000000000000000023000000000000000000000000000000000000000000000000
#06255:000000000063000000000000000000000000000000000000
#06252:000000000000000000000000000000000000000000000023000000000000000000000000000000000000000000000000
#06258:000000000053000000000000000000000000000000000000
#0585b:63
#05856:130000000000000000000000000000000023000000000000000000000000000000000000000000000000000000000000
#05852:000000000053000000000000000000000000000000000000
#05752:000000000000000000000053000000000000000000000000
#05257:000000000000000000000053000000000000000000000000
#03356:000000000000000000000063000000000000000000000000
#03657:53
#03656:000000000000000000000000000000000023000000000000000000000000000000000000000000000000000000000000
#03652:130000000053000000000000000000000000000000000000
#0355b:000000000000000000000063000000000000000000000000
#01552:1353
#0155b:00000023000000000000000000000000
#01557:5313
#00956:00000023000000006300000000000000
#00952:53
#0095b:1313
#0075b:1363
#00752:00000023000000000000000000000000
#00756:6313
#0545b:0013
#05456:0013
#02752:0013
#02757:0013
#0275b:13
#0325b:0013
#03256:0013
#0165b:0000000000130000
#00852:0000000000130000
#000340:000000000000000012320000000000000000000000000000
#000350:000000000032000000000000
#000360:000000000000000000000032220000000000000000000000
#001360:0013
#001320:0000000000230000
#0013b1:0000000000130000
#001371:00000023
#002321:0013
#002361:0000000000230000
#0023b0:0000000000130000
#002370:00000023
#003370:0013
#0033b0:0000000000230000
#003321:0000000000130000
#003361:00000023
#0043b1:000000000000000000000000133333230000000000000000
#004350:000000000000000000000000000000133333230000000000
#004381:000000000000000000000000000000000000133333230000
#004320:000000000000000000000000000000000000000000133333
#005320:23
#0053b1:1300002300000000
#005371:00000053000000000000000000000000
#005361:0013
#005321:00000023
#006321:1323000000000000
#0063b1:0000001323000000
#007361:1300002300000000
#007321:00000053000000000000000000000000
#0073b1:0013
#007371:00000023
#007321:0000000000000013
#008321:23
#008370:1323000000000000
#008341:0013230000000000
#008390:0000132300000000
#008361:0000001323000000
#0083b0:0000000013230000
#009320:1300002300000000
#009360:00000053000000000000000000000000
#009360:0013
#009320:00000023
#010370:1323000000000000
#011380:13
#0113b0:0023000000000000
#0113b0:00130000
#011380:0000002300000000
#0113b0:000000000000132300000000
#011380:000000000000000000000000000000130023000000000000
#012360:13
#012320:0023000000000000
#0123b0:000000000000000000000013000000000000000000000000
#012370:0000000000230000
#013320:1300002300000000
#013360:00000053000000000000000000000000
#013370:0013
#0133b0:00000023
#0143b0:1323000000000000
#014320:0000001323000000
#015370:1300002300000000
#0153b0:00000053000000000000000000000000
#015320:0013
#015360:00000023
#0153b0:0000000000000013
#0163b0:23
#016361:1323000000000000
#016390:0013230000000000
#016341:0000132300000000
#016370:0000001323000000
#016321:0000000013230000
#0173b1:1300002300000000
#017371:00000053000000000000000000000000
#017371:0013
#0173b1:00000023
#0193b1:1323000000000000
#019360:000000133333230000000000000000000000000000000000
#019320:000000000000000000000000000000000013000000000000
#019330:00000033
#019340:000000000000000000000000000000000000003300000000
#019350:000000000033
#019360:0000000000000023
#0193b1:000000000000000000000000000000000000000000130023
#020321:0013230000000000
#0203b1:0000001323000000
#021321:0013002300000000
#021361:00330000
#0213b0:0000001300230000
#021370:0033
#0213b0:000000000000000000000000000000000013000000000000
#021380:000000000023
#021351:000000000013
#021321:000000000000000000000000000000000000000000000023
#021370:000000000000000000000000000000000000000000000013
#0223b0:0023000000000000
#0223b0:000000000013000000000000000000000000000000000000
#022370:002300
#022321:001300
#022361:000000000000000000000023000000000000000000000000
#023361:000000000013000000000000000000000000000000000000
#023321:002300
#0233b1:000000000000000000000013000000000000000000000000
#023371:0000000000230000
#024321:130000000023000000000000000000000000000000000000
#024361:000000000053000000000000000000000000000000000000000000000000000000000000000000000000000000000000
#024370:000000000013000000000000000000000000000000000000
#0243b0:0000002300000000
#0253b0:0000132300000000
#0253b0:000000000000000000000013000000000000000000000000
#025370:0000000000230000
#025321:0000000000132300
#0263b1:130000000023000000000000000000000000000000000000
#026371:000000000053000000000000000000000000000000000000000000000000000000000000000000000000000000000000
#026360:000000000013000000000000000000000000000000000000
#026320:0000002300000000
#028320:13
#028330:003300000000000000000000000000000000000000000000
#028340:003300000000000000000000
#028350:0023000000000000
#0283b1:0013000000000000
#0283a1:003300000000
#028391:000000000033000000000000000000000000000000000000
#028381:00230000
#028350:00130000
#028340:000000000000003300000000000000000000000000000000
#028330:003300
#028320:0000002300000000
#028381:0000001300000000
#028391:000000000033000000000000
#0283a1:000000000000000000000033000000000000000000000000
#0283b1:0023
#029321:13
#029361:000000000023000000000000000000000000000000000000
#0293b1:0013
#029371:000000000000000000000000000000000023000000000000
#0303b1:13
#030381:0023000000000000
#030350:0013000000000000
#030320:00230000
#030320:000000000000000000000013000000000000000000000000
#030360:0000000000230000
#031370:13
#0313b0:000000000023000000000000000000000000000000000000
#031360:0013
#031320:000000000000000000000000000000000023000000000000
#033370:13
#0333b0:0023000000000000
#033361:000000130023000000000000000000000000000000000000
#033361:000000000000000000000013000000000000000000000000
#033321:0000000000230000
#033361:0000000000000013
#034321:23
#034370:13
#0343b0:0023000000000000
#034361:000000130023000000000000000000000000000000000000
#0343b0:000000000013000000000000000000000000000000000000
#034370:002300
#034321:001300
#034361:000000000000000000000023000000000000000000000000
#035321:000000000013000000000000000000000000000000000000
#035361:002300
#0353b1:000000000000000000000013000000000000000000000000
#035371:0000000000230000
#035320:0000000000132300
#036370:13
#0363b0:000000000023000000000000000000000000000000000000
#036321:000000000013000000000000230000000000000000000000
#036361:000000000000000000000000000000000053000000000000000000000000000000000000000000000000000000000000
#038351:000000000012323232000000
#038361:000000000000000000000032003200320022000000000000
#039321:0000000000120000
#039331:000000000000000032320000
#039341:000000000000000000000000000000000032003200320000
#039351:000000000000000000003232
#039361:000000000000000000000000000000000000000000000032
#040351:22
#0433c1:12
#043381:000000000022000000000000000000000000000000000000
#043321:0012
#043361:000000000000000000000000000000000022000000000000
#0433c0:000000000000000000000000000000000012000000000000
#043380:000000000022
#045320:12
#045360:000000000022000000000000000000000000000000000000
#0453c0:0012
#045380:000000000000000000000000000000000022000000000000
#045321:000000000000000000000000000000000012000000000000
#045361:000000000022
#0473b1:13
#047371:000000000023000000000000000000000000000000000000
#047320:13333333
#048320:33333333
#049320:3333333333333333
#050320:330033330033330033330033330033330033333333333333
#051320:360000000026000000000000000000000000000000000000
#047371:000000000000000000000013000000000000000000000000
#0473b1:0000000000230000
#049371:000000000013000023000000000000000000000000000000
#0503b1:1323
#050371:000000000033000000000000000000000000000000000000
#051381:160000000026000000000000000000000000000000000000
#0513b1:0013
#051371:000000000000000000000000000000000023000000000000
#0513b1:0000000000000013
#052371:23
#052321:000000000000000000130023000000000000000000000000
#052370:000000000000000000000013000000000000000000000000
#0523b0:0000000000230000
#053360:13
#053320:000000000023000000000000000000000000000000000000
#053370:0013
#0533b0:000000000000000000000000000000000023000000000000
#0553b0:13
#055370:0023000000000000
#055320:000000000013000000000000000000000000000000000000
#055360:002300
#0553b0:000000000000000000000013000000000000000000000000
#055370:0000000000230000
#055320:0000000000000013
#056360:23
#0563b1:13
#056371:0023000000000000
#056320:000000130023000000000000000000000000000000000000
#056371:000000000013000000000000000000000000000000000000
#0563b1:002300
#056360:001300
#056320:000000000000000000000023000000000000000000000000
#056371:000000000000000000000013000000000000000000000000
#0563b1:0000000000230000
#057361:000000000013000000000000000000000000000000000000
#057321:002300
#057370:000000000000000013000023000000000000000000000000
#057321:000000000000000000000013000000000000000000000000
#057361:0000000000230000
#0573b0:0000000000132300
#0583b0:13
#058370:000000000023000000000000000000000000000000000000
#058321:000000000013000000000000230000000000000000000000
#058361:000000000000000000000000000000000053000000000000000000000000000000000000000000000000000000000000
#059371:000000000013000000000000000000000000000000000000
#0593b1:002300
#059360:000000000000000013000023000000000000000000000000
#0593b1:000000000000000000000013000000000000000000000000
#059371:0000000000230000
#059320:0000000000132300
#060320:13
#060360:000000000023000000000000000000000000000000000000
#0603b1:000000000013000000000000230000000000000000000000
#060371:000000000000000000000000000000000053000000000000000000000000000000000000000000000000000000000000
#0613b1:13230000
#062351:000000000013000000000000000000000000230000000000
#062321:000000000000000000000000000000000000000000000053000000000000000000000000000000000000000000000000
#062380:000000000013000000000000000000000000230000000000
#0623b0:000000000000000000000000000000000000000000000053000000000000000000000000000000000000000000000000
#063320:13230000
#0643b0:000000000013000000000000000000000000000000000000
#064380:0000000000530000
#0653a0:345454545454240000000000000000000000000000000000
#065380:005400540054005400540054000000000000000000000000000000000000000000000000000000000000000000000000
#064321:000000000013000000000000000000000000000000000000
#064351:0000000000530000
#065321:345454545454240000000000000000000000000000000000
#065341:005400540054005400540054000000000000000000000000000000000000000000000000000000000000000000000000
#0653b1:0000001300000000
#065371:0023
#065320:0013
#065360:0000000000230000
#066320:000000000013000023000000000000000000000000000000
#066360:000000000000000000000013000000000000000000000000
#066320:0000000000230000
#066371:0000000000132300
#067321:13
#067361:000000000023000000000000000000000000000000000000
#0673b0:000000000013000000000000230000000000000000000000
#067370:000000000000000000000000000000000053000000000000000000000000000000000000000000000000000000000000
#0683b0:000000000013000023000000000000000000000000000000
#068370:000000000000000000000013000000000000000000000000
#0683b0:0000000000230000
#068361:0000000000132300
#069351:16
#069371:000000000022000000000000000000000000000000000000
#071361:13230000
#071321:0033000000000000
#0713b0:00132300
#071370:0000003300000000
#071361:0000000013230000
#0713b0:0000000000132300
#0723b0:13230000
#072370:0033000000000000
#072361:00132300
#072321:0000003300000000
#0723b0:0000000013230000
#072321:0000000000132300
#073371:13230000
#0733b1:0033000000000000
#073320:00132300
#073360:0000003300000000
#073371:0000000013230000
#073320:0000000000132300
#074320:13230000
#074360:0033000000000000
#074371:00132300
#0743b1:0000003300000000
#074320:0000000013230000
#0743b1:0000000000132300
#077381:1323000000000000
#077351:0000132300000000
#0773b1:0000000013230000
#077321:0000000000001323
#078381:1323000000000000
#078351:0000132300000000
#0793a1:000000000000000012320000000000000000000000000000
#079391:000000000032000000000000
#079381:000000000000000000000032220000000000000000000000
