This file was generated by Ched 2.6.4.0.
#TITLE ""
#ARTIST ""
#DESIGNER ""
#DIFFICULTY 0
#PLAYLEVEL
#SONGID ""
#WAVE ""
#WAVEOFFSET 0
#JACKET ""
#REQUEST "ticks_per_beat 480"
#00002: 4
#BPM01: 128
#00008: 01
#TIL00: ""
#HISPEED 00
#MEASUREHS 00
#02915:0000000013000013
#0291b:13
#02918:000000000000000000000000000000000000000013000013
#02910:41
#04418:0012001200000012
#0441a:0000000000120000
#04416:000000000000000000000012000000000000120000000000
#04414:00120000
#03015:13000013
#03018:000000000000000000130033000000000000000000130000
#0301b:0013000000000000
#03012:00130000
#00515:0000001300000000
#00518:0013
#00512:0000000000000013
#0051b:13
#00510:41
#00619:00130000
#00616:0000001300000000
#0061b:0013
#00617:13
#00614:0013000000000000
#00718:0000001300000000
#00715:1313
#0071b:0000000000000013
#0081b:0000000000130000
#00812:00130000
#00818:0013001300000000
#00815:1313
#0091b:0000000013000013
#00918:1300001300000000
#00912:1300001300000000
#00915:0013
#01012:1313
#01018:0013000000000013
#0101b:0000001300130000
#01015:00130013
#01218:1300000000000013
#01213:000000000033000000000000000000000000000000000000
#02015:0000001300130000
#02018:00130013
#0201b:0013000000000013
#02012:0013
#02118:0013000000000000
#02112:00130000
#02115:2313
#0211b:0000001300000000
#0211a:000000000033
#02119:000000000000000000000000000000000033000000000000
#0261b:0000000013000013
#02615:130000000000000000000000130000000000000000000013
#02612:0000001300000000
#02618:0000001300000000
#02718:130000000000000000000000130000000000000000000013
#0271b:0000001300000000
#02715:0000001300000000
#02712:0000000013000013
#0321b:0013
#03212:0013000000000000
#03218:1300130000000023
#03215:0000001300002300
#03515:0000000000000013
#0351b:130000000000000000000013000000000000000000000000
#03512:000000130033000000000000000000000000000000000000
#03518:0000000000330000
#0001a:12000012
#00016:0012000000000012
#00018:00121200
#00014:0000001200120000
#00118:0013001300130000
#00115:00130013
#00112:2313
#0011b:2300000000000013
#06515:00001313
#06518:0000001300000013
#06512:0000000000130000
#06615:0013000000000013
#06612:001300
#0661b:1300000000330000
#06618:000000000013000000000013000000000000000000000000
#06715:00000013
#06718:000000000013000000000000000000000000000000130000
#0671b:13
#0521b:00130000
#05212:0013000000000000
#05215:0000001300001300
#05218:000000000000000000000013000000000000000000130000
#05210:00410000
#03618:1300000000000013
#0361b:000000000013000000000000000000000000000000000000
#03615:00000013
#06217:0000000000130000
#0621b:000000000013000000000000000000000000000000000000
#04715:000000000000000013000000000000000000000000130000
#0471b:1300000000330000
#04718:000000000000000000000013000000000000000000000000
#0481b:13000013
#04815:0013000000000000
#04812:001300
#04818:000000000013000000000013000000000000000000130000
#04915:1300000000000013
#04918:00000013
#04919:000000000033000000000000000000000000000000000000
#05018:000000000013000000000000000000000000000000140000
#05014:00000014
#03918:13000033
#0391a:000033
#03919:000000000000000000000000000000000033000000000000
#03917:000000000000000000000000000000000000003333333333
#00312:1300000000000013
#0031b:1313
#00315:0013001300130000
#00318:00130013
#00212:13000013
#0021b:0013000000130000
#00215:00131300
#00218:0000001300000013
#03415:00000013
#03418:0000000000000013
#06115:0000000013000013
#06112:0000001300000000
#06118:0000000000130000
#0611b:00000013
#06110:41
#06315:0000130000130000
#06318:0000000013000013
#0631b:0000001300000000
#06312:00000013
#0241b:0000001300000013
#02412:1300000013000013
#02418:0013
#02415:0000001300000000
#02315:00000013
#02318:0000000000130013
#02314:000000000033000000000000000000000000000000000000
#0041b:13000013
#00412:0013000000130000
#00418:00131300
#00415:0000001300000013
#01318:0000001300000000
#01315:0013
#0131b:0000000000000013
#01312:13
#01414:00130000
#01417:0000001300000000
#01412:0013
#01416:13
#01419:0013000000000000
#01515:0000001300000000
#01518:1313
#01512:0000000000000013
#01612:0000000000130000
#0161b:00130000
#01615:0013001300000000
#01618:1313
#01712:0000000013000013
#01715:1300001300000000
#0171b:1300001300000000
#01718:0013
#01710:41
#0181b:1313
#01815:0013000000000013
#01812:0000001300130000
#01818:00130013
#02518:1400140000000013
#02514:0014000000000000
#03112:13
#03118:0000000013000013
#03115:000000000000000000000000000000000000000013000013
#04614:0012000000000000
#04618:00001212
#04616:0000001200000012
#0461a:00120000
#05318:000000000000000000000000130000000000000013000013
#05312:0013
#05315:1300000000000013
#0531b:13
#05115:000000130013
#0511b:0013
#05112:000000000026000000000000000000000000000000000000
#0511f:00210000
#05415:1300001300000023
#0541b:0013000000000000
#05418:00130023
#05412:0013
#05718:0000000000000013
#0571b:13
#05712:000000000033000000000000000000000000000000000000
#05815:1300000000000013
#05818:00000013
#05812:000000000013000000000000000000000000000000000000
#05618:00000013
#05615:2300000000000013
#05918:0000000000130000
#05915:00000013
#0591b:0000000000000013
#06012:13
#06015:000000000013000000000000000000000000000000000000
#06416:0000000000130000
#06412:000000000013000000000000000000000000000000000000
#06415:23
#06818:0013000000001300
#0681b:000000000000000013000000000000130000000000000000
#06815:000000000013000000000013000000000000000000130000
#06812:13
#07118:0013000000001300
#07115:0000130000130000
#07112:2300001313000000
#0711b:2300000000000013
#07110:41
#07215:1300130000130000
#07218:0013000013001300
#07212:0000001300000000
#0721b:0000000000000013
#07315:0013000000001300
#07318:0000130000130000
#0731b:1300001313000000
#07312:1300000000000013
#07418:1300130000130000
#07415:0013000013001300
#0741b:0000001300000000
#07412:0000000000000013
#07612:1313
#07618:00131313
#07615:0013001300130013
#0761b:13
#07914:12000012
#07918:0012000000000012
#07916:00121200
#0791a:0000001200120000
#08012:12
#07712:2313000023130000
#0771b:0000231300002313
#07715:00230023
#07718:2323
#04012:0013000000000013
#04015:00130013
#04018:0000001300130000
#0401b:0013
#04118:13
#04112:0013000000000000
#0411b:000000000000130000000000000000000000000033330000
#04115:0000001300000000
#04119:000000000000000000000000000033330000000000000000
#0411a:000000000000000000000000000000000033330000000000
#0111b:0000000000000013
#07515:00131313
#07518:0013001300130013
#0751b:2313
#07512:23
#03718:0000000000130013
#03715:00000013
#03713:0033000000000000
#0431f:11
#03318:002300
#03315:000000330000000000000023000000000000000000000000
#03312:23
#0331b:0000000000000023
#0551b:23
#05512:2300000000230000
#05518:0023000000000023
#05515:00000023
#0781b:0000232300230023
#07815:0000232300230023
#07812:2323000023002300
#07818:2323000023002300
#02812:0023
#0221a:000000000033000000000000000000000000000000000000
#02219:003300
#0085b:0000000000130000
#0325b:0013
#05152:000000000016000000000000000000000013000000000000
#05158:000000000000000000000000000000000013000000000000
#0515b:0063
#05155:0063
#0355b:000000000000000000000063000000000000000000000000
#03552:0053000000000000
#03658:53
#0365b:000000000063000000000000000000000000000000000000
#06257:0000000000230000
#0625b:000000000063000000000000000000000000000000000000
#05058:000000000053000000000000000000000000000000000000
#00755:6313
#00558:0013
#0055b:63
#0475b:63
#04758:000000000000000000000053000000000000000000000000
#01355:0013
#01352:53
#01558:5313
#01652:0000000000130000
#0295b:63
#02958:000000000013000000000000000000000000000000000000
#02955:0063
#02952:000000000000000000000000000000000013000000000000
#03058:0000005300000000
#03152:53
#03158:0053
#03155:000000000013000000000000000000000000000000000000
#0315b:000000000000000000000000000000000013000000000000
#05358:000000000013000000000000530000000000000000000000
#05352:000000000013000000000000530000000000000000000000
#0535b:630000000000000000000000000000000013000000000000
#05355:630000000000000000000000000000000013000000000000
#05258:000000000000000000000053000000000000000000000000
#05452:0013
#05855:63
#05852:000000000053000000000000000000000000000000000000
#06052:53
#06055:000000000063000000000000000000000000000000000000
#06456:0000000000230000
#06452:000000000053000000000000000000000000000000000000
#06658:000000000000000000000053000000000000000000000000
#0675b:63
#06758:000000000053000000000000000000000000000000000000
#06952:000000000013000000000000000000000000000000000000
#02655:63
#02452:53
#0065b:0013
#01452:0013
#02852:0013
#0053b0:13
#005380:00230000
#007350:13
#007320:00230000
#011320:13230000
#012350:0013000000330000
#012330:000000000033000000000000000000000000000000000000
#012320:000000000000000033000033000000000000230000000000
#013320:13
#013350:00230000
#015380:13
#0153b0:00230000
#0193b0:13230000
#019320:00001323
#021380:0000000000130000
#021390:000000000000000000000000000000000033000000000000
#0213a0:000000000033
#0213b0:000000000000000000000000000000000000000000000033
#0223b0:0033000000000000
#0223a0:000000000033000000000000000000000000000000000000
#022390:003300
#022380:000000000000000000000023000000000000000000000000
#022320:00000013
#022330:000000000033
#022340:000000000000000000000033
#023350:3333000000000000
#023340:000000000033000000000000000000000000000000000000
#023320:000000000000000033000023000000000000000000000000
#024320:13
#024350:000000000023000000000000000000000000000000000000
#025350:000000000000000000130033000000000000230000000000
#025320:0000000000330000
#026350:13
#026320:000000000023000000000000000000000000000000000000
#028350:13
#028320:0023
#0293b0:13
#029380:000000000023000000000000000000000000000000000000
#029350:0013
#029320:000000000000000000000000000000000023000000000000
#030380:000000000000000000130033000000000000000000000000
#0303b0:0000000000230000
#031320:13
#031350:000000000023000000000000000000000000000000000000
#031380:0013
#0313b0:000000000000000000000000000000000023000000000000
#033320:13
#033350:000000330023000000000000000000000000000000000000
#033350:000000000000000000000013000000000000230000000000
#033320:0000000000330000
#0333b0:0000000000000013
#034380:333300
#0343b0:000000330033000000000023000000000000000000000000
#035320:000000130033000000000000000000000000000000000000
#035350:002300
#0353b0:000000000000000000000013000000000000000000000000
#035380:0000000000332300
#036380:1323
#0363b0:000000000033000000000000000000000000000000000000
#037350:133300
#037330:0033000000000000
#037320:000000000033000000000023000000000000000000000000
#038350:13
#038320:000000000033000000003300330033003300330000230000
#038330:000000000000000000000033003300330033000000000000
#039350:000000130033000000000000000000000000000000000000
#039320:000000000000000033000023000000000000000000000000
#0393b0:0000000000130000
#0393a0:000033
#039390:000000000000000000000000000000000033000000000000
#039380:00000033
#039370:000000000000000000000000000000000000003333333333
#040370:23
#041380:0013
#041390:000000000000000000000000000033330000000000000000
#0413a0:000000000000000000000000000000000033330000000000
#0413b0:000000000000000000000000000000000000000033330023
#0433a0:120000000022000000000000000000000000000000000000
#043360:000000000000000000000000120000000032000032320032
#044360:22
#045340:120000000022000000000000000000000000000000000000
#045380:000000000000000000000000120000000032000032000000
#046380:22
#0473b0:13
#047380:000000000023000000000000000000000000000000000000
#047380:000000000000000000000013000000000000000000000000
#0473b0:0000000000332300
#0493b0:0013000000000000
#049390:000000000033000000000000000000000000000000000000
#049380:002300
#049320:000000000000000000000013000000000000000000000000
#049350:0000000000230000
#0503b0:1323
#050380:000000000033000000000000000000000000000000000000
#051320:160000000026000000000000000000000000000000000000
#0513b0:0013
#051380:000000000000000000000000000000000023000000000000
#051351:0013
#051321:000000000000000000000000000000000023000000000000
#051381:0000000000000013
#052381:23
#052381:000000000000000000000013000000000000000000000000
#0523b1:0000000000230000
#053351:13
#053321:000000000023000000000000000000000000000000000000
#0533b0:13
#053380:000000000023000000000000000000000000000000000000
#053380:0013
#0533b0:000000000000000000000000000000000023000000000000
#053321:0013
#053351:000000000000000000000000000000000023000000000000
#055381:000000130033000000000023000000000000000000000000
#0553b1:003300
#056351:130000000000000033000033000000000000000000000000
#056321:000000330033000000000000000000230000000000000000
#057321:000000130033000000000033000000000000230000000000
#057351:000000000000000033000000000000330000000000000000
#058351:1323
#058321:000000000033000000000000000000000000000000000000
#0593b1:13
#059381:0023000000000000
#059351:000000000013000000000023000000000000000000000000
#059321:003300
#060321:13000023
#060351:000000000033000000000000000000000000000000000000
#0613b1:13
#061381:00230000
#062381:13
#0623b1:000000000033000000000000000000000000000000000000
#062371:0000000000530000
#0633b1:23
#064351:13
#064321:000000000033000000000000000000000000000000000000
#064361:0000000000530000
#065321:345454545454240000000000000000000000000000000000
#065331:005400540054005400540054000000000000000000000000000000000000000000000000000000000000000000000000
#066381:000000000000000000000013000000000000000000000000
#0663b1:0000000000332300
#0673b1:1323
#067381:000000000033000000000000000000000000000000000000
#069321:130000000023000000000000000000000000000000000000
