This file was generated by Ched 2.6.4.0.
#TITLE ""
#ARTIST ""
#DESIGNER ""
#DIFFICULTY 0
#PLAYLEVEL
#SONGID ""
#WAVE ""
#WAVEOFFSET 0
#JACKET ""
#REQUEST "ticks_per_beat 480"
#00002: 4
#BPM01: 128
#00008: 01
#TIL00: ""
#HISPEED 00
#MEASUREHS 00
#02912:130000000000000000130000000000130013000000130000
#02917:230000000000000000000000000000000000000000000000000000000013000000000000000000001300130000000000
#02916:000000000013000000000000000000000000000000000000230000000000000000000000000000000000000000001300
#0291b:000000130013000000000000130000000000000000000000
#02910:41
#03212:00141423
#03217:130000000013000000000013000000000000130000000013
#03216:000000000000000013000000000000130000000013000000
#0321b:0000000000130023
#0321a:0014001400000000
#0301b:000000130000000000130000001300000000000000000000
#03012:000000130000000000000013000000000000000000130000
#03016:1300001300000000
#03017:000000000000000000000013000000000000000000000000
#00517:00131300
#0051b:230000000000000000130000000000000013000000000000
#00512:130000000000000000000013000000000000000000130000
#00516:0013001300001300
#00514:0000000000130000
#00510:41
#0091b:0000130013000013
#00916:000000000000130000000013000000000000000000130000
#00912:130000000000000000130000000000000013000000000000
#00917:1300001300001300
#00919:0013000000000000
#00914:0000000000130000
#0101b:000000000013000000000000000000130000000000130000
#01016:000000130000000000000013000000000000000000000000
#01017:00130013
#01014:001300
#01019:0000001300000000
#01012:1313
#01112:000000130000000000130000000013000013000000000000
#0111b:000000000000130000000000130000000013000000130000
#01116:00131300
#01117:0000001300130000
#01217:000000000013000000000013000000000000130000000000
#01216:000000130000000013000000001300000000000000000000
#0121b:000000000000000013000000000000130000000000000000
#01212:000000000013000000000013000000000000130000000000
#01215:000000000000000000000013
#01218:000000000000000000000000000000000000000000130013
#02116:000000000000000013000000000013000013000000000000
#02112:230000130000130000000000130000000000000013000000
#0211b:230000130000000000130000000013000000000000000000
#02117:000000000013000000000013000000000000000000000000
#02217:000000130013000000000000000000000000000000000000
#02218:00000016
#02214:000000000000000000000016
#02216:000000000000000000000000000000130000000016000000
#0221b:001300
#0271b:1300000000130013
#02712:0013000000000000
#02717:0013130000000000
#0271a:000000000013000000000000000000000000000000000000
#02716:0000000000131313
#02713:000000000000000000000000000000000013000000000000
#0311b:000000000013000000000000000000000000130000000000230000000000000000001300000000001300130000000000
#03116:0013000013000013
#03117:1300000000130000
#03112:230000000000000000001300000000000000000000000000000000000013000000000000000000000000000000001300
#03516:000000130000000000130000000013000000000000130000
#0351b:000000130000000013000000000000000000000000130000
#03512:000000000013000000000000130000000000130000000000
#03517:130000000000130000000013000000000000000000000000
#02612:130000000013000000000000000000130000000000130000
#02617:1300001300130013
#0261b:000000000013000000000000000000000000000000000000000000000000000000000000130000000000000000000000
#02616:000000000000001300000000130000000000000000000000
#0001c:12
#00016:1200000000120000
#0001b:000000120000000000000012000000000000000000000000
#00017:000012000012000000120000120000000000000000000012
#00013:00120000
#00015:000000001200000000120000
#00019:000000000000000000001200000000000012000000000000
#0001a:000000000000001200000000
#00018:000000000012
#00014:0000000000000012
#07216:000000130000000000000000130000000013000000000000
#07212:130000000000000000000000000000130000000013000013
#07217:1300001300000013
#0721b:001300130000000000130000
#0771a:000000130000000013000000000000130000000013000000
#07713:000013000000000000130000000013000000000000130000
#07716:280000000014000000000014280000000014000000000014
#07712:00280028
#05717:000000000013000013000000000000000000130000000000
#0571b:000000000000000000000013000013000000000000130000
#05716:0000000013000013
#05712:00130000
#05812:1300001300001300
#0581b:00131300
#05817:1300001300001300
#0581a:000000000013
#05814:0000000000000013
#05813:000000000000001300000000
#05819:0013000000130000
#05816:000000000013000000000000130000000000000000000000
#06112:1300130000130013
#06116:00000013
#0611b:0000001300000000
#06117:0013000013000013
#06110:41
#06216:1300000000130000
#0621b:1300000000130000
#06217:000000000013000000000000000000000000000000000000
#06212:0000131300000013
#06214:00001313
#06019:000000000000000000130000000000130000000013000000
#0601b:000000000013130000000000000000000000130000000000
#06016:000000000000130000000000000000000013130000000000
#06012:2c0000000000000000000013130000000000000000000000
#06017:000000000000000000000000130000000000000000000013
#06014:0013000000000013
#07816:180000000000000000280000001300000000000000000000
#07812:240000280000180000140000000000000013000000230000
#07819:000000000000001300000000
#07817:000013
#07815:000000000000000000000000000000000000230013000013
#0781a:0014240000000000
#0781b:0023
#07814:0000000000230000
#03814:00120012
#0381a:00120000
#0381c:0000000000000012
#03817:000000000000000000000012001200120012000000120000
#03819:00000012
#03816:000000000012121212000000
#03812:2c
#03917:120000000012000000000012000000000000120000120000
#03919:001200001200000000001200
#03915:000000120000000012000000000000000000001200000000
#03912:120000000000000000000012000000120000000000000000
#0391c:000000000012000000000000000000000000000000000000
#03916:000012
#03914:000000000000000000000000000000000012000000000000
#0391a:000000000000000000000012
#03918:000000000000000000000000000000000000000000000012
#04017:00001212
#0401c:120000000000000000120000000000000012000000000000
#04012:000000000000120000000000120000000000000000000012
#04014:000012000012000000000000000000000000000000000000
#0401a:0012000000000000
#04016:121200
#04019:000000000000000000000000000000120000000012000000
#04015:000000000000000000000000000012000000000000120000
#04018:00120000
#04115:0012000000000000
#04114:0000120000120000
#0411a:000000120000000000000000000000000000000012000000
#04119:00120000
#04117:1200001200000000
#0411c:000000000000000000120000000000000000000000000012
#04112:1212
#04118:0000000012001212
#04116:000000000000000000000000000012000012000000000012
#0041b:13131300
#00419:000000000000001300000013
#00417:000000130000000000130000000000001300000013000000
#00415:00000013
#00416:000000000000000000000000001300000000000000000013
#00414:0000000000130013
#00412:000000000000000000000000000000000013001300000000
#0711b:1300131300000013
#07112:230000000000130000000000000000130000000000000000000000000000000000001300000000000000000000001300
#07116:000000130000000000001300
#07117:000000001300000000000000000000000000000000130000000000000000000000000000000000000000000000000000
#07110:41
#02312:1600000000130013
#0231b:000000130000000000000013000000000000130000000000
#02317:000000000000001300001300
#02316:000000130013000000000000000000000013000000000013
#03716:001414001414001414001414000000000000000000000000
#0371a:0024002424000000
#03712:24242400
#00617:0000130000000013
#00616:0000001300001300
#00612:0000000013000013
#00614:0000000000130000
#0061b:000000130000000000000000000000000013000000000000
#0071b:130000000000130000000013000000000000130000000000
#00716:130000000000000000000000130000000013000000000000
#00712:0013001300130000
#00717:0000001300000013
#00816:0013001300001300
#00817:0000130013130000
#00812:0000130000130000
#0081b:000000000000000000130000000000000013000000000000
#00819:0000000000000013
#00814:0000000000000013
#0201b:0013000000001300
#02017:0000130000130000
#02012:0000001300131300
#02016:0013
#02015:000000000000000000000000000000000000000000130013
#02018:000000000013
#02817:001300000000001300000000000000000000000000000000
#02812:231300231300230000000000
#02816:000013000013000000000000
#0281b:000000230013000000230013000000000000000000000000
#07912:12
#07918:1200000000120000
#07913:000000120000000000000012000000000000000000000000
#07917:000012000012000000120000120000000000000000000012
#0791b:00120000
#07919:000000001200000000120000
#07915:000000000000000000001200000000000012000000000000
#07914:000000000000001200000000
#0791a:0000000000000012
#07916:000000000012
#01918:000000000000120000120000000012000000000012000000
#01912:13
#01916:000000120000000000000012000000000012000000000000
#0191a:000012000000120000120000
#01914:000000000012000012000000000000000000001200000000
#0191c:000000000000000000000000000000120000000000000012
#02416:1300001300130013
#0241b:130000000013000000000000000000130000000000130000
#02412:000000000013000000000000000000000000000000000000000000000000000000000000130000000000000000000000
#02417:000000000000001300000000130000000000000000000000
#0251b:000000130000000000130013000000000000000000130000
#02512:13
#02516:000000130000000000000013000000000000000000130000
#02517:130000000000130000000000001300000000130000000000
#05912:001400280000001400280000260000000000000000000000
#05916:280014000014280014000014000000000000000000000000
#0591a:000014000014000000000000
#05918:0026
#06312:1300000000130000
#06316:000000000013000000000000000000000000000000000000
#0631b:0000131300000013
#06319:00001313
#06317:0000000000130000
#0641a:0000000000140000
#06412:0000131300000013
#06414:00001313
#06416:0000000000130000
#06417:000000000013000000000000000000000000000000000000
#0641b:23
#07518:000000130000000000000013000000130000000000000013
#07515:000000000013000000130000000000000013000000130000
#0751b:23
#03316:0013000000001300
#03317:000000000023000000000013000000000000000000230000
#03312:130000000000000000000023000000230000000000000000
#03312:23
#0331b:000000000000000023000000001300000000230000000000
#03617:130000000000131300000000
#03612:1313
#0361b:000000000013000000000000000000000000130000000000
#03616:000000130000000000131300
#03613:0000000000000013
#03614:0013001300000000
#0361a:0000000000130000
#03619:0000001300000000
#03412:0023000000001300
#03417:000000000000000000000023000000000000130000000000
#0341b:230000000000000023000000000000130000000000130000
#03416:000000000023000000000000000000130000000000000000
#04512:13131313
#04518:000000000000000000220000000000000000000000002200
#04516:0000000000000022
#04515:000000000000000000000000000000000000000000000022
#0451a:220000000022000000000000000000000000000000000000
#04612:13131313
#04617:22
#0461c:000000000000222200000000
#0461a:000000000000000000000000000000000022000000000000
#04618:000000000022
#05617:000000000000000000000023000000000000130000000000
#05616:000000230000000000000000001300000000000000130000
#05612:000000000023000023000023000000000000130000000000
#0561b:230000230000000023000000000000130000000000000000
#0521b:0000001300000013
#05216:000000000000000000130000001300000000000000000000
#05212:130000000000000000000013000000000000000000000000
#05217:000000000000000000000013000000000000000000000000
#05210:00410000
#05116:000000230013
#05112:1400260000000013
#05112:0000000000000013
#05117:000000000000000000000000000000000013000000000013
#0511b:0000000000000013
#0511a:14
#05118:00260000
#0511f:00210000
#05317:0000001300130013
#0531b:000000000013000000000000230000000013000013000000
#05316:000000130000001300000000000000000000000000000000
#05312:230000000013000000000000000000000013000000130013
#0541b:0000000000130023
#05416:130000000013000000000013000000130000000013230000
#0541a:00141400
#05417:000000000000000013000000000000000000230000000013
#05412:0014001400002300
#05512:130000000023000000000023000000230000000000230000
#05512:23
#0551b:000000000000000023000000001300000000230000000000
#05517:230000000023000000000023000000000000000000230000
#05516:0023000000002300
#0731b:130000000000130000000000000000130000000000000000000000000000000000001300000000000000000000001300
#07312:1300131300000013
#07317:000000130000000000001300
#07316:000000001300000000000000000000000000000000130000000000000000000000000000000000000000000000000000
#0651b:0000001300130013
#06512:130000000000000000130000130000000013000000000000
#06517:000000000000000000000013000000000000130000000000
#06516:0000000000130013
#06612:130000000000000013000000000000000000000000130000
#0661b:000000000013000000000000130013000000000000000000
#06617:0000001300001300
#06616:000000130000130000000013000000000000000000000000
#06716:13
#0671b:000000130000130000000000000013000000000000000000
#06712:000000130000000000000013000000000000000000130000
#06718:000000000013000013000000000000130000130000000000
#06715:000000000000000000130000130000000013000013000000
#06912:1c
#06817:00000012
#06818:261313001313260000000000
#06815:001300260000000000260013000000000000000000000000
#06812:000000000013261300000000000000000000000000000000
#0431b:13131313
#0431f:11
#04317:000000000022000000000000000000000000000000000000
#04312:00000022
#04314:000000000022
#04316:000000000000000000000022
#0441b:13131313
#04417:00000022
#04414:2222
#0471a:14141414
#04716:13
#04712:000000130000000000001300
#0481a:14141414
#04816:001300000013
#0491a:1414141414141414
#04912:001300000013
#04915:000000000000000000000000000000000000000000000013
#0501a:140000000000000000140014000000000000001400140000
#05012:131400000000000000140014
#05016:000000140000000014000000140000000014000014000014
#05018:000000000014000000000000000000140000000000000000
#05014:000000140000001400000000
#07414:0000000000000013
#07416:1300001300000000
#07412:001300130000000000130000
#07417:000000130000000000000000130000000013000013000000
#0741b:1300000000130000
#07418:000000000000000000000013
#07415:000000000000000000000000000000000000000000000013
#0761b:0013000000130000
#07615:000000000013000000000000000000000013000000000000
#07612:0000001300000013
#07618:000000000000000000000013000000000000000000000000
#0181b:1300001300001313
#01812:0000131313000013
#01817:00131300
#01814:0013000000130000
#01816:13000013
#01819:0013000000130000
#0801b:12
#0011b:000000130000000013000000000000000000130000000000
#00118:000000000000000000000000000000000013000000130000
#00115:000000000013
#00112:2c00000013130000
#00116:0000001300000000
#00117:00130000
#00216:000000130000000000130000000000000000000013000000
#00212:13130013
#00217:000000000000000000000000130000000013000000000000
#0021b:0000000000130013
#00312:000000130000000013000000000000000000130000000000
#00315:000000000000000000000000000000000013000000130000
#00318:000000000013
#00316:13130000
#0031b:1300000013130000
#00317:0000001300000000
#01316:00131300
#01312:230000000000000000130000000000000013000000000000
#0131b:130000000000000000000013000000000000000000130000
#01317:0013001300001300
#01319:0000000000130000
#01712:0000130013000013
#01717:000000000000130000000013000000000000000000130000
#0171b:130000000000000000130000000000000013000000000000
#01716:1300001300001300
#01714:0013000000000000
#01719:0000000000130000
#01710:41
#01416:0000130000000013
#01417:0000001300001300
#0141b:0000000013000013
#01419:0000000000130000
#01412:000000130000000000000000000000000013000000000000
#01512:130000000000130000000013000000000000130000000000
#01517:130000000000000000000000130000000013000000000000
#0151b:0013001300130000
#01516:0000001300000013
#01617:0013001300001300
#01616:0000130013130000
#0161b:0000130000130000
#01612:000000000000000000130000000000000013000000000000
#01614:0000000000000013
#01619:0000000000000013
#03252:00141400
#0325a:0014001400000000
#03852:1c
#02952:530000000033000000000000000000000000000000000000
#02957:430000000000000000000000000000000000000000000000000000000023000000000000000000000000000000000000
#0295b:000000000063000000000000630000000043000000000000
#02956:000000000023000000000000000000000000000000000000330000000000000000000000000000000000000000000000
#0625b:6300000000230000
#06257:000000000053000000000000000000000000000000000000
#0275b:13
#02752:0013
#02757:0013
#0645b:63
#0645a:0000000000240000
#06457:000000000053000000000000000000000000000000000000
#00557:0013
#00552:53
#0055b:13
#00556:0023000000000000
#05852:13
#00652:0013
#00657:13
#0075b:13
#00756:6313
#00752:0023000000000000
#05158:00460000
#05152:00360000
#05156:0033
#05157:000000000000000000000000000000000043000000000000
#00152:1c
#01952:13
#02456:6300006300000000
#02452:000000000023000000000000000000000000000000000000130000000000000000000000000000000000000000000000
#02457:000000000000002300000000530000000000000000000000
#0245b:130000000063000000000000000000230000000000000000
#02657:5300005300000000
#0265b:000000000023000000000000000000000000000000000000130000000000000000000000000000000000000000000000
#02656:000000000000002300000000630000000000000000000000
#02652:130000000053000000000000000000230000000000000000
#02557:430000000000430000000000002300000000000000000000
#02556:0033000000000000
#0255b:000000000000000000000063000000000000000000000000
#03157:530000000033000000000000000000000000000000000000
#03152:330000000000000000005300000000000000000000000000000000000023000000000000000000000000000000000000
#03156:000000000000000000000000630000000043000000000000
#0315b:000000000023000000000000000000000000000000000000430000000000000000000000000000000000000000000000
#03052:0023000000000000
#0305b:000000230000000000000000002300000000000000000000
#03057:000000000000000000000053000000000000000000000000
#06052:1c
#06352:5300000000230000
#06356:000000000063000000000000000000000000000000000000
#07558:0013000000130000
#07555:0000001300000013
#03357:000000000000000000000053000000000000000000000000
#0335b:000000000000000000000000002300000000000000000000
#03352:13
#07152:13000000002300000000000000000000
#0715b:0000006300000000
#07157:00000000000000230000000000000000
#07156:00630000
#01052:1313
#01252:000000000000000000000053000000000000000000000000
#01256:000000000000000000000000002300000000000000000000
#03657:13
#02152:13
#0215b:13
#05252:000000000000000000000053000000000000000000000000
#05256:000000000000000000000000002300000000000000000000
#0555b:000000000000000000000000002300000000000000000000
#05552:13
#05557:000000000000000000000053000000000000000000000000
#05352:330000000053000000000000000000000033000000000000
#0535b:000000000043000000000000430000000000000000000000
#05356:000000000000002300000000000000000000000000000000
#0545a:00141400
#05452:0014001400000000
#05656:000000000000000000000000002300000000000000000000
#05652:000000000000000000000053000000000000000000000000
#0775a:0013000000130000
#07753:0000001300000013
#00857:0013
#00852:13530000
#00856:0000002300000000
#06952:5c
#06957:000000000012000000000000000000000000000000000000
#01157:0043004300430000
#01156:00333300
#0785a:0014000000000000
#07852:0000001400000000
#07352:0000005300000000
#07356:00000000000000230000000000000000
#07357:00530000
#0735b:00000000002300000000000000000000
#04756:63
#04752:000000230000000000005300
#04856:002300000063
#04952:002300000000
#0765b:0013000000130000
#07652:0000001300000013
#0185b:13
#01852:0013
#01356:0013
#0135b:63
#01357:0023000000000000
#01352:13
#01752:0013
#0175b:13
#0145b:0013
#01456:13
#01552:13
#01557:5313
#0155b:0023000000000000
#01656:0013
#0165b:13630000
#01657:0000002300000000
#0095b:0013
#00952:13
#02852:0013
#001360:0013000000000000
#001320:00230000
#001370:0013
#0013b0:0000000000230000
#002370:13330000
#0023b0:0033002300000000
#002320:0013
#002360:0000000000230000
#003370:0013000000000000
#0033b0:00230000
#003360:0013
#003320:0000000000230000
#004360:13330000
#004320:0033002300000000
#005320:13230000
#005360:0053000000000000
#005370:0000000000000013
#006370:23
#006321:13230000
#006371:0033000000000000
#0063b1:0000001300000000
#006371:0023
#007361:13230000
#007321:0053000000000000
#007321:0000000000000013
#008321:23
#0083b0:1323000000000000
#008320:00132300
#008360:0000005300000000
#010370:13
#0103b0:0023000000000000
#010360:0000000000130033
#010320:00000033
#011320:23
#011371:1323000000000000
#011361:0000000000000013
#012321:23
#012370:13
#0123b0:0023000000000000
#012320:000000000000000000000013000000230000000000000000
#012360:000000000000000000000000005300000000000000000000
#0133b0:13230000
#013370:0053000000000000
#013360:0000000000000013
#014360:23
#0143b1:13230000
#014361:0033000000000000
#014321:0000001300000000
#014361:0023
#015371:13230000
#0153b1:0053000000000000
#0153b1:0000000000000013
#0163b1:23
#016320:1323000000000000
#0163b0:00132300
#016370:0000005300000000
#019370:12
#0193c0:0022000000000000
#019320:0000000000000012
#019370:000000000000000000000000000000000000000000000022
#020360:0013000000000000
#020320:000053230000000000000000
#020370:0000001300000000
#0203b0:000000000053230000000000
#0213b0:000000000000000000000000000000000013000000000023
#021370:000000000033
#021361:000000000000000000000000000000000000000000000013
#022321:0023000000000000
#022321:000000000013000000000023000000000000000000000000
#022361:003300
#022370:000000000000000000000013000000000000000000000000
#0223b0:0000000000230000
#0233b0:000000000013000000000000000000000000000000000000
#023370:002300
#023321:001300
#023361:000000000000000000000023000000000000000000000000
#024361:130000000023000000000000000000000000000000000000
#024321:000000000053000000000000000000000000000000000000000000000000000000000000000000000000000000000000
#0243b0:000000000013000000230000000000000000000000000000
#024370:000000000000005300000000000000000000000000000000
#024361:0000001300000000
#024321:0023
#024370:00001323
#0243b0:0000000000530000
#025320:00130000
#025360:0000002300000000
#0253b0:000000000000000000000013000000230000000000000000
#025370:000000000000000000000000005300000000000000000000
#025361:0000000000130000
#025321:00000023
#026371:130000000023000000000000000000000000000000000000
#0263b1:000000000053000000000000000000000000000000000000000000000000000000000000000000000000000000000000
#026320:000000000013000000230000000000000000000000000000
#026360:000000000000005300000000000000000000000000000000
#026371:0000001300000000
#0263b1:0023
#026360:00001323
#026320:0000000000530000
#026360:000000000000000000000000000000000000000000000013
#027360:23
#0273b0:0000001300000000
#027370:000000000053230000000000
#027361:0000001300000000
#027321:000000000053230000000000
#027371:000000000000000000000000000000000000000000000013
#028371:23
#029321:130000000023000000000000000000000000000000000000
#029361:000000000053000000000000000000000000000000000000000000000000000000000000000000000000000000000000
#0293b0:000000000013000000000000000000000000000000000000
#029370:0000002300000000
#0293b0:000000000000000000000000130000000023000000000000
#029370:000000000000000000000000000000000000000000000000000000000053000000000000000000000000000000000000
#0303b0:1333000000000000
#030380:00230000
#030321:0013000000000000
#030351:00230000
#030371:000000000000000000000013000000230000000000000000
#0303b1:000000000000000000000000005300000000000000000000
#030320:0000000000130000
#030360:00000023
#0303b1:00000013
#030371:0000000000000023
#031371:130000000023000000000000000000000000000000000000
#0313b1:000000000053000000000000000000000000000000000000000000000000000000000000000000000000000000000000
#031320:000000000013000000000000000000000000000000000000
#031360:0000002300000000
#031360:000000000000000000000000130000000023000000000000
#031320:000000000000000000000000000000000000000000000000000000000053000000000000000000000000000000000000
#032320:13
#032360:0023000000000000
#033370:13
#0333b0:0023000000000000
#033320:000000000013000000000000000000000000000000000000
#033360:002300
#033370:000000000000000000000013000000230000000000000000
#0333b0:000000000000000000000000005300000000000000000000
#033320:0000000000000013
#034360:23
#0343b0:000000130023000000000000000000000000000000000000
#034360:001300
#034320:000000000000000000000023000000000000000000000000
#034360:000000000000000000000000000000000000000013230000
#034320:000000000000000000000000000000000000000000000013
#035320:23
#0353b0:0000000000130000
#035370:00000023
#047360:1323
#047320:00530000
#047360:0000000000130000
#047320:00000023
#047320:000000000013
#048360:005300000000
#048320:0023
#048320:0000000000130000
#048360:00000023
#048360:000000000013
#049320:005300000000
#049360:0023
#049360:0000000000130000
#049320:00000023
#0513b0:0013
#051370:0000000000230000
#051321:000000000000000000000000000000130023000000000000
#0523b1:1333000000000000
#052321:00230000
#052320:0013000000000000
#0523b0:00230000
#052320:000000000000000000000013000000230000000000000000
#052360:000000000000000000000000005300000000000000000000
#0523b1:0000000000130000
#052371:000000000000000053230000
#052320:00000013
#052360:000000000000000000000000000000000000005300230000
#053370:13
#0533b0:0023000000000000
#053320:000000000013000000230000000000000000000000000000
#053360:000000000000005300000000000000000000000000000000
#053360:0013
#053320:0000000000230000
#0543b0:13
#054370:0023000000000000
#055370:13
#0553b0:0023000000000000
#055320:000000000013000000000000000000000000000000000000
#055360:002300
#055370:000000000000000000000013000000230000000000000000
#0553b0:000000000000000000000000005300000000000000000000
#055320:0000000000000013
#056360:23
#0563b0:0013000000000000
#056370:000000000023000000000000000000000000000000000000
#056320:000000000000000000000013000000230000000000000000
#056360:000000000000000000000000005300000000000000000000
#0563b0:000000000000000000000000000000000000000013230000
#056320:000000000000000000000000000000000000000000000013
#057320:23
#057371:13
#0573b1:0023000000000000
#057360:0013000000000000
#057320:000000000023000000000000000000000000000000000000
#057320:0000001300000000
#057360:000000000000000000000023000000000000000000000000
#057360:0000000000130000
#057320:00000023
#061370:13230000
#0613b0:0033000000000000
#061320:0000001323000000
#0613b0:0000000000132300
#0623b0:1300000000530000
#062370:000000000033000000000000000000000000000000000000
#063370:23
#063321:1300000000530000
#063361:000000000033000000000000000000000000000000000000
#064361:23
#0643b0:13
#064370:000000000033000000000000000000000000000000000000
#0643a0:0000000000540000
#065360:34240000
#065380:005400540054005400540054000000000000000000000000000000000000000000000000000000000000000000000000
#065340:005454545454000000000000000000000000000000000000
#066370:13
#0663b0:0023000000000000
#066360:0000000000130000
#066320:00000023
#066370:0000000000000013
#0673b0:23
#069320:1c
#069370:000000000022000000000000000000000000000000000000
#071360:0000132300000000
#071320:00000000005300000000000000000000
#0713b1:0000001323000000
#071371:00000000000000530000000000000000
#071360:0013
#071320:0000000000230000
#071371:000000000000000000000000000000130023000000000000
#0713b1:000000000000000000132300
#072361:00130000
#072321:000000000000005300230000000000000000000000000000
#0723b1:0013
#072371:000000000000000000000000005300230000000000000000
#073371:0000132300000000
#0733b1:00000000005300000000000000000000
#073320:0000001323000000
#073360:00000000000000530000000000000000
#073371:0013
#0733b1:0000000000230000
#073360:000000000000000000000000000000130023000000000000
#073320:000000000000000000132300
#074370:00130000
#0743b0:000000000000005300230000000000000000000000000000
#074320:0013
#074360:000000000000000000000000005300230000000000000000
#075320:1323000000000000
#0753b0:0000132300000000
#075320:0000000013230000
#0753b0:0000000000001323
#076350:1323000000000000
#076380:0000132300000000
#076350:0000000013230000
#076380:0000000000001323
