This file was generated by Ched 2.6.4.0.
#TITLE ""
#ARTIST ""
#DESIGNER ""
#DIFFICULTY 0
#PLAYLEVEL
#SONGID ""
#WAVE ""
#WAVEOFFSET 0
#JACKET ""
#REQUEST "ticks_per_beat 480"
#00002: 4
#BPM01: 128
#00008: 01
#TIL00: ""
#HISPEED 00
#MEASUREHS 00
#00018:14
#00014:0014
#0011a:1414
#00114:00140000
#00214:1414
#0021a:00140000
#00318:1414
#00312:00140000
#00412:1414
#00418:00140000
#00614:1414
#0061a:00140000
#00812:1414
#00818:00140000
#01012:14
#01018:00140014
#01014:0014
#01112:14
#0111a:0014
#01418:1414
#01412:00140000
#0161a:1414
#01614:00140000
#0181a:14
#01814:00140014
#01818:0014
#0191a:14
#01912:0014
#01214:1414
#01218:00140014
#02018:1414
#02014:00140014
#02614:0014
#02618:0000000000000014
#02712:14
#0271a:0014
#02714:0000001400000000
#02718:0000000000000014
#02914:00140000
#02918:0014
#02912:00000014
#0291a:24
#02910:41
#03112:00140000
#0311a:0014
#03114:00000014
#03118:14
#0321a:14000014
#03216:00140000
#03212:0014
#03318:00140000
#03314:0014
#0331a:00000014
#03312:24
#03412:14000014
#03416:00140000
#0341a:0014
#0351a:14
#03512:00140000
#03518:0014
#03514:00000014
#0361a:14000014
#03712:14
#0371a:00140000
#03714:0014
#03718:00000014
#03812:14
#03814:00000014
#03918:14140000
#03914:00001414
#0401a:14
#04012:00140000
#04018:0014
#04014:00000014
#0411a:14000014
#04112:00140000
#04116:0014
#0211a:14
#02118:00140000
#02214:14
#02212:00140000
#02318:14
#0231a:00140000
#02412:14
#02414:00140000
#02812:14
#02814:00140000
#05014:1414
#05018:00140014
#05112:1414
#05116:00000014
#0511a:00240000
#0511f:00210000
#0521a:14
#05216:00140014
#05212:0014
#05210:00410000
#0531a:1414
#05316:00000014
#05312:00140000
#05416:00140014
#05412:14
#0541a:0014
#05518:00140000
#05514:0014
#0551a:00000014
#05512:24
#05612:14000014
#05616:00140000
#0561a:0014
#0571a:14
#05712:00140000
#05718:0014
#05714:00000014
#0581a:14000014
#05912:14
#0591a:00140000
#05914:0014
#05918:00000014
#06012:14
#06112:1414
#0611a:00140000
#06116:00000014
#06110:41
#0621a:14
#06214:00140000
#06212:0000000000140000
#0631a:00140000
#06314:0014
#06318:00000014
#06412:14
#06418:00140000
#0641a:0000000000140000
#06514:0014
#06518:00000014
#06612:14
#0661a:00140000
#06614:0014
#06618:00000014
#0671a:00000014
#06816:14
#06812:00140000
#06818:0014
#06814:00000014
#0691a:14
#07112:14
#07118:00140000
#07114:0014
#07110:41
#07418:14
#07414:00140000
#0741a:0014
#0721a:14
#07214:00140000
#07218:0014
#07314:14
#07318:00140000
#07312:0014
#07512:14
#0751a:00140000
#07514:0014
#07518:00000014
#07612:14
#0761a:00140000
#07614:0014
#07618:00000014
#07712:14140000
#0771a:00001414
#07814:14140000
#07818:00001414
#0431f:11
#04714:0034
#04713:00340000
#04819:00340000
#04818:0034
#00510:41
#01710:41
#03352:14
#0295a:14
#0215a:64
#02158:00240000
#02254:64
#02252:00240000
#02358:54
#0235a:00240000
#02452:54
#02454:00240000
#02852:54
#02854:00240000
#0695a:14
#06254:00640000
#06252:0000000000240000
#06458:00540000
#0645a:0000000000240000
#0515a:00140000
#05552:14
#0053a0:14
#005380:0024
#007380:14
#0073a0:0024
#0093a0:14
#009380:0024
#013320:14
#013340:0024
#015340:14
#015320:0024
#017320:14
#017340:0024
#0213a0:1424
#021380:00540000
#022340:1424
#022320:00540000
#023380:1424
#0233a0:00540000
#024320:1424
#024340:00540000
#0253a0:14
#025380:00240000
#025320:0014
#025340:00000024
#026380:14
#0263a0:00240000
#028320:1424
#028340:00540000
#030380:14
#0303a0:00240000
#030340:0014
#030320:00000024
#036320:00140000
#036340:0024
#0383a0:00140000
#038380:0024
#043320:14
#043340:0034
#044320:34
#044340:0024
#0453a0:14
#045380:0034
#0463a0:34
#046380:0024
#047320:14
#047330:00340000
#047340:00003424
#0483a0:14
#048390:00340000
#048380:00003424
#049320:14
#049340:00240000
#0493a0:0014
#049380:00000024
#058320:00140000
#058340:0024
#0603a0:00140000
#060380:00000024
#062340:00140000
#062320:0000000000540000
#063340:24
#064380:00140000
#0643a0:0000000000540000
#065380:34240000
#067320:14
#067340:00240000
#079320:14
#079360:0034
#080320:24
