This file was generated by Ched 2.7.0.0.
#TITLE ""
#ARTIST ""
#DESIGNER ""
#DIFFICULTY 0
#PLAYLEVEL
#SONGID ""
#WAVE ""
#WAVEOFFSET 0
#JACKET ""
#REQUEST "ticks_per_beat 480"
#00002: 4
#BPM01: 190
#00008: 01
#TIL00: ""
#HISPEED 00
#MEASUREHS 00
#00118:14
#00214:14
#00318:14
#00414:14
#0051a:14
#00612:14
#01018:00140000
#01012:00000014
#0121a:00140000
#01214:00000014
#01318:00140000
#01312:00000014
#01418:00140000
#01412:00000014
#01514:00000014
#0151a:00140000
#02912:0014000000000000
#0291a:0000000000140000
#03014:0014000000000000
#03018:0000000000140000
#03314:00140000
#03310:00410000
#03418:14
#03414:00000014
#03518:0014
#03612:00140000
#0371a:14
#03712:00000014
#0381a:0014
#04712:0000002600000016
#04818:0000001600000016
#04912:0000001600000000
#04918:0000000000000016
#04910:0000004100000000
#05118:0000001600000016
#05212:0000001600000016
#05512:0000001600000000
#05518:0000000000000016
#05612:0000001600000000
#05618:0000000000000016
#05918:0000001600000000
#05912:0000000000000016
#05818:0000000000000016
#05812:0000001600000000
#06618:0000000000000014
#06814:0014000000000000
#0691a:0000001400000000
#07012:0000000000140000
#0711a:0000000000000014
#07312:0014000000000000
#10818:00160000
#10812:00000016
#11012:00000016
#11118:00160000
#11112:00000016
#11212:00160000
#11218:00000016
#05418:0000000000000016
#05412:0026002600000000
#09512:00000016
#09518:00160000
#09412:00000016
#09418:00260000
#09812:00160000
#09818:00000016
#09912:00160000
#09918:00000016
#10212:00160000
#10218:00000016
#10118:00000016
#10112:00160000
#09718:00000016
#09712:26260000
#10012:00000016
#10018:00160000
#0111a:00140000
#01114:00000014
#0161a:00140000
#00912:00000014
#05718:0000001600000000
#05712:0000000000000016
#09018:00000016
#09012:00260000
#0901f:00210000
#09112:00160000
#09118:00000016
#09110:00410000
#0811f:00110000
#05318:0000002600260000
#09618:00262600
#04319:34
#04318:00000034
#04014:00000034
#04013:34
#0761a:0000000000340000
#0751a:0034000000000034
#01710:0041000000000000
#07710:0000004100000000
#06510:0000000000410000
#0073a0:14000000000000000000000000340000
#0083a0:00000000000000000034000000000000
#0093a0:0024000000000000
#017320:0014000000000000
#018320:0034000000000000
#019320:0034000000000000
#020320:0024000000000000
#0213a0:0014000000000000
#0223a0:0034000000000000
#0233a0:0034000000000000
#0243a0:0024000000000000
#025340:0014000000000000
#026340:0024000000000000
#027380:0014000000000000
#028380:0024000000000000
#031320:0014000000000000
#032320:00240000
#039320:00140000
#040330:34
#040340:00000034
#041340:0024
#0423a0:00140000
#043390:34
#043380:00000034
#044380:0034
#045380:0035
#046380:0000002600000000
#050320:0000001600000026
#060320:0000001600000026
#061380:0000001600000026
#062320:0000001600000000
#063320:0000003600000000
#064320:00000036000000000000000000000036
#065320:0000000000260000
#0743a0:0000001400000000
#0753a0:0034000000000034
#0763a0:0000000000340000
#077380:0000003400000000
#0803a0:0000002400000000
#081320:00140000
#082320:00240000
#083380:00140000
#084380:00240000
#085340:00140000
#086340:00240000
#0873a0:00140000
#0883a0:00340000
#0893a0:00240000
#092320:00160000
#092340:00000036
#093320:00260000
#103320:00160026
#104380:00160026
#105320:00160000
#106320:00360000
#107320:00260000
#109380:00160036
#110380:00260000
#113320:00160036
#114320:00360000
#119320:00000000002400000000000000000000
