This file was generated by Ched 2.7.0.0.
#TITLE ""
#ARTIST ""
#DESIGNER ""
#DIFFICULTY 0
#PLAYLEVEL
#SONGID ""
#WAVE ""
#WAVEOFFSET 0
#JACKET ""
#REQUEST "ticks_per_beat 480"
#00002: 4
#BPM01: 190
#00008: 01
#TIL00: ""
#HISPEED 00
#MEASUREHS 00
#00112:1300000000130000
#0011b:00000000001300000000000000000000
#00117:13
#00215:1300000000130000
#00217:00000000001300000000000000000000
#0021b:13
#00318:1300000000130000
#00316:00000000001300000000000000000000
#00312:13
#0041b:1300000000130000
#00412:00000000001300000000000000000000
#00416:13
#00518:0000001300130013
#00515:00131313
#00512:00000000000000000000000000000013
#00618:1300131300130013
#0061b:0013000013001300
#00615:00130013000000130013000000130000
#00612:00000000001300000000001300000013
#00915:0000001300130013
#0091b:00000013
#00912:0013000000001300
#00918:0013
#00916:0024000000000000
#01018:0013000000000000
#01016:00130000
#01014:0000001300001300
#0101b:1300130000130000
#01019:0000001300001300
#01012:0000000013000013
#01015:00130000000000000000000000000000
#01017:0000000013000013
#0131b:0000001300001313
#01312:0013000013130000
#01314:13
#01319:13
#01316:0024000000000000
#01418:00001300000013000000000000130000
#01412:1300000000130000
#01415:00130000000000001300000013001300
#0141b:00130000
#01613:00120012
#01619:0000001200000000
#01616:0000000012000012
#0161c:0000000000120000
#01615:0013000000000000
#01618:00130000000000000000000000000000
#0161b:13
#01719:12
#0171c:0012000000000000
#01716:0012000000000000
#01712:0000003232323232
#01710:0041000000000000
#03316:0000001200120012
#0331a:00220012
#0331c:0012
#03318:00000000000000000000000000120000
#03314:00220000
#03310:00410000
#03416:0012000000000000
#03414:2200001200002200
#03412:0000000000120000
#03418:0000000012000012
#0341a:00120022
#04718:00000000000000000000130000000013
#04715:0000001300001300
#04712:0000000000130013
#0471b:0000002300001300
#0481b:0013000000130013
#04815:13000000130000000000130000000013
#04812:0000001300001300
#04818:0000001300001300
#04918:13
#04912:0013000000000013
#0491b:0000131300130013
#04915:00000013
#04916:0000001300000000
#04910:0000004100000000
#0501b:0000131300001300
#05012:00001300000000000013000000001300
#05016:0000001300000000
#05115:13000013000000000000000000000000
#05114:0000000000130000
#0511b:0000001300001300
#05112:0000002300000013
#05118:0013130000000013
#05312:0000000000131300
#05318:0013000000131300
#05315:13130000
#0531b:13
#0551b:1300000000000013
#0551a:0013000000000000
#05519:00130000
#05515:13
#05514:0013000000000000
#05513:00130000
#05516:0000000000130000
#05512:0000002300001300
#05518:0000001300000000
#0571b:13001313
#05718:0013000000130000
#05715:13131313
#05712:0000001300000013
#05815:13
#05818:0013000000000000
#0581b:13130000
#05812:00130000
#05816:0000001300000000
#0591a:13
#05918:00130000
#05913:00000013
#05914:0000000000000013
#05919:0013000000000000
#05912:0000000000130000
#05917:0000001300000000
#06015:13
#06016:0013000000000000
#0601b:0000001300000013
#06012:0000000000130000
#06019:0033
#06014:00000033
#06119:33000013
#06112:0014000000000023
#06116:0000140000230000
#0611b:0000000000130000
#06117:0000000000000013
#0611a:0000002400000000
#0621b:0000130000130000
#06212:00000000000013000000000000000013
#06216:0023000000130000
#06218:0000001300000000
#06217:00000000000000000000000000000013
#06616:0012000000000000
#0661c:0000000000120000
#06716:0012000000000012
#06512:0024240000240012
#0651a:0024240000240000
#06510:0000000000410000
#07418:1300002300000000
#07415:00001323
#07412:0000000000130000
#0741b:0013000000002300
#07315:0000000000000013
#07318:0000001300000000
#07518:1300130023000023
#0751b:0000001300000000
#07515:0023000000001300
#07512:0023
#07615:13230000
#07612:0013000000000013
#07616:0000000000130000
#0761b:00230000
#07712:0000001300000000
#07717:0000001300000000
#07710:0000004100000000
#07816:00000000000000000000000000130000
#0781b:00000000000000000000000000130000
#08716:0000000000120000
#08718:0012
#0871a:00120000
#08712:12
#08714:00120000
#08817:0000000012120000
#0881c:12
#0881a:00120000
#08814:00120000
#10712:0023000013000000
#10716:00000000000000000014000013000000
#10714:000000003333000000000000000000130000000000000000
#10718:000000000000000034003400000000000000000000000000000000000000000000140000000000000000000000000000
#1071a:00000000000000000000000000140000
#11316:00001400000000000013001300000000
#1131b:0000000013130000
#11314:00000000000000000000000000130013
#11319:0000000000001313
#11312:00140000
#1131a:24140000
#11412:00130000000000000000000000000000
#11417:1313000000000000
#02314:12
#02312:0012000000000000
#02318:0012000000000000
#0301b:0000000013130000
#03012:1313000000000000
#03016:0000001300000000
#03017:0000000000000013
#03112:1313
#0311b:0013000013000000
#03115:00000013
#03118:00000013
#03116:00130000
#0361b:0000000000130000
#03619:00231300
#03617:0000001300000000
#0361c:0012000000000000
#0361c:0012000000000000
#03616:12
#03612:00242424
#02712:0014000000130000
#02718:0000001300000000
#02715:0013
#0271a:0014000000000000
#0271b:0000000000000023
#02716:0000000000000023
#02717:0000000000230000
#02415:0000000016161616
#0251b:0000001300000000
#02518:0013
#02515:0000001300130000
#02512:0024000000001300
#0251a:0024000000000000
#0261b:0000000013130000
#02616:0013001300130000
#02612:13
#02812:0000000013130000
#02817:0023001300130000
#02912:0013001300000000
#0291b:0000000000130013
#03214:00140000
#03212:000000000000001400000000
#03213:000000000014000000000000
#03218:00240000
#03219:000000000024000000000000
#0321a:000000000000002400000000
#02112:0012000000120000
#02116:0000001200000012
#0211c:0000001200000012
#02118:0000000000120000
#02216:0000001200000000
#02212:0012000000120000
#02218:0012000000120000
#0221c:0000001200000012
#03916:1300000014140000
#03914:0013000000000000
#0391a:2400000000000014
#03912:00240000
#0411a:0014000000000014
#04112:14000014
#04116:0000001424000000
#04512:130000141414
#04514:001300000000
#04516:000013240000
#04518:000024
#0451a:000000000024
#0451b:232323000000
#05418:0000000000000013
#0541b:0000001313000000
#05415:0000001313000000
#05412:0000000000000013
#03518:0012000000120000
#03516:00000000000012000012000000000000
#0351a:0000000022000012
#0351c:0000001200000000
#03514:00120012
#03512:12
#03717:1313
#03719:0013001300130000
#0371b:00130000
#03716:0000000000000013
#03712:24242400
#03714:00000023
#0371a:00000024
#03812:0013000000001300
#03814:1300130000000013
#03816:0000001300000000
#0381a:24242424
#04016:0000141400002400
#0401a:0000000000140000
#04012:24
#04616:14
#04618:001400000000
#0461a:001400
#04612:242424000000
#0441b:000000131313
#04412:1423
#0441a:0014000000000000
#04418:00140000
#04416:000000000000000000140000000000000000000023000000
#04414:000023
#01119:13
#0111b:0013000000001300
#01114:13
#01118:0000001300130013
#01112:00000013
#01115:0013
#01116:0024000000000000
#0151b:1313000013130000
#01512:1300001300001313
#01516:0024000000000000
#05218:13130000
#0521b:0000001300000013
#05219:0000000000130000
#05212:1300001300001300
#05215:0013000000000013
#05612:1300000000000013
#05613:0013000000000000
#05614:00130000
#05618:13
#05619:0013000000000000
#0561a:00130000
#05617:0000000000130000
#0561b:0000002300001300
#05615:0000001300000000
#09012:00261300
#09015:00000000000000000000130000130000
#0901b:0000230000000013
#09018:00001323
#0901f:00210000
#09112:1300130000000013
#0911b:0013000013000000
#09118:13000000160000000000130000130000
#09115:0013000013002300
#09110:00410000
#09216:13
#09219:0013000000000000
#09215:0013
#09218:0000000000130000
#09214:0013000000000000
#09217:00130000
#09212:0000230000131300
#0921b:13000023
#09314:0013000000000000
#09317:00130013
#09312:0000230000130013
#0931b:13000000000000130000000000001300
#09319:0013000000000000
#09418:1313260000000000
#0941b:0013
#09416:0000000000130000
#09417:0000000000000013
#09412:0000230000000013
#09415:00130000000000000000000000000000
#09414:00000023
#09419:00000023
#09519:13000023
#0951b:0013130000000013
#09512:00161300
#09517:0000000000130000
#09516:0000000000000013
#09514:13000023
#09619:13
#09612:0013000000000000
#09614:13
#09615:00240000
#0961a:00240000
#09616:0000002400000000
#09617:0024
#09618:0000000000240000
#09613:0000000000240000
#10019:13
#10017:0013000000000000
#10015:00130000
#10014:0014
#10018:00000014
#1001a:0000001400000014
#10012:0000001400000014
#10016:0000000000140000
#10114:1400000000000013
#1011b:0013130000001300
#10112:00131300
#10116:0014000000000000
#10214:0013000000000000
#10212:1313
#10216:00130013
#10217:1313
#10219:0000000000130013
#1021b:00230013
#10317:1313
#10316:00130013
#10312:2323
#1031b:00230023
#10319:0000000000330000
#10314:0000003300000033
#09712:2400000000001313
#09718:0000000000001313
#09717:24
#09716:0024000000000000
#09715:00240000
#09714:0000002400000000
#09719:0000002400000000
#0981b:1313000013000013
#09815:1313000000001313
#09816:0000001300000000
#09817:0000000000130000
#09812:00130000
#09818:00230000
#1041a:14
#10416:0014240023000000
#10419:0000000000130000
#1041b:0013
#10417:00000013
#10412:23000023
#1091b:0023000013000000
#10916:0000000000000014
#10912:23232323
#01818:0012000000000000
#0181c:0000003232320000
#01912:0012000000000000
#01916:0000003232323232
#11016:00000000230000000014000000000000
#11017:00000000000000000000001400000000
#11012:2324
#11013:0000000000240000
#11014:00000024
#11115:00140000000000000000000000000000
#11116:00000014000000000000001400000000
#11117:00000000000000000014000000000000
#11118:24
#11119:0024000000000000
#1111a:00240000
#11114:0024
#11112:00000024
#11113:0000000000240000
#11216:00140000000000002400000024000000
#11215:00000014000000000000000000000000
#1121a:24
#11219:0024000000000000
#11218:00240000
#11212:0024
#1191b:00130000000000000000000000000000
#11916:00130000000000000000000000000000
#1051a:0014
#10516:23000000000000000013000000001400
#10518:0000130000140000
#10514:00000000130000000000001300000000
#10517:00000014
#10513:00000000000000000000000000130013
#1051b:0013000000000000
#06818:0000000000120000
#0681c:0000001200000000
#06812:0024000000000000
#0681a:0024000000000000
#06912:0012000000000000
#06918:0000000000120000
#07018:0000001200000000
#07012:0000000000240000
#0701a:0000000000240000
#0811c:00120000
#08112:00120000
#0811f:00110000
#08116:0000000000320000
#08218:00120000
#08216:00120000
#08212:0000000000320000
#0831c:00120000
#08312:00120000
#08318:0000000000320000
#08418:00120000
#08416:00120000
#0841c:0000000000320000
#10617:14
#10614:000000130000000000000000000000000000000000000000000000000000000033003300000000000000000000000000
#10618:000000140000000000000000000000003434000000000000
#10616:00000013000000000000000000000000
#1061a:00240000
#10612:0000000000230000
#09918:1313000000001300
#09912:1313000013000013
#09917:0000001300000000
#09916:0000000000130000
#0991b:0000130000000013
#09915:00230000
#10817:0013230000002300
#10812:00230000
#10816:0023
#04316:0000141400002400
#04314:0014000000000014
#04318:0014
#0431a:0000000000140000
#04312:24
#04216:0014000014140000
#04214:0000001400000000
#04218:00000014
#0421a:0000000000000014
#04212:00240000
#01215:0013000000000000
#01217:00130000
#01219:0000001300001300
#01212:1300130000130000
#01214:0000001300001300
#0121b:0000000013000013
#01218:00130000000000000000000000000000
#01216:0000000013000013
#0201c:0012000000000000
#02018:0000003232320000
#0851c:0000000000000012
#08516:00120000
#0861c:12
#08612:0000000000000012
#08618:00120000
#0071a:24
#00715:00240000
#00719:00000000000000240000000000000000
#00714:0000000000240000
#00718:00000000000000000000000000240000
#00813:24
#00817:00000024000000000000000000000000
#00812:0000002400002424
#00816:00000000000000000024000000000000
#0081a:0000000000002424
#0631a:0000002400000000
#06315:0000000000240000
#06319:00000000000000000000000000240000
#06312:0000002400000000
#06414:24
#06418:00000024000000000000000000000000
#06413:0000002400000000
#06417:00000000000000000024000000000000
#06412:00000024
#06416:00000000000000000000000000000024
#0475b:0000001300000000
#05952:0000001300000000
#06057:0000000000130000
#0605b:0013005300000053
#06052:0000001300630000
#06056:0053000000000013
#06157:0013000000000053
#0615a:0000001400000000
#07856:00000000000000000000000000230000
#0785b:00000000000000000000000000230000
#07752:0000006300000000
#07757:0000006300000000
#02752:0014000000000000
#0275a:0014000000000000
#0265b:0000000000530000
#02656:0000000000530000
#02852:0000000000630000
#02857:0000000000630000
#03155:00000023
#03158:00000023
#03152:0053
#0315b:0053
#03156:00230000
#00257:00000000002300000000000000000000
#0025b:63
#0015b:00000000002300000000000000000000
#00157:63
#00452:00000000002300000000000000000000
#00456:53
#00356:00000000002300000000000000000000
#00352:53
#00956:0014000000000000
#02152:0062000000620000
#02156:0000002200000022
#02256:0000006200000000
#02252:0062000000620000
#02352:0052000000000000
#02358:0052000000000000
#0555b:0000000000130000
#05552:0000001300002300
#05556:0000000000630000
#05558:0000005300000000
#02952:0013000000000000
#0295b:0000000000130000
#03956:0000000000140000
#03952:00140000
#0415a:0014000000000014
#04156:0014
#04852:0000001300000000
#0505b:0000001300000000
#05052:00000000000000000023000000000000
#05056:0000006300000000
#05352:00000013
#05358:00000013
#04056:0000001400001400
#04052:14
#01352:0053000000000000
#01356:0044000000000000
#0155b:0063000000000000
#01556:0034000000000000
#0545b:0013
#05455:0013
#05652:0000000000130000
#0565b:0000001300002300
#05657:0000000000530000
#05655:0000006300000000
#06256:0000000000530000
#06252:00000000000053000000000000000023
#0625b:0000000000530000
#06257:00000000000000000000000000000023
#07356:0013000000000000
#09158:00160000
#0935b:00000000000000230000000000000000
#09357:00530000
#09352:00130000
#09552:00160000
#0955b:00230000
#09257:00530000
#09252:00130053
#0925b:00000013
#09052:00160000
#10357:6363
#10356:00530053
#10352:3313
#1035b:00130013
#10956:0000000000000024
#1095b:1353
#01858:0062000000000000
#0175c:0062000000000000
#01756:0062000000000000
#01952:0062000000000000
#09858:00130000
#09856:0000002300000000
#09857:0000000000230000
#0985b:0063
#09852:00533300
#10456:00140000
#10457:00000053
#10452:13
#1195b:00230000000000000000000000000000
#11956:00230000000000000000000000000000
#11054:00000014
#1105a:00440000
#1115a:00140000
#11152:00000014
#11258:00140000
#1125a:00000014
#11252:0014
#0815c:00520000
#08152:00520000
#08258:00520000
#08256:00520000
#0835c:00620000
#08352:00620000
#08458:00620000
#08456:00620000
#04956:0000006300000000
#0495b:0000000000000063
#05252:0000002300000000
#0525b:0000001300000000
#06552:0000000000140000
#0655a:0000000000140000
#09458:00160000
#09452:00230000
#09957:0000002300000000
#09956:0000000000230000
#09952:0053
#09955:00130000
#0995b:00634300
#10257:23
#10252:0063
#10256:00000023
#1025b:00430000
#10152:00135300
#1015b:00530053
#10157:0013
#04356:0000001400001400
#04352:14
#0445a:0014000000000000
#04256:0000000000140000
#04252:00140000
#08857:0000000000220000
#0515b:0000002300000000
#05152:0000001300000000
#0205c:0062000000000000
#01156:0014000000000000
#02552:0014000000000000
#0255a:0014000000000000
#0745b:00000013
#07455:00000013
#07558:0013
#07552:0013
#07655:00130000
#0765b:00130000
#05852:0000000000130000
#05856:0000005300000000
#09653:0000000000140000
#09658:0000000000140000
#09754:0000001400000000
#09759:0000001400000000
#10852:00130013
#1085b:0013
#11352:14340000
#1135a:00440000
#08756:0000000000120000
#10558:00130000
#10554:00130000
#03052:0013000000000000
#0305b:0000000000130000
#001370:1300000000230000
#0013b0:00000000005300000000000000000000
#0023b0:1300000000230000
#002370:00000000005300000000000000000000
#003320:1300000000230000
#003360:00000000005300000000000000000000
#004360:1300000000230000
#004320:00000000005300000000000000000000
#005380:13230000
#013320:0013000000000000
#013360:0000002300000000
#013380:0000000013230000
#013350:0000000000001323
#014320:0000132300000000
#0143b0:0000000013230000
#0153b0:0013000000000000
#015370:0000002300000000
#015350:0000000013230000
#015380:0000000000001323
#0173c0:0012000000000000
#018380:0032000000000000
#0183c0:0000003232320000
#0193c0:0022000000000000
#017361:0012000000000000
#017321:0000003232323232
#018321:0022000000000000
#019321:0012000000000000
#019361:0000003232323232
#020361:0022000000000000
#0203c0:0012000000000000
#020380:0000003232320000
#021380:0022000000000000
#021321:0012000000320000
#021361:0000003200000032
#022321:0032000000320000
#022361:0000003200000022
#023321:0012000000000000
#024361:0022000000000000
#023380:0012000000000000
#0243c0:0022000000000000
#025370:00000013
#026370:23
#0263b0:0013002300000000
#0263b0:0000000000130000
#026370:0000000000000023
#026361:0000000000130000
#026321:0000000000000023
#028321:0013002300000000
#028321:0000000000130000
#028361:0000000000000023
#028370:0000000000130000
#0283b0:0000000000000023
#029370:0013002300000000
#029360:0000000000130023
#030370:0013000000000000
#0303b0:0000002300000000
#030360:0000000000130000
#030320:0000000000000023
#031360:0013530000000000
#031320:0033
#031350:00000053
#032320:23
#0313b1:0013
#031381:00000053
#0323b1:23
#0363b1:00000013
#036391:00000000000000000000000000330000
#036371:0000000000000023
#038361:0013
#038341:00000000000000000033000000000000
#038321:0000000000230000
#039361:00140000
#039381:0000003400000000
#0393a1:0024
#039321:0000000000140000
#039341:00000034
#039361:0000000000000024
#040361:14
#040381:0034000000000000
#0403a1:00240000
#040321:0000001400000000
#040341:0034
#040361:0000000000240000
#0403a1:00000014
#040381:0000000000000034
#041361:24
#041361:0014000000000000
#041341:00340000
#041321:0000002400000000
#0413a1:0014
#041381:0000000000340000
#041361:00000024
#041361:0000000000000014
#042341:34
#042321:0024000000000000
#042361:00140000
#042381:0000003400000000
#0423a1:0024
#042321:0000000000140000
#042341:00000034
#042361:0000000000000024
#043361:14
#043381:0034000000000000
#0433a1:00240000
#043321:0000001400000000
#043341:0034
#043361:0000000000240000
#0433a1:00000014
#043381:0000000000000034
#044361:24
#044361:0014000000000000
#044341:00340000
#044321:0000002400000000
#049361:0000001300000000
#049321:0000000000230000
#0493b1:0000000000000013
#050371:0023000000000000
#050361:0000001300002300
#050321:00000000000000000053000000000000
#0513b1:0000001300000000
#051371:0000000000230000
#052321:0000001300000000
#052361:0000000000230000
#053321:0000001300000000
#053351:0023
#053380:0000001300000000
#0533b0:0023
#0543b0:0013000000000000
#054380:00230000
#054351:0013000000000000
#054321:00230000
#055381:0000001300000000
#0553b1:0000000000230000
#055360:0000000000130000
#055320:00000053
#055350:0000000000000023
#056350:0000001300000000
#056320:0000000000230000
#056371:0000000000130000
#0563b1:00000053
#056381:0000000000000023
#058361:0000001300000000
#058321:0000000000230000
#058370:0000000000130000
#0583b0:0000000000000023
#058361:0000000000000013
#059321:0000002300000000
#059371:0000000000130000
#0603b1:0023000000000000
#060360:0013000000000000
#060320:0000002300000000
#0603b1:0000001300000000
#060391:0033
#060371:0000000000230000
#060320:0000000000130000
#060340:00000033
#060360:0000000000000023
#0603b1:0000000000000013
#061391:33
#061371:0023000000000000
#061371:0000000000000013
#0623b1:0023000000000000
#062321:00000000000013000000000000000053
#062361:0000000000330000
#063361:00230000
#0623b0:0000000000130000
#062370:00000000000000000000000000000053
#0633b0:00230000
#065380:0000000000000012
#0663c0:0032000000000000
#066380:0000002200000000
#066321:0000001200000022
#066361:0000000000320000
#066380:0000000000000012
#0673c0:0032000000000000
#067380:0000002200000000
#067321:0000001200000000
#067361:0000000000220000
#067380:0000000000120000
#0673c0:0000000000000022
#068360:0000001200000022
#068320:0000000000320000
#0683c1:0000000000000012
#069381:0032000000000000
#0693c1:0000002200000000
#069360:0000001200000022
#069320:0000000000320000
#0693c1:0000000000000012
#070381:0022000000000000
#070360:0012000000000000
#070320:0000002200000000
#070320:0000000000000013
#071340:23
#071371:13
#071391:0023000000000000
#071340:0013000000000000
#071360:00230000
#071391:00130000
#0713b1:0000002300000000
#071360:0000001300230000
#0713b1:0000000000130000
#071391:00000023
#071360:00000013
#071340:0000000000000023
#071391:0000000000000013
#072371:23
#072340:13
#072320:0023000000000000
#072371:0013002300000000
#072320:0000001300000000
#072340:0023
#072371:0013
#072391:0000000000230000
#072340:0000000000130000
#072360:00000023
#072391:00000013
#0723b1:0000000000000023
#072360:0000000000000013
#073360:0023000000000000
#073320:0000001300000000
#073350:0000000053230000
#073381:0000000000130000
#0733b1:0000000000005323
#074351:0013000000000000
#074321:0000532300000000
#076381:00000000000000130000000000000000
#0763b1:0000000000330000
#076371:0000000000000033
#0773b1:0023000000000000
#077360:0013000000000000
#077320:0000003300000000
#078360:00000000000000000000000000530000
#080320:00000000002300000000000000000000
#077371:0000001300000000
#0783b1:00000000000000000000000000530000
#080371:00000000002300000000000000000000
#0813c1:00120000
#081381:0000000000000032
#082381:32320000
#0823c1:0000000000000032
#0833c1:22
#081320:00120000
#081360:0000000000320032
#082360:22
#082360:00120000
#082320:0000000000320032
#083320:22
#0833c0:00120000
#083380:0000000000320032
#084380:22
#083321:00120000
#083361:0000000000000032
#084361:32320000
#084321:0000000000000032
#085321:22
#084380:00120000
#0843c0:0000000000320032
#0853c0:22
#0853c0:00120000
#085380:0000000000220000
#085321:0000000000120000
#086361:22
#086321:00120000
#086361:0000000000220000
#0863c0:0000000000120000
#087380:22
#088370:0000000000120000
#089320:0000002c00000000
#092370:00130000
#0923b0:0023
#092320:00000013
#093360:23
#093370:0000130000230000
#0933b0:00000000000000530000000000000000
#094320:00130000
#094360:0023
#0953b0:00130000
#095370:0023
#098320:00132300
#098360:0000005300000000
#0983b1:00001323
#098371:0000000000530000
#0993b1:00132300
#099371:0000005300000000
#099320:00001323
#099360:0000000000530000
#1013b0:00130000
#101370:0023
#101321:0013
#101361:00000023
#1013b0:00000013
#102370:53
#1023b0:00230000
#102320:0013
#102360:00000053
#103320:23
#103371:13
#1033b1:00230000
#103360:00130000
#103340:0000003300000000
#103320:0023
#103371:0013
#103391:0000000000330000
#1033b1:00000023
#103360:00000013
#103340:0000000000000033
#104320:23
#104370:00000013
#1053b0:23
#1063a0:0000140000003434
#106360:00000000005400000000340000000054
#106380:000000000000000000000000000000003434000000000000
#107360:00003400000000542400000000000000
#107380:000000003434000000000000000000000000000000000000
#1073a0:0000343400000000
#106321:0000000000130000
#106341:000000000000000000000000000000003333000000000000
#106361:00000023
#107321:0013000000000000
#107341:000000003333000000000000000000000000000000000000
#107361:00230000
#107360:0000000000000013
#107350:00000000000000000000000000000033
#108340:33
#108330:00330000000000000000000000000000
#108320:0023000000000000
#108370:00130000
#1083b0:0000005323000000
#108361:0013
#108321:0000000000532300
#108370:00000013
#1083b0:0000000000000053
#1093b0:23
#109321:13
#109361:0023000000000000
#1093b0:0013000033000000
#109370:00330000
#109360:0000000000000054
#1103a0:00240000
#112360:0014
#1123a0:0000000000542400
#112361:00000014
#112321:0000000000000054
#113321:24
#114321:00000013000000000000000000000000
#119361:53530000000000000000000000000000
#119321:00000000002300000000000000000000
#114370:00130000
#1193b0:53530000000000000000000000000000
#119370:00000000002300000000000000000000
