This file was generated by Ched 2.7.0.0.
#TITLE ""
#ARTIST ""
#DESIGNER ""
#DIFFICULTY 0
#PLAYLEVEL
#SONGID ""
#WAVE ""
#WAVEOFFSET 0
#JACKET ""
#REQUEST "ticks_per_beat 480"
#00002: 4
#BPM01: 190
#00008: 01
#TIL00: ""
#HISPEED 00
#MEASUREHS 00
#0011b:13
#00118:00000000001300000000000000000000
#00212:13
#00215:00000000001300000000000000000000
#00318:13
#0031b:00000000001300000000000000000000
#00415:13
#00412:00000000001300000000000000000000
#0051b:13
#00512:13
#00515:00131313
#00518:0000001300130013
#01012:00130000
#01018:0000001300000013
#01015:00001313
#0101b:0000000000130000
#01019:33
#01112:1300001300000000
#01116:00000013
#0111a:0024000000000000
#01114:0033
#01115:0000000000330033
#0121b:00130000
#01215:0000001300000013
#01218:00001313
#01212:0000000000130000
#01214:33
#0131b:1300001300000000
#01315:0013
#0131a:0000000000130000
#01314:00000013
#01319:0000000000000013
#01312:0024000000000000
#0091b:0000001300000000
#00917:00000013
#00912:0024000000000000
#00919:0033
#00918:0000000000330033
#01418:0013000000000000
#01413:1313
#01412:00130000
#01419:0000001300000000
#0141a:0000000000130000
#0141b:0000000000000013
#01414:00000013
#01515:13
#01512:0000001300000000
#01518:0013
#01513:0000000000130000
#01519:00000013
#01514:0000000000000013
#0151a:0024000000000000
#01615:0013000000000000
#0161a:1332
#0161b:0000003200000000
#01619:0000000000320000
#01618:0000000000003232
#02414:00001414
#02418:0000000000140014
#02515:0000001300003300
#02512:0023000000130000
#02518:0013
#0251b:0023000000000000
#0271b:0013000000000013
#02712:0013000000000013
#02718:0000001300130000
#02715:0013
#0291b:0013000000000000
#02915:0013001300000000
#02918:0000000000130013
#02912:0000000000130000
#03112:0013
#03115:13
#03114:0033000000000000
#03318:0000001300000013
#03315:0013
#0331b:0000000000130000
#03312:00230013
#03310:00410000
#0341b:0000000000000013
#03415:00000023
#03512:13
#03518:0013000000000000
#03515:00130000
#0351b:0000001300000000
#03615:0000001300000013
#03618:0013
#03612:0000000000130000
#0361b:00230013
#03712:0000000000000013
#03718:00000023
#0381b:13
#03815:0013000000000000
#03818:00130000
#03812:0000001300000000
#04518:333333130000
#04515:333333130000
#0451b:000000000033
#0451a:000033
#04512:000000000033
#04513:000033
#0391a:0013
#03914:0000000000130000
#03913:0000000000000013
#03919:00000013
#03916:0013000000000000
#03915:0000001300000000
#0391b:00230000
#04218:0013000000000000
#04215:0000000000000013
#04212:00230000
#04318:0000000000000013
#0431b:2300000000130000
#04312:00000023
#04313:00330000
#04119:13
#04115:0000001300000000
#04114:0013000000000000
#0411a:00130000
#04116:0000000000130000
#0411b:0023
#04017:0000000000130000
#04012:0013000000002300
#04018:23
#04715:0000000000130013
#0471b:0000002300001300
#04818:1300130000130013
#04812:0013001300001300
#04915:13130013
#0491b:0013001300000000
#04918:0000000000000013
#04910:0000004100000000
#0501b:0000001300000013
#05015:00130013
#05118:1300002300001300
#05112:0013000000000013
#05115:0000130000130000
#05215:1300001300001300
#0521b:0013000000000013
#05218:0000130000130000
#05318:1300001300000000
#05312:0013000000000000
#05315:00130000
#0541b:0000000000000013
#05415:0013000000000000
#05515:13
#05518:0013000000000000
#05512:0000130000000013
#0551b:0000001300000000
#05618:13
#05615:0013000000000000
#0561b:0000130000000013
#05612:0000001300000000
#05715:13130000
#0571b:0013000000000013
#05718:0000001300130000
#05712:00001313
#05812:0000130000000013
#05815:13
#05818:0013001300000000
#05915:1300001300000013
#05918:0013000000001300
#0591b:0000130000130000
#06012:1300000000130000
#06018:0013000000130000
#0601b:0000001300000013
#06015:0000001300000013
#0611b:0000002300000013
#06118:0013000000230000
#06112:0013000000000000
#06115:0000002300000023
#0611a:00330000
#06114:00330000
#06218:00130000
#06215:0000001300000000
#06212:0023000000130000
#07012:0000000000230013
#0701b:0000000000230000
#07117:13
#07114:0013000000000000
#07119:0000130000000013
#07116:0000001300001300
#0711b:0000000000130000
#07214:1300000000130000
#07217:0013000013000000
#07212:0000001300000000
#07219:00000013
#07312:0000000000000013
#07418:1300000000130000
#07412:0013000000002300
#07415:0013
#0741b:0000002300000000
#07518:13130000
#07515:0000001300001300
#0751b:0000000023000023
#07512:0023000000000000
#07615:1300000000130000
#07618:0013000000000000
#0761b:0000000000130000
#0761a:0000000000000013
#07614:0000000000000013
#07617:000000000015000000000000
#07612:00230000
#07719:0013000000000000
#07713:0013000000000000
#07718:0000001300000000
#07712:0000001300000000
#07710:0000004100000000
#0781b:00000000000000000000000000130000
#07815:00000000000000000000000000130000
#0811b:00130000
#08112:00130000
#0811f:00110000
#08119:0033
#08118:00000033
#08114:0033
#08115:00000033
#08215:33130000
#08218:33130000
#0821b:00003333
#08212:00003333
#08315:00130000
#08318:00130000
#0831b:00000013
#08312:00000013
#0831a:0033
#08313:0033
#08415:00000013
#0841a:33
#08413:33
#08518:13000013
#08615:13000013
#08718:1313
#08712:00131300
#0881b:13130000
#08815:0013
#09012:0013
#09015:0000000000130000
#0901b:0000000000000013
#09018:00260023
#0901f:00210000
#09115:13000023
#09115:00000023
#09118:0013000000130000
#09118:0000000000130000
#09112:0000160000000013
#09112:0000260000000013
#0911b:0013
#0911b:0013
#09110:00410000
#09215:0013000000131300
#09215:0013000000000000
#09218:13130000
#09218:13
#09318:0013130000000013
#09312:00000013
#09315:0000000000130000
#09415:1300000013000013
#0941b:0013000000002300
#09418:0000000000130000
#09412:00260000
#09512:0013000000002300
#09518:1300160013000013
#09515:0000000000130000
#09712:23000013
#09718:2300000000000013
#09815:1300000000000013
#09812:0013000013000000
#0981b:00000013
#09818:00230000
#10118:00000013
#10115:0000130000000013
#1011b:0013000000000000
#10114:13
#10212:13
#10215:0013000013000000
#10218:0000230000130013
#1021b:00000013
#0961b:0013230000000000
#09615:13230000
#09918:13
#0991b:0013000013000000
#09915:00230013
#0991a:0000000000000013
#10014:13
#10019:0013000000130000
#10013:00130013
#10018:0000001300000000
#10012:0013
#1001a:0000000000000013
#10712:0014
#10716:00000000000000000000003434341434
#10714:00000000000000000034000000000000
#10715:0000000000340000
#1131a:00141400
#11312:00140000
#11314:24
#11319:00000000000000000034000000000000
#11318:0000000000340000
#11317:00000000000000000000003433333333
#11816:00000013
#1181b:00000013
#02218:0012000000000000
#0211c:0012000000000000
#01816:0012000000000000
#01712:0012000000000000
#01718:32
#01710:0041000000000000
#00612:13
#00615:00000033333333333333333300000000
#00613:00330000000000000000000000000000
#00614:0033000000000000
#0261b:0013000000000000
#02618:0000003333000000
#02812:0013000000000000
#02815:0000003333000000
#03015:13
#03018:0013
#03014:0033000000000000
#03019:0000000000330000
#04415:130000000033
#04418:000000130000000000003300
#04412:0013
#0441b:0023
#04419:000033
#04414:000033
#06316:13
#0631a:00000000000024000000340000340000
#10412:00230013
#10415:1323
#1041b:13000023
#10418:00230000
#10413:0033000000000000
#10419:0033000000000000
#10518:0013000000000000
#1051a:0014
#10516:0000000000000014
#10515:23130000
#10312:00130013
#10315:2313
#10318:00130013
#1031b:0013
#10912:00140000
#10916:0000000000000014
#1091a:00142400
#10918:24
#0071a:24000000340000340000340000000000
#00814:00000024
#00818:0000000000000024
#0081a:34000034000034000000000000000000
#0321a:000000240000002400000000
#03212:000000000024000000000000
#06512:0000000000230000
#0651b:0000000000230000
#06514:0024000000000000
#06518:00240000
#06510:0000000000410000
#0681b:0023000000000000
#06812:0023000000000000
#10612:00240000
#10612:00240000
#1101a:0024
#11016:0000000000240000
#11012:00000024
#11112:24000024
#11116:0024000000240000
#1111a:00242400
#11212:2424
#11216:0024000000000000
#1121a:00240000
#11218:00000024
#1081a:0024
#10814:00000034000000000000000024000000
#10816:34340000000000000000000000000000
#10815:0034000000000000
#0461b:333300000000
#04612:333300000000
#11417:33333333000000000000000000000000
#0641a:34000000000034000034000034000000
#0015b:63
#00158:00000000002300000000000000000000
#00252:53
#00255:00000000002300000000000000000000
#00358:53
#0035b:00000000002300000000000000000000
#00455:63
#00452:00000000002300000000000000000000
#0095b:0000006300000000
#00957:00000023
#00952:0014000000000000
#01152:0000005300000000
#01156:00000023
#0115a:0014000000000000
#0275b:0013000000000000
#02752:0013000000000000
#04558:0053
#04555:0063
#04852:0000001300000000
#05255:0000001300000000
#07758:0000006300000000
#07752:0000006300000000
#0785b:00000000000000000000000000230000
#07855:00000000000000000000000000230000
#0815b:00630000
#08152:00530000
#08255:00630000
#08258:00530000
#08355:00630000
#08358:00530000
#0835b:00000023
#08352:00000023
#08855:0023
#09152:00160000
#09152:00160000
#09558:00160000
#09852:0013
#09858:00130000
#0995b:0013
#09955:00130000
#10752:0054
#10756:0000000000000024
#11856:00000023
#1185b:00000023
#1135a:00146400
#11352:00140000
#11354:14
#09258:00530000
#09255:00000053
#06255:0000006300000000
#06252:0000000000530000
#05455:0063000000000000
#05452:0000001300000000
#05358:0000005300000000
#0535b:0000000000130000
#0555b:0000006300000000
#05558:0000000000130000
#05652:0000005300000000
#05655:0000000000130000
#0495b:0000006300000000
#04958:0000000000000053
#0505b:0000006300000000
#03155:53
#03152:0023
#02258:0022000000000000
#0215c:0062000000000000
#01856:0022000000000000
#01752:0052000000000000
#01352:0014000000000000
#0155a:0014000000000000
#0445b:0063
#04452:0063
#0475b:0000001300000000
#05158:0000001300000000
#09058:00160000
#09452:00160000
#11052:00000014
#1105a:00140000
#1115a:00140000
#11152:00000014
#1125a:00140000
#11252:0014
#11258:00000014
#07356:0013000000000000
#09658:0013
#09652:0013
#0965b:00630000
#09655:00630000
#09755:00130000
#0975b:00130000
#09752:53
#09758:53
#00652:53
#02552:0013000000530000
#0255b:0013000000000000
#0265b:0053000000000000
#02852:0063000000000000
#03055:53
#03058:0063
#04052:0013000000000000
#04156:0000000000130000
#0605b:0000005300000053
#06058:0000000000530000
#06055:0000005300000053
#06052:0000000000530000
#06158:0053000000000000
#06152:0053000000000000
#06155:0000001300000000
#0615b:0000001300000000
#06356:23
#09358:00530000
#10258:00130000
#10355:1363
#10352:00630063
#10358:00630063
#1035b:0063
#1055a:0064
#10556:0000000000000024
#10555:00130000
#10455:63
#1045b:63
#10452:00130000
#10458:00130000
#1085a:0014
#10854:00000014
#10852:00140000
#10958:14
#10956:0000000000000024
#1095a:0054
#07652:00130000
#0755b:0013
#07452:00000013
#0585b:0000000000130000
#05858:0000005300000000
#10152:0013
#10155:00530000
#0013b0:1300000000230000
#001380:00000000005300000000000000000000
#002320:1300000000230000
#002350:00000000005300000000000000000000
#003380:1300000000230000
#0033b0:00000000005300000000000000000000
#004350:1300000000230000
#004320:00000000005300000000000000000000
#006320:13
#006330:00330000000000000000000000000000
#006340:0033000000000000
#006350:00000033333333333333333323000000
#0073a0:14000000340000340000340000000000
#007360:00000000000000000000000000340000
#0083a0:34000034000034000024000000000000
#0093b0:0000001300000000
#009390:0033
#009380:0000000000330033
#009370:00000033
#010390:33
#0103b0:0023000000000000
#011320:0000001300000000
#011340:0033
#011350:0000000000330033
#011360:00000033
#012340:33
#012320:0023000000000000
#0163c0:00120000
#0163b0:0000003200000000
#0163a0:0032
#016390:0000000000320000
#016380:0000000000003232
#017380:3222000000000000
#017321:0012000000000000
#018361:0052000000000000
#019321:0022000000000000
#019380:0012000000000000
#0203c0:0022000000000000
#020361:0012000000000000
#021321:0022000000000000
#0213c0:0012000000000000
#022380:0052000000000000
#0233c0:0022000000000000
#023361:0012000000000000
#024321:0022000000000000
#025321:0000000000130000
#025351:00000033
#026351:23
#0263b1:0013000000000000
#026381:0000003333230000
#028321:0013000000000000
#028351:0000003333230000
#030351:13
#030341:0033000000000000
#030321:0000002300000000
#030381:0013
#030391:0000000000330000
#0303b1:0000000000000023
#031351:13
#031341:0033000000000000
#031321:0033
#032351:23
#034351:1323
#034321:00330000
#035321:0013
#035351:00000033
#036321:23
#037381:1323
#0373b1:00330000
#0383b1:0013
#038381:00000033
#0393b1:23
#042381:0000001300000000
#0423b1:0000000000230000
#043351:0013000000000000
#043331:00330000
#043321:0000002300000000
#0443b1:0013
#044391:000033
#044381:000000000033
#045381:333333330000
#0453a1:000033
#0453b1:000000000033
#0463b1:333323000000
#044320:0013
#044340:000033
#044350:000000000033
#045350:333333330000
#045330:000033
#045320:000000000033
#046320:333323000000
#0493b0:0000001300000000
#049380:0000000000230000
#049380:0000000000000013
#0503b0:0023000000000000
#0503b0:0000001300000000
#050380:0000000000230000
#053380:0000001300000000
#0533b0:0000000000230000
#054350:0013000000000000
#054320:0000002300000000
#0553b0:0000001300000000
#055380:0000000000230000
#056320:0000001300000000
#056350:0000000000230000
#058380:0000001300000000
#0583b0:0000000000230000
#0603b0:0000001300000033
#060380:0000000000330000
#061380:0033000000000000
#0613a0:00330000
#0613b0:0000002300000000
#060351:0000001300000033
#060321:0000000000330000
#061321:0033000000000000
#061341:00330000
#061351:0000002300000000
#062351:0000001300000000
#062321:0000000000330000
#063361:53
#063321:0000002300000000
#0633a0:00000000000014000000340000340000
#0643a0:34000000000034000034000034000024
#064360:00000034000000000000000000000000
#065380:0000000000000013
#0663b0:0033000000000000
#066380:0000002300000000
#066320:0000000000130000
#066350:0000000000000033
#067320:0023000000000000
#067380:0000001300000023
#0673b0:0000000000330000
#068350:0000001300000023
#068320:0000000000330000
#0693b0:0013000000230000
#069380:0000003300000000
#069350:0000000000000013
#070320:0033000000000000
#070350:0000002300000000
#072360:0000000000000013
#073360:0023000000000000
#0733b0:0000001300000000
#073380:0000000000230000
#077380:0000001300000000
#0783b0:00000000000000000000000000530000
#080380:00000000002300000000000000000000
#077321:0000001300000000
#078351:00000000000000000000000000530000
#080321:00000000002300000000000000000000
#0813b1:00130000
#081391:0033
#081381:00000033
#082381:33330000
#0823b1:00003333
#0833b1:23
#081320:00130000
#081340:0033
#081350:00000033
#082350:33330000
#082320:00003333
#083320:23
#083380:00130000
#0833a0:0033
#0833b0:00000033
#0843a0:33
#084380:00230000
#083351:00130000
#083331:0033
#083321:00000033
#084331:33
#084351:00230000
#085321:00132300
#0863b1:00132300
#088351:0013
#089321:0000002900000000
#092381:00130000
#0923b1:0023
#092351:00000013
#093321:23
#093381:00130000
#0933b1:0023
#0963b1:00130000
#096381:0023
#096350:00130000
#096320:0023
#097320:13
#097350:00230000
#097381:13
#0973b1:00230000
#101351:00130000
#101321:0023
#103321:00130033
#103351:0033
#104351:33
#104331:0033000000000000
#104321:00230000
#103380:00130033
#1033b0:0033
#1043b0:33
#104390:0033000000000000
#104380:00230000
#1053a0:0014
#105360:0000000000000054
#1063a0:00240000
#106321:0000140000340000
#106331:00000000000000000000003400000000
#106341:00000034
#106361:0000000000000034
#107361:00003400000000000000003434343434
#107351:00000034000000000000340000000000
#107341:00000000340000000034000000000000
#107321:0000005434000000
#108361:34340000000000000000000000000000
#108351:0034000000000000
#108341:00000034000000000000000000000000
#108321:00240000
#1093a1:0014
#109361:0000000000000054
#1103a1:00240000
#1133a1:0014
#113391:00000000000000000034000000000000
#113381:0000000000340000
#113371:00000000000000000000003433333333
#114371:33333333330000000000000000000000
#1183b1:00000000000000000000005353000000
#119371:00000000002300000000000000000000
#114320:00130000
#118360:00000000000000000000005353000000
#119320:00000000002300000000000000000000
