This file was generated by Ched 2.7.0.0.
#TITLE ""
#ARTIST ""
#DESIGNER ""
#DIFFICULTY 0
#PLAYLEVEL
#SONGID ""
#WAVE ""
#WAVEOFFSET 0
#JACKET ""
#REQUEST "ticks_per_beat 480"
#00002: 4
#BPM01: 190
#00008: 01
#TIL00: ""
#HISPEED 00
#MEASUREHS 00
#0011c:12120000
#00117:12000000000000120000000000000000
#0011a:00000000003200000032000000000000
#00118:0000003232000000
#00515:0000001600160016
#00518:13131313
#00512:00000000000000000000000000000013
#00618:13000000000013000013000013000000
#0061b:0013000013130000
#00615:00160013160000160000001300001300
#00612:00000000001300000000000000130013
#00917:0000001300130000
#00912:0013001313130013
#0091b:0000000013001313
#00916:00000013
#00918:0026000000000000
#01015:1313001300000000
#01018:00130000000000001200000013000000
#0101b:1300000000130013
#01012:0000130013000012
#0101a:0000001200000000
#01014:00000012
#0101c:00120000
#01016:0000000000120000
#0131b:0000001300130013
#01316:0000000000130000
#01312:0013000013001313
#01317:00001313
#01315:00130000000000000000000000000000
#01318:1326000000000000
#01419:0000001300130000
#01417:0000130000001313
#0141b:1313000013000013
#01412:00130013
#01415:00330000000000001300000000000000
#0161c:0000120000120000
#01619:0000001200000012
#01616:00001212
#01612:1313000000120000
#01618:00330000000000000000000000000000
#0171c:12
#01715:0019000000000000
#01712:0012000012000000
#01714:0000001200120000
#01716:00000012
#01718:0000000000000012
#01710:0041000000000000
#04718:0000002600130013
#04715:00000000000000000000000013000013
#04712:0000001300130013
#0471b:00000013
#04819:0013000000000000
#04817:00130000
#04812:0000131600001300
#04815:0000000000130013
#04818:00000000000000000000000013000013
#0481b:1300001300130013
#04814:0013000000000000
#04912:1300000000180000
#04914:0013000000000000
#04916:0000131300001813
#0491b:0000131300000013
#04919:0013000000000000
#04917:0013
#04910:0000004100000000
#05016:0000181300001800
#0501b:00000000000013000000130000000013
#05012:1318000013000013
#05716:0014000000130000
#05712:13001c1c1300131c
#0571b:13
#05816:0000000000000000000000001400000000000000000000001300000000000013
#0581b:1300130000130000
#05817:0013000013000000
#05812:0000001300000000
#05919:1515151500001313
#05912:0000001300000000000000000000000000000000150000001500000015000000
#05914:1313130000000000
#05916:0000000000000013000000000000000000000000000000000000000000000000
#05917:0000000000000000000000000000000000000000000000130000000000000013
#0591b:0000000000000000000000000000000000000000000000000000001300000000
#0611b:0000000000130000
#06112:1313000000001323
#06116:1300000000230013
#06115:0000162300000000
#06118:0000002300000000
#0621b:0013000000131300
#06216:1323001800000000
#06212:00000000130013000000000000000013
#06217:0013
#06218:00000000000000000000001300001300
#06215:00000000000000000000000000130000
#07717:1300001300000000
#0771b:0013000000000000
#07716:00130000
#07714:00330000000000000000000000000000
#07719:00000033003300000000000000000000
#07710:0000004100000000
#07812:00000000000000000000000000130000
#0781a:000000000000000000000000000000000000000000320000000000000000000032000000000000000000000032000000
#07819:003200
#10716:00000000230000000014000000001400
#1071a:00000000000000001400000000140000
#10718:000000000000000033003300000000000000000000000000000000000000000000140000000000000000000000000000
#10712:00000000000000000000140000000014
#10714:00000014
#11412:19000013000000000000000000000000
#11418:00130000130000000000000000000000
#11415:0013000000000000
#1131b:00000000000000000000000000130000
#11318:26160013
#11312:00001c00160000000000000000002419
#11315:00000000000000000019191300000000
#1131a:0024
#0231a:12
#02318:0012000000001200
#0231c:00000000000000120000000000000000
#02316:0012000000001200
#02312:00000000000000120000000000000000
#0301b:1313
#03012:1316000013160000
#03018:0016000000160000
#0311b:1300130000001313
#03112:1313
#03618:1600000000120000
#0361a:00221200
#0361c:0000001200000000
#03614:1200000000120000
#03616:0012000000000012
#03612:0000261226002600
#02712:1713000000231c00
#02719:0013
#02716:0013001300000000
#02714:0013
#0271b:0000001300000023
#02717:0000000000130023
#02418:0000000016261626
#02412:0000000026162616
#0251b:0000001300130000
#02515:0000000016130000
#02512:0026001300001300
#02514:0000000000000013
#02518:0026000000000000
#0261b:0013000013130000
#02616:13
#02619:00130000
#02617:0000001313130000
#02812:1c23000013130000
#02814:00130000
#02816:0000001313130000
#02912:0000001317000000
#02916:0000000000130000
#02917:1713000000000000
#0291b:0000000000000013
#03212:000000130015001600000000
#03215:16161616000000000000000000000000
#0321b:00230000
#03219:000000000025000000000000
#03218:000000000000002600000000
#02112:0012000000120000
#02117:0000001200120000
#0211c:0000001200000012
#0221c:0000001200000012
#02212:0012000000120000
#0391a:0000240014140000
#03914:12
#03912:0012001414001414
#03916:0000240000140014
#0391c:0012000000000000
#03918:26
#03718:1200120000002612
#0371a:0012000012000000
#0371c:0000001200120000
#03712:2612260026000012
#03714:0000001200002200
#03716:0000000000120000
#03816:0012000000001200
#03814:12120000
#03812:0000001200000012
#0381a:0012000000000012
#0381c:0000001200000000
#03818:2600260026122600
#04412:1400001400000000000000002c0013002c0000002c000000
#04415:00000013
#04418:000000000000000000000013
#04416:0014181400000000
#0441a:1400001400000000
#0151b:0013000013001313
#01512:0026001300130013
#01515:13
#01518:00130000000000000000000000000000
#01517:0000000000130000
#01516:00001313
#05112:0013002600130013
#0511b:00000013000013000000000013001300
#05115:13130000
#05118:00130000001300000000000000000013
#05116:00000013
#05218:0000001600000000
#0521b:0000130000130013
#05212:0013001300001313
#05216:00130000
#05217:0013000000001300
#05215:13000000000000000000000000000013
#06012:1513000013130000
#0601b:0000131300001313
#06017:00130013
#06019:13
#06016:0013
#09118:00160000
#09112:0013130000130013
#0911b:13000000000000001300130000130000
#09116:1313000000000000
#09117:0000000000000013
#09115:00000026
#09110:00410000
#0941b:00130000230000000000130000130000
#09417:0000000000000013
#09412:1600260013002813
#09416:0000000000130000
#09418:00000013000000000000000000000000
#09415:0016000000000000
#09516:0013000000002813
#09518:00160000
#09519:13
#0951b:0013000013000013
#09512:00000000130000000000130000130000
#09517:0000000000130000
#09514:13
#1091a:24241400
#10912:001c220022002200
#10915:0000001400003400
#10914:0000000000000015
#10917:0000000000340000
#11219:00130000000000000000000000000000
#11215:00000013000000000000000000000000
#11218:0000261626000016
#11212:0000260000162600
#1121b:23
#11217:0023000000000000
#11117:00150000000000000000000000000000
#11113:00000015000000000000000000000000
#11114:00000000000000000014000000000000
#11118:00000000260000000000001400000000
#11119:25
#11115:0025000000000000
#11112:00002426
#11116:0000000000240000
#08818:1200120012120000
#08812:12
#08814:00120000
#08816:0000000012220000
#0551b:00130000000013000000000000000000
#05518:13000013000000000000000000001300
#05515:00001300001600000000000000000000
#05512:0000132300130000
#05516:0013
#05517:00000013
#06512:0026260000120000
#06514:00000012
#06516:0000000000000012
#06517:0000000000220000
#06518:0026260000000000
#06510:0000000000410000
#06618:12120000
#06616:000000000000000000120012000000000000000000000000
#0661a:000000120000000000001200120000000000000000000000
#06617:000000000000000000000000000000001200120000220000
#06613:000000000000000000000000000000120012000000000000
#0661c:0000000000000012
#06812:0012000000000000
#06814:00120000
#06816:000000240000000000120000000000000000000000120012
#06818:00001212
#0681c:000000000000000000000012
#0681a:0000000000120000
#06817:12
#06918:000000120012000000000000000000120000000000000000
#06912:000012120000000000000000
#0691c:1200001200000000
#0691a:0012
#06916:0000002400001200
#06914:0000000000000012
#07012:000000001200120000000000000000120000000000000000
#07014:00000012
#07016:120000000000000000120012000000000000000000120000
#0701c:000000000012120000000000
#07018:000000120012000000000000000000000000000000000000
#07015:0000000000260000
#07118:12120000
#0711a:0012001200000000
#07117:00001212
#07115:000000000000000000001200000000000000000000260000
#0711c:000000000000000000000012000000000000000000120000
#07114:0000000000120000
#07119:000012
#07112:000000000000000000000000000000000012000000000000
#0721a:1200000000000012
#07218:0012000000000000
#07216:00121200
#07214:0000001200120000
#07217:00000012
#07219:000012
#07212:000000000000000000000000000000000012000000000000
#07215:000000000000000000000012
#0721c:000000000000000000000000000000000000000000000012
#01116:0000001300130000
#0111b:0013001313130013
#01112:0026000013001313
#01117:00000013
#01115:13
#01118:00130000000000000000000000000000
#01218:1313001300120000
#0121b:00131300
#01212:1300120000130013
#01215:00130000000000000000000013000000
#0121c:0000000000000012
#01216:0012
#0121a:00000012
#01214:0000001200000000
#01818:0012000000000000
#01816:0000001200000000
#01814:0012
#01812:0000000000120000
#0191a:0000001200001200
#01916:0012
#01918:0000000000120000
#0191c:0000000000000012
#01912:0019000000000000
#02016:0000001200000000
#02015:0019000000000000
#02014:0012
#02012:0000000000120000
#0331c:0000000000120000
#0331a:00221200
#03318:0000001200000000
#03312:00261616
#03310:00410000
#0341c:12120000
#0341a:0012000012000000
#03418:0000001200122600
#03416:0000000000000012
#03412:26161600
#03414:00000022
#03512:0012000000001200
#03514:12120000
#03516:0000001200000012
#03518:16162616
#04112:1414000024001414
#04116:0014001424000014
#0411a:1400141400141400
#0421a:1414240014140000
#04212:0000001814001814
#04216:0014240000140014
#04512:2c132c002c002c142c002c00
#04515:00130000
#04518:000000000013000000000000
#04516:00000014
#0451a:000000000000000000000014
#05317:00130000
#0531b:0013000000000000
#05316:0013002400140000
#05312:00000000130000141800000018000000
#05318:13
#0531a:0000000000000014
#05412:1400000000131300
#05415:00000000000000000000001300001300
#05418:00000000000000000000000000130000
#0541b:00000000000000000000000000000013
#05416:0024181418000000
#0541a:00000014000000000000000000000000
#0671a:12
#06718:000000120000000000000000000000120012000000000000
#06716:00121200
#06714:000000000000000000120000000000001200120000000000
#06717:000000000000000000000012
#0671b:000000000000000000000000000000000000000000120012
#07312:0012000000000000
#07314:0028120000000000
#07318:000000000000000000000000120000000000120000000012
#07316:0000001200000012
#0731c:000000000000000000000012
#0731a:0000000000120000
#07317:12
#0741a:12
#0741b:0000002300132300
#07419:0012
#07416:000000000012000000230000000000130000230000000000
#07418:0012000000000000
#07412:001200000000
#07414:00120000
#0761b:00000000000000130000130000000000
#07616:00000013
#07612:0013230000000013
#07617:0013230000000000
#07615:12
#07619:00000000000000000000003300330000
#07614:00000000000000000000000000000033
#00212:12120000
#00217:12000000000000120000000000000000
#00214:00000000003200000032000000000000
#00216:0000003232000000
#0031c:12000000000000120000000000000000
#00317:12120000
#00319:00000000003200000032000000000000
#0031b:0000003232000000
#00412:12000000000000120000000000000000
#00417:12120000
#00415:00000000003200000032000000000000
#00413:0000003232000000
#0401a:2400141400000014
#04012:0014140014142400
#04016:2400001400142400
#04312:0018140018142400
#0431a:2400141400000000
#04316:2400001400142418
#0931b:13000000000000001300000000130000
#09318:00000000000000000000000000000013
#09317:0017130000130000
#09312:0000001300131600
#09315:0000000000000016
#0931a:00240000
#09812:0000130000001613
#09817:0000001400000000
#0981b:00130000000000001300000000001300
#09815:16000013000000000000140000000000
#09818:0013260000000000
#09612:0013000000001400
#0961a:0000240000000014
#09617:00001300002327002300270000000000
#09614:13
#09619:13
#09912:00130000260000001300000000001300
#09915:1613001400000000
#09918:00000013000000000000000016000000
#0991b:0000130000000013
#09917:0000000000140000
#10015:16
#10016:00121200
#10018:0012001200000000
#10014:0000000000120000
#10012:0012000000001212
#1001c:00120000
#10414:0018000000000000
#1041b:0000000000130000
#10412:24002c0000000013
#10416:14
#10415:00002626
#10818:14
#1081a:0014240024000000
#10814:00140000000000000000150000000000
#10816:00000014000000000000000000000000
#10817:0000001500000015
#10812:00240024
#11014:00000000000000000016000000000000
#11018:00000000000000000000001600000000
#11012:22262626
#11016:0035000000260000
#11015:35
#11518:00130000
#1151b:00130000
#11519:00000013
#11515:00000013
#11619:00000013
#11614:00000013
#11617:00130000
#11612:00130000
#11815:00130000
#11812:00130000
#11818:0000000000000000000000000000000000000000001300000000000000000000
#11814:0000000000000000000000000000000000000000001300000000000000000000
#11916:00130000000000000000000000000000
#1191b:00130000000000000000000000000000
#11716:00130000
#1171b:00130000
#11718:00000013
#11714:00000013
#08612:12120000
#08618:12
#08614:00000012
#08716:1200120012120000
#08718:0000000012120000
#0871c:12
#0871a:00120000
#04612:2c142c002c00000000000000
#04616:00140000
#0461a:000000000014000000000000
#05615:13000013001600000000000000001300
#05612:00130000000013000000000000000000
#05618:0013000000000000
#0561b:0000132300130000
#05617:0013
#05616:00000013
#07519:0023001323000000
#07514:0023001323000000
#07517:0000120000000023
#07512:1c00000000001c23
#06315:13000013001600000000230000000000
#06312:00130000000023000000000000000000
#06318:0013000000230000
#0631b:0000132300000000
#0631a:00000000000000000000000000230000
#06317:00000000000000000000000000230000
#0851c:12120000
#0851a:00000012
#08218:12
#08212:12
#08412:1200000000120000
#09712:24002700000027000000000000130013
#09715:00000000000000000000001616001300
#0971b:0000000013130000
#09718:00000000000000000013000000000000
#09716:00230000230000000000000000000000
#0831c:1200000000120000
#08316:12
#09212:1300000013172400
#09217:1313000000000000
#0921b:0013000000000000
#09216:00240000
#10112:0000001300001414
#10118:00120000
#10116:0012000000000000
#10114:12
#1011a:0014
#1021a:0014140000000014
#10212:0000000014140000
#10216:00240000
#1051b:00001300000000000000000000130013
#10518:0000160000000013
#10515:26000000000000000013001616000000
#10512:0000160013130000
#09012:00000000260000001300130000130000
#0901b:0000230000130013
#09016:0000000000000013
#09015:00000026
#0901f:00210000
#10618:00000013000000000000000000003300
#10615:1613000000000000
#10612:00130000290000000000230000000000
#1061b:00230000
#10619:000000000000000000000000000000003333000000000000
#10614:000000000000000000000000000000003333000000330000
#0811f:00110000
#08114:0000000000220000
#08118:00220000
#00712:2c
#00715:00230000
#00714:0000000000230000
#00718:00230000
#0071a:00000000000000230000000000000000
#00717:00000000000000230000230000000000
#00716:00000000000000000000000000230000
#00719:00000000000000000000000000230000
#00813:23
#00812:0000002300002626
#00817:00000000000000000023000000000000
#00818:00000023000000000000000026002600
#00816:23
#00815:00000023000023000000000000000000
#00814:00000000000000000023000000000000
#1031a:0000242400002424
#10312:2400000024240000
#06414:23000000000000000000000000000023
#06413:0000002300000000
#06412:00000023
#06417:23000000000000000000000000000023
#06416:00000023000023000000000000000000
#06418:00000000000000000023000000000000
#06415:00000000000000000023000023000000
#06419:00000023000000000000000000000000
#04758:0000001600000000
#05952:0000002300000000000000001300000000000000000000000000000000000000
#05954:5363530000000000
#05956:0000000000000023000000000000000000000000000000000000000000000000
#05957:0000000000000000000000000000000000000000000000230000000000000023
#05959:0000000000006353
#0595b:0000000000000000000000000000000000000000000000000000002300000000
#07852:00000000000000000000000000230000
#07757:2300006300000000
#0775b:0053000000000000
#07756:00230000
#02752:0013000000000000
#02756:0013000000000000
#00157:52000000000000220000000000000000
#0015c:00620000
#00958:0016000000000000
#02152:0062000000620000
#02157:0000006200520000
#0215c:0000005200000022
#0225c:0000006200000000
#02252:0062000000620000
#02358:0052000000005200
#0235c:00000000000000220000000000000000
#02356:0062000000006200
#02352:00000000000000220000000000000000
#04852:0000001600000000
#01352:0053000013000000
#01358:0046000000000000
#0155b:0063000013000000
#01552:0036000000000000
#05052:0023
#05056:0000006300000000
#0505b:0000003300000000
#06052:0053003300530033
#0605b:0013006300430063
#06057:00230023
#06059:63
#06056:0023
#09158:00160000
#09152:00630000
#09052:00160000
#0905b:00530000
#1095a:00545400
#10954:0000000000000025
#10955:0000002400000000
#10952:34
#04956:0000006300000033
#0495b:0000003300000063
#05252:0000002300000000
#05258:0000001600000000
#06156:2300000000000053
#0615b:0043000000530000
#06155:0000001300000000
#06158:0000001300000000
#0625b:0053000000000000
#06256:0000004800000000
#06257:0023
#06252:0000005300000000
#08858:0000000000220000
#08856:0000000000220000
#0515b:0000002300000000
#05152:0000001600000000
#01755:0069000000000000
#0555b:0000005300430000
#05556:0023
#05552:0000003300630000
#05557:00000023
#01952:0069000000000000
#02055:0059000000000000
#02052:0000000000520000
#03058:0066000000460000
#03052:0036000000560000
#03956:00340000
#0395a:0000000000340000
#04156:0044000000000044
#04152:0044
#04052:00000044
#0405a:0000003400000000
#04056:34
#04256:00340000
#0425a:0000000000340000
#05856:0000000000000000000000000000000000000000000000002300000000000023
#05857:0023
#05852:0000005300330000
#0585b:0000000000630000
#00257:62000000000000220000000000000000
#00252:00520000
#00357:52520000
#0035c:00000000000000220000000000000000
#00457:62620000
#00452:00000000000000220000000000000000
#04356:34
#0435a:0000003400000000
#04352:00000044
#07656:00000023
#0765b:0000000000530000
#07652:0000330000000063
#07657:00330000
#09857:0000002400000000
#09858:00460000
#09852:00533600
#0985b:0053
#09855:0000000000240000
#1035a:00440044
#10352:1434
#10652:00390000
#11452:00000063000000000000000000000000
#11458:00630000
#11558:00230000
#1155b:00230000
#11559:00000053
#11555:00000053
#11855:00230000
#11852:00230000
#11858:0000000000000000000000000000000000000000005300000000000000000000
#11854:0000000000000000000000000000000000000000005300000000000000000000
#11654:00000053
#11659:00000053
#11657:00230000
#11652:00230000
#02956:0000000000430000
#02957:0033000000000000
#01152:0016000000000000
#11956:00230000000000000000000000000000
#1195b:00230000000000000000000000000000
#11756:00230000
#1175b:00230000
#11758:00000053
#11754:00000053
#02657:0000000000530000
#0265b:0000000000530000
#02856:0000000000630000
#02852:0000000000630000
#01852:0000000000520000
#0145b:13
#01455:0013
#01652:13
#02558:0046000000000000
#02552:0036000000000000
#1085a:00446444
#10852:00543454
#10857:0000002500000025
#10854:0000000000250000
#11258:0000462666004626
#11252:0000560036265600
#06557:0000000000120000
#08758:0000000000120000
#08756:0000000000120000
#0745b:00000043
#07456:00000043
#07554:0013
#07559:0013
#0855c:00520000
#09452:00360000
#0945b:00230000
#09558:00460000
#09552:00230000
#11352:36360000
#11358:00460000
#08652:00620000
#04456:0044000000000000
#09252:00000044
#09256:00440000
#0935a:00440000
#09352:0000002300130000
#09357:0000530000130000
#09955:0000002400000000
#09952:00366300
#0995b:00630000
#09957:0000000000240000
#09958:0046
#09657:0000000033470000
#05352:00000038
#05356:0000000000440000
#05456:0000003448000000
#10452:341c0000
#0635b:0000004300000000
#06352:0000003300000000
#11058:00460000
#11052:00000036
#11158:00460000
#11152:00000036
#10152:0000002300000000
#10158:00620000
#1015a:00144400
#10156:0044
#05652:0000006300330000
#05657:0023
#0565b:0000004300530000
#05656:00000023
#09756:00430000
#09752:0000003700000000
#10552:00360000
#10558:00460000
#10256:00140000
#001370:12
#001320:0000000000220000
#0013c1:0000120000220000
#0013a1:00000000003200000032000000000000
#001381:0000003232000000
#001371:00000000000000320000000000000000
#002371:12
#0023c1:0000000000220000
#002320:0000120000220000
#002340:00000000003200000032000000000000
#002360:0000003232000000
#002370:00000000000000320000000000000000
#003370:12
#003320:0000000000220000
#003371:0000120000220000
#003391:00000000003200000032000000000000
#0033b1:0000003232000000
#0033c1:00000000000000320000000000000000
#004371:12
#0043c1:0000000000220000
#004370:0000120000220000
#004350:00000000003200000032000000000000
#004330:0000003232000000
#004320:00000000000000320000000000000000
#005350:13230000
#013320:0013000000000000
#013370:0000002300000000
#014320:13
#014350:00330000000000000000000000000000
#014370:0023000000000000
#0153b0:0013000000000000
#015360:0000002300000000
#0163b0:13
#016380:00330000000000000000000000000000
#016360:0023000000000000
#017350:0019000000000000
#0183c0:0000005200000000
#0193c0:0022000000000000
#018321:0000000000120000
#018361:0000000000000022
#019321:0019000000005200
#020321:0022000000000000
#020350:0019000000000000
#0203c0:00000052
#0213c0:0022000000000000
#020321:0000000000120000
#020361:0000000000000022
#021321:0012000000320000
#021371:0000003200000022
#0213c0:0000001200000052
#021370:0000000000320000
#022370:0022000000000000
#022321:0012000000000000
#022371:0000002200000000
#0223c0:0000001200000000
#022370:0000000000220000
#022321:0000000000120000
#022371:0000000000000022
#023381:0012000000003200
#0233c1:00000000000000520000000000000000
#0243c1:0022000000000000
#023360:0012000000003200
#023320:00000000000000520000000000000000
#024320:0022000000000000
#025370:00000013
#0263b0:23
#026360:0013000000000000
#026320:0000002300000000
#026370:0000000000130000
#026320:0000000000000023
#0263b1:0000000000130000
#026361:0000000000000023
#028371:0013000000000000
#0283b1:0000002300000000
#028361:0000000000130000
#0283b1:0000000000000023
#028320:0000000000130000
#028370:0000000000000023
#0293b0:0013000000000000
#029360:0000002300000000
#029320:0000000000130000
#029370:0000000000000023
#030380:0016000000000000
#030320:0000002600000000
#030320:0000000000160000
#030380:0000000000000026
#031320:0013002300000000
#031360:00330000
#0313b1:0000001300230000
#031371:0033
#031320:0000000000130023
#031360:00000033
#0333c0:00000012
#0333a0:00000000000000000000000000320000
#033380:0000000000000022
#035360:0012
#035340:00000000000000000032000000000000
#035320:0000000000220000
#036380:00000012
#0363a0:00000000000000000000000000320000
#0363c0:0000000000000022
#038320:0012
#038340:00000000000000000032000000000000
#038360:0000000000220000
#049360:0000001300000000
#049320:0023
#0493b0:0000000000000013
#050370:23
#050360:0000001300230000
#050320:0053
#0513b0:0000001300000000
#051360:0000000000230000
#052320:0000001300000000
#052370:0000000000230000
#0553b0:0000001300230000
#055360:0053
#055321:0000000000130023
#055371:00000033
#056321:0000001300230000
#056371:0053
#0563b0:0000000000130023
#056360:00000033
#057370:00001323
#0573b0:0000000000330000
#058360:13230000
#058320:0033000000000000
#058320:0000001300230000
#058370:0053
#0583b1:0000000000130023
#058361:00000053
#058360:0000000000000000000000000000000000000000000000000000000013000053
#059340:3333330000000000
#059320:0053005300000000005300002300000000000000000000000000000000000000
#059360:0000000000530053000000000000000000000000000000000000000000000000
#059370:0000000000000000000000000000000000000000130000530000000000530053
#059390:0000000000003333
#0593b0:0000000000000000000000000000000000000000000000000053005300000000
#060390:33
#0603b0:0053000023000000000000000000000000000000000000000000000000000000
#060321:0013002300000000
#060371:00330000
#0603b0:0000001300230000
#060360:0033
#060321:0000000000130023
#060371:00000033
#0603b0:0000000000000013
#061360:33
#0613b0:0023000000000000
#0613b0:0000000000130000
#061360:00000023
#061360:0000000000000013
#0623b0:23
#0623b0:0013000000000000
#062360:00230000
#062320:0000001300230000
#062370:0053
#076370:00000000000000130000000000000000
#076320:0000000000230000
#0763b1:0000000000130023
#076391:00000000000000000000003300330000
#076361:00000033
#076320:0000000000000013
#076340:00000000000000000000000000000033
#077370:33
#077340:00330000000000000000000000000000
#077320:0023000000000000
#0773b1:0013002300000000
#077391:00000033003300000000000000000000
#077361:00330000
#077370:0000001300000000
#078320:00000000000000000000000000530000
#080370:00000000002300000000000000000000
#078381:000000120000000000003200
#078391:003200
#0783a1:000000000000000000000000000000000000000000320000000000000000000032000000000000000000000032000000
#0783c1:0032
#0793c1:00320000000000000000000000000000
#0803c1:00000000002200000000000000000000
#0813a1:00123200
#081361:0000000000323222
#081380:00122200
#081340:0000000000120022
#082340:00123200
#082380:0000000000323222
#083320:00122200
#083381:00120000
#0833c1:0022
#083361:0000000000120022
#0833c0:00000012
#084380:22
#0843c0:00122200
#084361:00120000
#084321:0022
#084381:0000000000120022
#084320:00000012
#085360:22
#085320:00122200
#0853c1:00120000
#085381:0022
#085361:0000000000120022
#0863c1:00122200
#086320:00120000
#086360:0022
#086380:0000000000120022
#088380:0000000000120000
#089320:0000002600000000
#088361:0000000000120000
#089381:0000002600000000
#0903b1:00130000
#090361:0023
#091321:00130000
#091371:0023
#092321:00130000
#092361:0000002300000000
#0923b0:0000001300000000
#092360:0023
#092360:00000013
#0923b0:0000000000000023
#092361:0000000000000013
#093321:23
#093371:00132300
#093321:0000005300000000
#0943b1:00130000
#094361:0023
#095321:00130000
#095371:0023
#098321:00132600
#098371:0000005400000000
#0983b0:0013
#098350:0000000000540000
#098380:00000026
#0993b0:00130000
#099350:0000005400000000
#099380:0026
#099321:00001326
#099371:0000000000540000
#1003a1:000000000000000000000000000000000000000000000000000000000000000000000000000000000000000000000000000000000000000000000000000000000000000000000000000000000000000000000000000000000000000000000000000000000000000000000000000000000000000000000000000000000000000000000000000000000000000000000000000000000000000000000000000000000000000000000000000000000000000000000000000000000000000000000000000000000000000000000000000000000000000000000000000000000000000000000000000000000000000000000000000000000000000000000000000000000000000000000000000000000000000000000000000000000000000000000000000000000000000000000000000000000000000000000000000000000000000000000000000000000000000000000000000000000000000000000000000000000000000000000000000000000000000000000000000000000000000000000000000000000000000000000000000000000000000000000000000000000000000000000000000000000000000000000000000000000000000000000000000000000000000000000000000000000000000000000000000000000000000000000000000000000000000000000000000000000000000000000000000000000000000000000000000000000000000000000000000000000000000000000000000000000000000000000000000000000000000000000000000000000000000000000000000000000000000000000000000000000000000000000000000000000000000000000000000000000000000000000000000000000000000000000000000000000000000000000000000000000000000000000000000000000000000000000000000000000000000000000000000000000000000000000000000000000000000000000000000000000000000000000000140000000000000000000000000000000000000000000000000000000000000000000000000000000000000000000000000000000000000000000000000000000000000000000000000000000000000000000000000000000000000000000000000000000000000000000000000000000000000000000000000000000000000000000000000000000000000000000000000000000000000000000000000000000000000000000000000000000000000000000000000000000000000000000000000000000000000000000000000000000000000000000000000000000000000000000000000000000000000000000054000000000000000000000000000000000000000000000000000000000000000000000000000000000000000000000000000000000000000000000000000000000000000000000000000000000000000000000000000000000000000000000000000000000000000000000000000000000000000000000000000000000000000000000000000000000000000000000000000000000000000000000000000000000000000000000000000000000000000000000000000000000000000000000000000000000000000000000000000000000000000000000000000000000000000000000000000000000000000000000000000000000000000000000000000000000000000000000000000000000000000000000000000000000000000000000000000000000000000000000000000000000000000000000000000000000000000000000000000000000000000000000000000000000000000000000000000000000000000000000000000000000000000000000000000000000000000000000000000000000000000000000000000000000000000000000000000000000000000000000000000000000000000000000000000000000000000000000000000000000000000000000000000000000000000000000000000000000000000000000000000000000000000000000000000000000000000000000000000000000000000000000000000000000000000000000000000000000000000000000000000000000000000000000000000000000000000000000000000000000000000000000000000000000000000000000000000000000000000000000000000000000000000000000000000000000000000000000000000000000000000000000000000000000000000000000000000000000000000000000000000000000000000000000000000000000000000000000000000000000000000000000000000000000000000000000000000000000000000000000000000000000000000000000000000000000000000000000000000000000000000000000000000000000000000000000000000000000000000000000000000000000000000000000000000000000000000000000000000000000000000000000000000000000000000000000000000000000000000000000000000000000000000000000000000000000000000000000000000000000000000000000000000000000000000000000000000000000000000000000000000000000000000000000000000000000000000000000000000000000000000000000000000000000000000000000000000000000000000000000000
#100381:000000000000000000000000000000000000000000000000000000000000000000000000000000000000000000000000000000000000000000000000000000000000000000000000000000000000000000000000000000000000000000000000000000000000000000000000000000000000000000000000000000000000000000000000000000000000000000000000000000000000000000000000000000000000000000000000000000000000000000000000000000000000000000000000000000000000000000000000000000000000000000000000000000000000000000000000000000000000000000000000540000000000000000000000000000000000000000000000000000000000000000000000000000000000000000000000000000000000000000000054000000000000000000000000000000000000000000000000000000000000000000000000000000000000000000000000000000000000000000000000000000000000000000000000000000000000000000000000000000000000000000000000000000000000000000000000000000000000000000000000000000000000000000000000000000000000000000000000000000000000000000000000000000000000000000000000000000000000000000000000
#100361:000000000000000000000000000000000000000000000000000000000000000000000000000000000000000000000000000000000000000000000000000000000000000000000000000000000000000000000000000000000000000000000000000000000000000000000000000000000000000000000000000000000000000000000000000000000000000000000000000000000000000000000000000000000000000000000000000000000000000000000000000000000000000000000000000000000000000000000000000000000000000000000000000000000000000000000000000000000000000000000000000000000000000000000000000000000000000000000000000000000000000000000000000000000000000000000000000000000000000000000000000000000000000000000000000000000000000000000000000000000000000000000000000000000000000000000000000000000000000000000000000000000000000000000000000000000000000000000000000000000000000000000000000000000000000000000000000000000000000000000000000000000000000000000000000000000000000000000000000000000000000000000000000000000000000000000000000000000000000000000000000000000000000000000000000000000000000000000000000000000000000000000000000000000000000000000000000000000000000000000000000000000000000000000000000000000000000000000000000000000000000000000000000000000000000000000000000000000000000000000000000000000000000000000000000000000000000000000000000000000000000000000000000000000000000000000000000000000000000000000000000000000000000000000000000000000000000000000000000000000000000000000000000000000000000000000000000000000000000000000000000000000000000000000000000000000000000000000000000000000000000000000000000000000000000000000000000000000000000000000000000000000000000000000000000000000000000000000000000000000000000000000000000000000000000000000000000000000000000000000000000000000000000000000000000000000000000000000000000000000000000000000000000000000000000000000000000000000000000000000000000000000000000000000000000000000000000000000000000000000000000000000000000000000000000000000000000000000000000000000000000000000000000000000000000000000000000000000000000000000000000000000000000000000000000000000000000000000000000000000000000000000000000000000000000000000000000000000000000000000000000000000000000000000000000000000000000000000000000000000000000000000000000000000000000000000000000000000000000000000000000000000000000000000000000000000000000000000000000000000000000000000000000000000000000000000000000000000000000000000000000000000000000000000000000000000000000000000000000000000000540000000000000000000000000000000000000000000000000000000000000000000000000000000000000000000000000000000000000000000000000000000000000000000000000000000000000000000000000000000000000000000000000000000000000000000000000000000000000000000000000000000000000000000000000000000000000000000000000000000000000000000000000000000000000000000000000000000000000000000000000000000000000000000000000000000000000000000000000000000000000000000000000000000000000000000000000000000000000000000054000000000000000000000000000000000000000000000000000000000000000000000000000000000000000000000000000000000000000000000000000000000000000000000000000000000000000000000000000000000000000000000000000000000000000000000000000000000000000000000000000000000000000000000000000000000000000000000000000000000000000000000000000000000000000000000000000000000000000000000000000000000000000000000000000000000000000000000000000000000000000000000000000000000000000000000000000000000000000000000000540000000000000000000000000000000000000000000000000000000000000000000000000000000000000000000000000000000000000000000000000000000000000000000000000000000000000000000000000000000000000000000000000000000000000000000000000000000000000000000000000000000000000000000000000000000000000000000000000000000000000000000000000000000000000000000000000000000000000000000000000000000000000000000000000000000000000000000000000000000000000000000000000000000000000000000000000000000000000000005400
#100341:000000000000000000000000000000000000000000000000000000000000000000000000000000000000000000000000000000000000000000000000000000000000000000000000000000000000000000000000000000000000000000000000000000000000000000000000000000000000000000000000000000000000000000000000000000000000000000000000000000000000000000000000000000000000000000000000000000000000000000000000000000000000000000000000000000000000000000000000000000000000000000000000000000000000000000000000000000000000000000000000000000000000000000000000000000000000000000000000000000000000000000000000000000000000000000000000000000000000000000000000000000000000000000000000000000000000000000000000000000000000000000000000000000000000000000000000000000000000000000000000000000000000000000000000000000000000000000000000000000000000000000000000000000000000000000000000000000000000000000000000000000000000000000000000000000000000000000000000000000000000000000000000000000000000000000000000000000000000000000000000000000000000000000000000000000000000000000000000000000000000000000000000000000000000000000000000000000000000000000000000000000000000000000000000000000000000000000000000000000000000000000000000000000000000000000000000000000000000000000000000000000000000000000000000000000000000000000000000000000000000000000000000000000000000000000000000000000000000000000000000000000000000000000000000000000000000000000000000000000000000000000000000000000000000000000000000000000000000000000000000540000000000000000000000000000000000000000000000000000000000000000000000000000000000000000000000000000000000000000000000000000000000000000000000000000000000000000000000000000000000000000000000000000000000000000000000000000000000000000000054000000000000000000000000000000000000000000000000000000000000000000000000000000000000000000000000000000000000000000000000000000000000000000000000000000000000000000000000000000000000000000000000000000000000000000000000000000000000000000000000
#101381:540000000000000000000000000000000000000000000000000000000000000000000000000000000000000000000000000000000000000000000000000000000000000000000000000000000000000000000000000000000000000000000000000000000000000000000000000000000000000000000054000000000000000000000000000000000000000000000000000000000000000000000000000000000000000000000000000000000000000000000000000000000000000000000000000000000000000000000000000000000000000000000000000000000000000000000000000000000000000000000000000000000000000000000000000000000000000000000000000000000000000000000000000000000000000000000000000000000000000000000000000000000000000000000000000000000000000000000000000000000000000000000000000000000000000000000000000000000000000000000000000000000000000000000000000000000000000000000000000000000000000000000000000000000000000000000000000000000000000000000000000000000000000000000000000000000000000000000000000000000000000000000000000000000000000000000000000000000000000000000000000000000000000000000000000000000000000000000000000000000000000000000000000000000000000000000000000000000000000000000000000000000000000000000000000000000000000000000000000000000000000000000000000000000000000000000000000000000000000000000000000000000000000000000000000000000000000000000000000000000000000000000000000000000000000000000000000000000000000000000000000000000000000000000000000000000000000000000000000000000000000000000000000000000000000000000000000000000000000000000000000000000000000000000000000000000000000000000000000000000000000000000000000000000000000000000000000000000000000000000000000000000000000000000000000000000000000000000000000000000000000000000000000000000000000000000000000000000000000000000000000000000000000000000000000000000000000000000000000000000000000000000000000000000000000000000000000000000000000000000000000000000000000000000000000000000000000000000000000000000000000000000000000000000000000000000000000000000000000000000000
#1013a1:0054240000000000
#101380:00120000
#101320:0000005300000000
#101360:0024
#1013a0:0000000000000000000000000000000000000000000000001400005400000000
#101360:000000000000000000000000000000000000000000000000000000000000000000000000000000000000000000000000000000000000000000000000000000000000000000000000000000000000000000000000000000000000000000000000000000000000000000000000000000000000000000000000000000000000000000000000000000000000000000000000000000000000000000000000000000000000000000000000000000000000000000000000000000000000000000000000000000000000000000000000000000000000000000000000000000000000000000000000000000000000000000000000000000000000000000000000000000000000000000000000000000000000000000000000000000000000000000000000000000000000000000000000000000000000000000000000000000000000000000000000000000000000000000000000000000000000000000000000000000000000000000000000000000000000000000000000000000000000000000000000000000000000000000000000000000000000000000005800000000000000000000000000380000000000000000000000000058540000000000000000000000000000000000000000000000000000000000000000000000000000000000000000
#102360:24
#102321:140000000000000000000000000000000000000000000000000000000000000000000000000000000000000000545800000000000000000000000000380000000000000000000000000058000000000000000000000000000000000000000000000000000000000000000000000000000000000000000000000000000000000000000000000000000000000000000000000000000000000000000000000000000000000000000000000000000000000000000000000000000000000000000000000000000000000000000000000000000000000000000000000000000000000000000000000000000000000000000000000000000000000000000000000000000000000000000000000000000000000000000000000000000000000000000000000000000000000000000000000000000000000000000000000000000000000000000000000000000000000000000000000000000000000000000000000000000000000000000000000000000000000000000000000000000000000000000000000000000000000000000000000000000000000000000000000000000000000000000000000000000000000000000000000000000000000000000000000000000000000000000000000000000000000000000000000000000000000000000000
#102361:0000000000540000240000000000000000000000000000000000000000000000
#102361:000000000000000000000000000000000000000000000000000000000000000000000000000000000000000000000000000000000000000000000000000000000000000000000000000000000000000000000000000000000000000000000000000000000000000000000000000000000000000000000000000000000000000000000000000000000000000000000000000000000000000000000000000000000000000000000000000000000000000000000000000000000000000000000000000000000000000000000000000000000000000000000000000000000000000000000000000000000000000000000000140000000000000000000000000000000000000000000000000000000000000000000000000000000000000000545800000000000000000000000000380000000000000000000000000058000000000000000000000000000000000000000000000000000000000000000000000000000000000000000000000000000000000000000000000000000000000000000000000000000000000000000000000000000000000000000000000000000000000000000000000000000000000000000000000000000000000000000000000000000000000000000000000000000000000000000000000000000000000000000000
#1023a1:0000000000000000000000000000000000000000005400002400000000000000
#102360:0000000000000000000000000000000000000000000000001400005400000000
#102320:000000000000000000000000000000000000000000000000000000000000000000000000000000000000000000000000000000000000000000000000000000000000000000000000000000000000000000000000000000000000000000000000000000000000000000000000000000000000000000000000000000000000000000000000000000000000000000000000000000000000000000000000000000000000000000000000000000000000000000000000000000000000000000000000000000000000000000000000000000000000000000000000000000000000000000000000000000000000000000000000000000000000000000000000000000000000000000000000000000000000000000000000000000000000000000000000000000000000000000000000000000000000000000000000000000000000000000000000000000000000000000000000000000000000000000000000000000000000000000000000000000000000000000000000000000000000000000000000000000000000000000000000000000000000000000005800000000000000000000000000380000000000000000000000000058540000000000000000000000000000000000000000000000000000000000000000000000000000000000000000
#103320:24
#1033a1:140000000000000000000000000000000000000000000000000000000000000000000000000000000000000000000000000000000000000000000000000000000000000000000000000000000000000000000000000000540000000000000000000000000000000000000000000000000000000000000000000000000000000000000000000000000000000000000000000000000000000000000000000000000000000000000000000000000000000000000000000000000000000000000000000000000000000000000000000000000000000000000000000000000000000000000000000000000000000000000000000000000000000000000000000000000000000000000000000000000000000000000000000000000000000000000000000000000000000000000000000000000000000000000000000000000000000000000000000000000000000000000000000000000000000000000000000000000000000000000000000000000000000000000000000000000000000000000000000000000000000000000000000000005400000000000000000000000000000000000000000000000000000000000000000000000000000000000000000000000000000000000000000000000000000000000000000000000000000000000000240000000000000000000000000000000000000000000000000000000000000000000000000000000000000000000000000000000000000000000000000000000000000000000000000000000000000000000000000000000000000000000000000000000000000000000000000000000000000000000000000000000000000000000000000000000000000000000000000000000000000000000000000000000000000000000000000000000000000000000000000000000000000000000000000000000000000000000000000000000000000000000000000000000000000000000000000000000000000000000000000000000000000000000000000000000000000000000000000000000000000000000000000000000000000000000000000000000000000000000000000000000000000000000000000000000000000000000000000000000000000000000000000000000000000000000000000000000000000000000000000000000000000000000000000000000000000000000000000000000000000000000000000000000000000000000000000000000000000000000000000000000000000000000000000000000000000000000000000000000000000000000000000000000000000000000000000000000000000000000000000000000000000000000000000000000000000000000000000000000000000000000000000000000000000000000000000000000000000000000000000000000000000000000000000000000000000000000000000000000000000000000000000000000000000000000000000000000000000000000000000000000000000000000000000000000000000000000000000000000000000000000000000000000000000000000000000000000000000000000000000000000000000000000000000000000000000000000000000000000000000000000000000000000000000000000000000000000000000000000000000000000000000000000000000000000000000000000000000000000000000000000000000000000000000000000000000000000000000000000000000000000000000000000000000000000000000000000000000000000000000000000000000000000000000000000000000000000000000000000000000000000000000000000000000000000000000000000000000000000000000000000000000000000000000000000000000000000000000000000000000000000000000000000000000000000000000000000000000000000000000000000000000000000000000000000000000000000000000000000000000000000000000000000000000000000000000000000000000000000000000000000000000000000000000000000000000000000000000000000000000000000000000000000000000000000000000000000000000000000000000000000000000000000000000000000000000000000000000000000000000000000000000000000000000000000000000000000000000000000000000000000000000000000000000000000000000000000000000000000000000000000000000000000000000000000000000000000000000000000000000000000000000000000000000000000000000000000000000000000000000000000000000000000000000000000000000000000000000000000000000000000000000000000000000000000000000000000000000000000000000000000000000000000000000000000000000000000000000000000000000000000000000000000000000000000000000000000000000000000000000000000000000000000000000000000000000000000000000000000000000000000000000000000000000000000000000000000000000000000000000000000000000000000000000000000000000000000000000000000000000000000000000000000000000000000000000000000000000000000000
#103371:000000000000000000000000000000000000000000000000000000000000000000000000000000000000000000000000000000000000000000000000000000000000000000000000000000000000000000000000000000005500000000000000000000000000000000000000000000000000000000000000000000000000000000000000000000000000000000000000000000000000000000000000000000000000000000000055000000000000000000000000000000000000000000000000000000000000000000000000000000000000000000000000000000000000000000000000000000000000000000000000000000000000000000000000000000000000000000000000000000000000000000000000000000000000000000000000000000000000000000000000000000000000000000000000000000000000000055000000000000000000000000000000000000000000000000000000000000000000000000000000000000000000000000000000000000000000000000000000000000000000000000000000000000550000000000000000000000000000000000000000000000000000000000000000000000000000000000000000000000000000000000000000000000000000000000000000000000000000000000000000000000000000000000000000000000000000000000000000000000000000000000000000000000000000000000000000000000000000000000000000000000000000000000000000000000000000000000000000000000000000000000000000000000000000000000000000000000000000000000000000000000000000000000000000000000000000000000000000000000000000000000000000000000000000000000000000000000000000000000000000000000000000000000000000000000000000000000000000000000000000000000000000000000000000000000000000000000000000000000000000000000000000000000000000000000000000000000000000000000000000000000000000000000000000000000000000000000000000000000000000000000000000000000000000000000000000000000000000000000000000000000000000000000000000000000000000000000000000000000000000000000000000000000000000000000000000000000000000000000000000000000000000000000000000000000000000000000000000000000000000000000000000000000000000000000000000000000000000000000000000000000000000000000000000000000000000000000000000000000000000000000000000000000000000000000000000000000000000000000000000000000000000000000000000000000000000000000000000000000000000000000000000000000000000000000000000000000000000000000000000000000000000000000000000000000000000000000000000000000000000000000000000000000000000000000000000000000000000000000000000000000000000000000000000000000000000000000000000000000000000000000000000000000000000000000000000000000000000000000000000000000000000000000000000000000000000000000000000000000000000000000000000000000000000000000000000000000000000000000000000000000000000000000000000000000000000000000000000000000000000000000000000000000000000000000000000000000000000000000000000000000000000000000000000000000000000000000000000000000000000000000000000000000000000000000000000000000000000000000000000000000000000000000000000000000000000000000000000000000000000000000000000000000000000000000000000000000000000000000000000000000000000000000000000000000000000000000000000000000000000000000000000000000000000000000000000000000000000000000000000000000000000000000000000000000000000000000000000000000000000000000000000000000000000000000000000000000000000000000000000000000000000000000000000000000000000000000000000000000000000000000000000000000000000000000000000000000000000000000000000000000000000000000000000000000000000000000000000000000000000000000000000000000000000000000000000000000000000000000000000000000000000000000000000000000000000000000000000000000000000000000000000000000000000000000000000000000000000000000000000000000000000000000000000000000000000000000000000000000000000000000000000000000000000000000000000000000000000000000000000000000000000000000000000000000000000000000000000000000000000000000000000000000000000000000000000000000000000000000000000000000000000000000000000000000000000000000000000000000000000000000000000000000000000000000000000000000000000000000000000000000000000000000000000000000000000000000000000000000000000
#103361:000000000000000000000000000000000000000000000000000000000000000000000000000000000000000000000000000000000000000000000000000000000000000000000000000000000000000000000000000000000000000000000000000000000000000000000000000000000000000000000000000000000000000000000000000000000000000000000000000000000000000000000000000000000000000000000000530000000000000000000000000000000000000000000000000000000000000000000000000000000000000000000000000000000000000000000000000000000000000000000000330000000000000000000000000000000000000000000000000000000000000000000000000000000000000000000000000000000000000000000000000000000000000000000000000000000000005300000000000000000000000000000000000000000000000000000000000000000000000000000000000000000000000000000000000000000000000000000000000000000000000000000000000000000000000000000000000000000000000000000000000000000000000000000000000000000000000000000000000000000000000000000000000000000000000000000000000000000000000000000000000000000000000000000000000000000000000000000000000000000000000000000000000000000000000000000000000000000000000000000000000000000000000000000000000000000000000000000000000000000000000000000000000000000000000000000000000000000000000000000000000000000000000000000000000000000000000000000000000000000000000000000000000000000000000000000000000000000000000000000000000000000000000000000000000000000000000000000000000000000000000000000000000000000000000000000000000000000000000000000000000000000000000000000000000000000000000000000000000000000000000000000000000000000000000000000000000000000000000000000000000000000000000000000000000000000000000000000000000000000000000000000000000000000000000000000000000000000000000000000000000000000000000000000000000000000000000000000000000000000000000000000000000000000000000000000000000000000000000000000000000000000000000000000000000000000000000000000000000000000000000000000000000000000000000000000000000000000000000000000000000000000000000000000000000000000000000000000000000000000000000000000000000000000000000000000000000000000000000000000000000000000000000000000000000000000000000000000000000000000000000000000000000000000000000000000000000000000000000000000000000000000000000000000000000000000000000000000000000000000000000000000000000000000000000000000000000000000000000000000000000000000000000000000000000000000000000000000000000000000000000000000000000000000000000000000000000000000000000000000000000000000000000000000000000000000000000000000000000000000000000000000000000000000000000000000000000000000000000000000000000000000000000000000000000000000000000000000000000000000000000000000000000000000000000000000000000000000000000000000000000000000000000000000000000000000000000000000000000000000000000000000000000000000000000000000000000000000000000000000000000000000000000000000000000000000000000000000000000000000000000000000000000000000000000000000000000000000000000000000000000000000000000000000000000000000000000000000000000000000000000000000000000000000000000000000000000000000000000000000000000000000000000000000000000000000000000000000000000000000000000000000000000000000000000000000000000000000000000000000000000000000000000000000000000000000000000000000000000000000000000000000000000000000000000000000000000000000000000000000000000000000000000000000000000000000000000000000000000000000000000000000000000000000000000000000000000000000000000000000000000000000000000000000000000000000000000000000000000000000000000000000000000000000000000000000000000000000000000000000000000000000000000000000000000000000000000000000000000000000000000000000000000000000000000000000000000000000000000000000000000000000000000000000000000000000000000000000000000000000000000000000000000000000000000000000000000000000000000000000000000000000000000000000000000000000000000000000000000000000000000000000000000000000000000000000000000000000000000000000000
#103320:000000000000000000000000000000000000000000000000000000000000000000000000000000000000000000000000000000000000000000000000000000000000000000000000000000000000000000000000000000000000000000000000000000000000000000000000000000000000000000000000000000000000000000000000000000000000000000000000000000000000000000000000000000000000000000000000000000000000000000000000000000000000000000000000000000000000000000000000000000000000000000000000000000000000000000000000000000000000000000000000000000000000000000000000000000000000000000000000000000000000000000000000000000000000000000000000000000000000000000000000000000000000000000000000000000000000000000000000000000000000000000000000000000000000000000000000000000000000000000000000000000000000000000000000000000000000000000000000000000000000000000000000000000000000000000000000000000000000000000000000000000000000000000000000000000000000000000000000000000000000000000000000000000000000000000000000000000000000000000000000140000000000000000000000000000000000000000000000000000000000000000000000000000000000000000000000000000000000000000000000000000000000000000000000000000000000000000000000000000540000000000000000000000000000000000000000000000000000000000000000000000000000000000000000000000000000000000000000000000000000000000000000000000000000000000000000000000000000000000000000000000000000000000000000000000000000000000000000000000000000000000000000000000000000000000000000000000000000000000000000000000000000000000000000000000000000000000000000000000000000000000000000000000000000000000000000000000000000000000000000000000000000000000000000000000000000000000000000000000000000000000000000000000000000000000000000000000000000000000000000000000000000000000000000000000000000000000000000000000000000000000000000000000005400000000000000000000000000000000000000000000000000000000000000000000000000000000000000000000000000000000000000000000000000000000000000000000000000000000000000240000000000000000000000000000000000000000000000000000000000000000000000000000000000000000000000000000000000000000000000000000000000000000000000000000000000000000000000000000000000000000000000000000000000000000000000000000000000000000000000000000000000000000000000000000000000000000000000000000000000000000000000000000000000000000000000000000000000000000000000000000000000000000000000000000000000000000000000000000000000000000000000000000000000000000000000000000000000000000000000000000000000000000000000000000000000000000000000000000000000000000000000000000000000000000000000000000000000000000000000000000000000000000000000000000000000000000000000000000000000000000000000000000000000000000000000000000000000000000000000000000000000000000000000000000000000000000000000000000000000000000000000000000000000000000000000000000000000000000000000000000000000000000000000000000000000000000000000000000000000000000000000000000000000000000000000000000000000000000000000000000000000000000000000000000000000000000000000000000000000000000000000000000000000000000000000000000000000000000000000000000000000000000000000000000000000000000000000000000000000000000000000000000000000000000000000000000000000000000000000000000000000000000000000000000000000000000000000000000000000000000000000000000000000000000000000000000000000000000000000000000000000000000000000000000000000000000000000000000000000000000000000000000000000000000000000000000000000000000000000000000000000000000000000000000000000000000000000000000000000000000000000000000000000000000000000000000000000000000000000000000000000000000000000000000000000000000000000000000000000000000000000000000000000000000000000000000000000000000000000000000000000000000000000000000000000000000000000000000000000000000000000000000000000000000000000000000000000000000000000000000000000000000000000000000000000000000000000000000000000000000000000000000000000000000000000000000000000000000000000
#103340:000000000000000000000000000000000000000000000000000000000000000000000000000000000000000000000000000000000000000000000000000000000000000000000000000000000000000000000000000000000000000000000000000000000000000000000000000000000000000000000000000000000000000000000000000000000000000000000000000000000000000000000000000000000000000000000000000000000000000000000000000000000000000000000000000000000000000000000000000000000000000000000000000000000000000000000000000000000000000000000000000000000000000000000000000000000000000000000000000000000000000000000000000000000000000000000000000000000000000000000000000000000000000000000000000000000000000000000000000000000000000000000000000000000000000000000000000000000000000000000000000000000000000000000000000000000000000000000000000000000000000000000000000000000000000000000000000000000000000000000000000000000000000000000000000000000000000000000000000000000000000000000000000000000000000000000000000000000000000000000000000000000000000000000000000000000000000000000000000000000000000000000000000000000000000000000000000000000000000000000000000000000000000000000000000000000000000000000000000000005500000000000000000000000000000000000000000000000000000000000000000000000000000000000000000000000000000000000000000000000000000000000000000000000000000000000055000000000000000000000000000000000000000000000000000000000000000000000000000000000000000000000000000000000000000000000000000000000000000000000000000000000000000000000000000000000000000000000000000000000000000000000000000000000000000000000000000000000000000000000000000000000000000000000000000000000000000055000000000000000000000000000000000000000000000000000000000000000000000000000000000000000000000000000000000000000000000000000000000000000000000000000000000000550000000000000000000000000000000000000000000000000000000000000000000000000000000000000000000000000000000000000000000000000000000000000000000000000000000000000000000000000000000000000000000000000000000000000000000000000000000000000000000000000000000000000000000000000000000000000000000000000000000000000000000000000000000000000000000000000000000000000000000000000000000000000000000000000000000000000000000000000000000000000000000000000000000000000000000000000000000000000000000000000000000000000000000000000000000000000000000000000000000000000000000000000000000000000000000000000000000000000000000000000000000000000000000000000000000000000000000000000000000000000000000000000000000000000000000000000000000000000000000000000000000000000000000000000000000000000000000000000000000000000000000000000000000000000000000000000000000000000000000000000000000000000000000000000000000000000000000000000000000000000000000000000000000000000000000000000000000000000000000000000000000000000000000000000000000000000000000000000000000000000000000000000000000000000000000000000000000000000000000000000000000000000000000000000000000000000000000000000000000000000000000000000000000000000000000000000000000000000000000000000000000000000000000000000000000000000000000000000000000000000000000000000000000000000000000000000000000000000000000000000000000000000000000000000000000000000000000000000000000000000000000000000000000000000000000000000000000000000000000000000000000000000000000000000000000000000000000000000000000000000000000000000000000000000000000000000000000000000000000000000000000000000000000000000000000000000000000000000000000000000000000000000000000000000000000000000000000000000000000000000000000000000000000000000000000000000000000000000000000000000000000000000000000000000000000000000000000000000000000000000000000000000000000000000000000000000000000000000000000000000000000000000000000000000000000000000000000000000000000000000000000000000000000000000000000000000000000000000000000000000000000000000000000000000000000000000000000000000000000000000000000000000000000000000000000000000000
#103370:000000000000000000000000000000000000000000000000000000000000000000000000000000000000000000000000000000000000000000000000000000000000000000000000000000000000000000000000000000000000000000000000000000000000000000000000000000000000000000000000000000000000000000000000000000000000000000000000000000000000000000000000000000000000000000000000000000000000000000000000000000000000000000000000000000000000000000000000000000000000000000000000000000000000000000000000000000000000000000000000000000000000000000000000000000000000000000000000000000000000000000000000000000000000000000000000000000000000000000000000000000000000000000000000000000000000000000000000000000000000000000000000000000000000000000000000000000000000000000000000000000000000000000000000000000000000000000000000000000000000000000000000000000000000000000000000000000000000000000000000000000000000000000000000000000000000000000000000000000000000000000000000000000000000000000000000000000000000000000000000000000000000000000000000000000000000000000000000000000000000000000000000000000000000000000000000000000000000000000000000000000000000000000000000000000000000000000000000000000000000000000000000000000000000000000000000000000000000000000000000000000000000000000000000000000000000000000000000000000000000000000000000000000000000000000000000530000000000000000000000000000000000000000000000000000000000000000000000000000000000000000000000000000000000000000000000000000000000000000000000330000000000000000000000000000000000000000000000000000000000000000000000000000000000000000000000000000000000000000000000000000000000000000000000000000000000005300000000000000000000000000000000000000000000000000000000000000000000000000000000000000000000000000000000000000000000000000000000000000000000000000000000000000000000000000000000000000000000000000000000000000000000000000000000000000000000000000000000000000000000000000000000000000000000000000000000000000000000000000000000000000000000000000000000000000000000000000000000000000000000000000000000000000000000000000000000000000000000000000000000000000000000000000000000000000000000000000000000000000000000000000000000000000000000000000000000000000000000000000000000000000000000000000000000000000000000000000000000000000000000000000000000000000000000000000000000000000000000000000000000000000000000000000000000000000000000000000000000000000000000000000000000000000000000000000000000000000000000000000000000000000000000000000000000000000000000000000000000000000000000000000000000000000000000000000000000000000000000000000000000000000000000000000000000000000000000000000000000000000000000000000000000000000000000000000000000000000000000000000000000000000000000000000000000000000000000000000000000000000000000000000000000000000000000000000000000000000000000000000000000000000000000000000000000000000000000000000000000000000000000000000000000000000000000000000000000000000000000000000000000000000000000000000000000000000000000000000000000000000000000000000000000000000000000000000000000000000000000000000000000000000000000000000000000000000000000000000000000000000000000000000000000000000000000000000000000000000000000000000000000000000000000000000000000000000000000000000000000000000000000000000000000000000000000000000000000000000000000000000000000000000000000000000000000000000000000000000000000000000000000000000000000000000000000000000000000000000000000000000000000000000000000000000000000000000000000000000000000000000000000000000000000000000000000000000000000000000000000000000000000000000000000000000000000000000000000000000000000000000000000000000000000000000000000000000000000000000000000000000000000000000000000000000000000000000000000000000000000000000000000000000000000000000000000000000000000000000000000000000000000000000000000000000000000000000000000000000000000000000000000000000000000000000000000000000000000000000000000000000000000
#1033a1:000000000000000000000000000000000000000000000000000000000000000000000000000000000000000000000000000000000000000000000000000000000000000000000000000000000000000000000000000000000000000000000000000000000000000000000000000000000000000000000000000000000000000000000000000000000000000000000000000000000000000000000000000000000000000000000000000000000000000000000000000000000000000000000000000000000000000000000000000000000000000000000000000000000000000000000000000000000000000000000000000000000000000000000000000000000000000000000000000000000000000000000000000000000000000000000000000000000000000000000000000000000000000000000000000000000000000000000000000000000000000000000000000000000000000000000000000000000000000000000000000000000000000000000000000000000000000000000000000000000000000000000000000000000000000000000000000000000000000000000000000000000000000000000000000000000000000000000000000000000000000000000000000000000000000000000000000000000000000000000000000000000000000000000000000000000000000000000000000000000000000000000000000000000000000000000000000000000000000000000000000000000000000000000000000000000000000000000000000000000000000000000000000000000000000000000000000000000000000000000000000000000000000000000000000000000000000000000000000000000000000000000000000000000000000000000000000000000000000000000000000000000000000000000000000000000000000000000000000000000000000000000000000000000000000000000000000000000000000000000000000000000000000000000000000000000000000000000000000000000000000000000000000000000000000000000000000000000000000000000000000000000000000000000000000000000000000000000000000000000000000000000000000000000000000000000000000000000000000000000000000000000000000000000000000000000000000000000000000000000000000000000000000000000000000000000000000000000000000000000000000000000000000000000000000000000000000000000000000000000000000000000000000000000000000000000000000000000000000000000000140000000000000000000000000000000000000000000000000000000000000000000000000000000000000000000000000000000000000000000000000000000000000000000000000000000000000000000000000000540000000000000000000000000000000000000000000000000000000000000000000000000000000000000000000000000000000000000000000000000000000000000000000000000000000000000000000000000000000000000000000000000000000000000000000000000000000000000000000000000000000000000000000000000000000000000000000000000000000000000000000000000000000000000000000000000000000000000000000000000000000000000000000000000000000000000000000000000000000000000000000000000000000000000000000000000000000000000000000000000000000000000000000000000000000000000000000000000000000000000000000000000000000000000000000000000000000000000000000000000000000000000000000000005400000000000000000000000000000000000000000000000000000000000000000000000000000000000000000000000000000000000000000000000000000000000000000000000000000000000000240000000000000000000000000000000000000000000000000000000000000000000000000000000000000000000000000000000000000000000000000000000000000000000000000000000000000000000000000000000000000000000000000000000000000000000000000000000000000000000000000000000000000000000000000000000000000000000000000000000000000000000000000000000000000000000000000000000000000000000000000000000000000000000000000000000000000000000000000000000000000000000000000000000000000000000000000000000000000000000000000000000000000000000000000000000000000000000000000000000000000000000000000000000000000000000000000000000000000000000000000000000000000000000000000000000000000000000000000000000000000000000000000000000000000000000000000000000000000000000000000000000000000000000000000000000000000000000000000000000000000000000000000000000000000000000000000000000000000000000000000000000000000000000000000000000000000000000000000000000000000000000000000000000000000000000000000000000000000000000000
#103371:000000000000000000000000000000000000000000000000000000000000000000000000000000000000000000000000000000000000000000000000000000000000000000000000000000000000000000000000000000000000000000000000000000000000000000000000000000000000000000000000000000000000000000000000000000000000000000000000000000000000000000000000000000000000000000000000000000000000000000000000000000000000000000000000000000000000000000000000000000000000000000000000000000000000000000000000000000000000000000000000000000000000000000000000000000000000000000000000000000000000000000000000000000000000000000000000000000000000000000000000000000000000000000000000000000000000000000000000000000000000000000000000000000000000000000000000000000000000000000000000000000000000000000000000000000000000000000000000000000000000000000000000000000000000000000000000000000000000000000000000000000000000000000000000000000000000000000000000000000000000000000000000000000000000000000000000000000000000000000000000000000000000000000000000000000000000000000000000000000000000000000000000000000000000000000000000000000000000000000000000000000000000000000000000000000000000000000000000000000000000000000000000000000000000000000000000000000000000000000000000000000000000000000000000000000000000000000000000000000000000000000000000000000000000000000000000000000000000000000000000000000000000000000000000000000000000000000000000000000000000000000000000000000000000000000000000000000000000000000000000000000000000000000000000000000000000000000000000000000000000000000000000000000000000000000000000000000000000000000000000000000000000000000000000000000000000000000000000000000000000000000000000000000000000000000000000000000000000000000000000000000000000000000000000000000000000000000000000000000000000000000000000000000000000000000000000000000000000000000000000000000000000000000000000000000000000000000000000000000000000000000000000000000000000000000000000000000000000000000000000000000000000000000000000000000000000000000000000000000000000000000000000000000000000000000000000000000000000000000000000000000000000000000000000000000000000000000000000000000005500000000000000000000000000000000000000000000000000000000000000000000000000000000000000000000000000000000000000000000000000000000000000000000000000000000000055000000000000000000000000000000000000000000000000000000000000000000000000000000000000000000000000000000000000000000000000000000000000000000000000000000000000000000000000000000000000000000000000000000000000000000000000000000000000000000000000000000000000000000000000000000000000000000000000000000000000000055000000000000000000000000000000000000000000000000000000000000000000000000000000000000000000000000000000000000000000000000000000000000000000000000000000000000550000000000000000000000000000000000000000000000000000000000000000000000000000000000000000000000000000000000000000000000000000000000000000000000000000000000000000000000000000000000000000000000000000000000000000000000000000000000000000000000000000000000000000000000000000000000000000000000000000000000000000000000000000000000000000000000000000000000000000000000000000000000000000000000000000000000000000000000000000000000000000000000000000000000000000000000000000000000000000000000000000000000000000000000000000000000000000000000000000000000000000000000000000000000000000000000000000000000000000000000000000000000000000000000000000000000000000000000000000000000000000000000000000000000000000000000000000000000000000000000000000000000000000000000000000000000000000000000000000000000000000000000000000000000000000000000000000000000000000000000000000000000000000000000000000000000000000000000000000000000000000000000000000000000000000000000000000000000000000000000000000000000000000000000000000000000000000000000000000000000000000000000000000000000000000000000000000000000000000000000000000000000000000000000000000000000000000
#103361:000000000000000000000000000000000000000000000000000000000000000000000000000000000000000000000000000000000000000000000000000000000000000000000000000000000000000000000000000000000000000000000000000000000000000000000000000000000000000000000000000000000000000000000000000000000000000000000000000000000000000000000000000000000000000000000000000000000000000000000000000000000000000000000000000000000000000000000000000000000000000000000000000000000000000000000000000000000000000000000000000000000000000000000000000000000000000000000000000000000000000000000000000000000000000000000000000000000000000000000000000000000000000000000000000000000000000000000000000000000000000000000000000000000000000000000000000000000000000000000000000000000000000000000000000000000000000000000000000000000000000000000000000000000000000000000000000000000000000000000000000000000000000000000000000000000000000000000000000000000000000000000000000000000000000000000000000000000000000000000000000000000000000000000000000000000000000000000000000000000000000000000000000000000000000000000000000000000000000000000000000000000000000000000000000000000000000000000000000000000000000000000000000000000000000000000000000000000000000000000000000000000000000000000000000000000000000000000000000000000000000000000000000000000000000000000000000000000000000000000000000000000000000000000000000000000000000000000000000000000000000000000000000000000000000000000000000000000000000000000000000000000000000000000000000000000000000000000000000000000000000000000000000000000000000000000000000000000000000000000000000000000000000000000000000000000000000000000000000000000000000000000000000000000000000000000000000000000000000000000000000000000000000000000000000000000000000000000000000000000000000000000000000000000000000000000000000000000000000000000000000000000000000000000000000000000000000000000000000000000000000000000000000000000000000000000000000000000000000000000000000000000000000000000000000000000000000000000000000000000000000000000000000000000000000000000000000000000000000000000000000000000000000000000000000000000000000000000000000000000000000000000000000000000000000000000000000000000000000000000000000000000000000000000000000000000000000000000000000000000000000000000000000000000000000000000000530000000000000000000000000000000000000000000000000000000000000000000000000000000000000000000000000000000000000000000000000000000000000000000000330000000000000000000000000000000000000000000000000000000000000000000000000000000000000000000000000000000000000000000000000000000000000000000000000000000000005300000000000000000000000000000000000000000000000000000000000000000000000000000000000000000000000000000000000000000000000000000000000000000000000000000000000000000000000000000000000000000000000000000000000000000000000000000000000000000000000000000000000000000000000000000000000000000000000000000000000000000000000000000000000000000000000000000000000000000000000000000000000000000000000000000000000000000000000000000000000000000000000000000000000000000000000000000000000000000000000000000000000000000000000000000000000000000000000000000000000000000000000000000000000000000000000000000000000000000000000000000000000000000000000000000000000000000000000000000000000000000000000000000000000000000000000000000000000000000000000000000000000000000000000000000000000000000000000000000000000000000000000000000000000000000000000000000000000000000000000000000000000000000000000000000000000000000000000000000000000000000000000000000000000000000000000000000000000000000000000000000000000000000000000000000000000000000000000000000000000000000000000000000000000000000000000000000000000000000000000000000000000000000000000000000000000000000000000000000000000000000000000000000000000000000000000000000000000000000000000000000000000000000000000000000000000000000000000000000000000000000000000000000000
#103320:000000000000000000000000000000000000000000000000000000000000000000000000000000000000000000000000000000000000000000000000000000000000000000000000000000000000000000000000000000000000000000000000000000000000000000000000000000000000000000000000000000000000000000000000000000000000000000000000000000000000000000000000000000000000000000000000000000000000000000000000000000000000000000000000000000000000000000000000000000000000000000000000000000000000000000000000000000000000000000000000000000000000000000000000000000000000000000000000000000000000000000000000000000000000000000000000000000000000000000000000000000000000000000000000000000000000000000000000000000000000000000000000000000000000000000000000000000000000000000000000000000000000000000000000000000000000000000000000000000000000000000000000000000000000000000000000000000000000000000000000000000000000000000000000000000000000000000000000000000000000000000000000000000000000000000000000000000000000000000000000000000000000000000000000000000000000000000000000000000000000000000000000000000000000000000000000000000000000000000000000000000000000000000000000000000000000000000000000000000000000000000000000000000000000000000000000000000000000000000000000000000000000000000000000000000000000000000000000000000000000000000000000000000000000000000000000000000000000000000000000000000000000000000000000000000000000000000000000000000000000000000000000000000000000000000000000000000000000000000000000000000000000000000000000000000000000000000000000000000000000000000000000000000000000000000000000000000000000000000000000000000000000000000000000000000000000000000000000000000000000000000000000000000000000000000000000000000000000000000000000000000000000000000000000000000000000000000000000000000000000000000000000000000000000000000000000000000000000000000000000000000000000000000000000000000000000000000000000000000000000000000000000000000000000000000000000000000000000000000000000000000000000000000000000000000000000000000000000000000000000000000000000000000000000000000000000000000000000000000000000000000000000000000000000000000000000000000000000000000000000000000000000000000000000000000000000000000000000000000000000000000000000000000000000000000000000000000000000000000000000000000000000000000000000000000000000000000000000000000000000000000000000000000000000000000000000000000000000000000000000000000000000000000000000000000000000000000000000000000000000000000000000000000000000000000000000000000000000000000000000000000000000000000000000000000000000000000000000000000000000000000000000000000000000000000000000000000000000000000000000000000000000000000000000000000000000000000000000000000000000000000000000000000000000000000000000000000000000000000000000000000000000000000000000000000000000000000000000000000000000000000000000000000000000000000000000000000000000000000000000000000000000000000000000000000000000000000000000000000000000140000000000000000000000000000000000000000000000000000000000000000000000000000000000000000000000000000000000000000000000000000000000000000000000000000000000000000000000000000540000000000000000000000000000000000000000000000000000000000000000000000000000000000000000000000000000000000000000000000000000000000000000000000000000000000000000000000000000000000000000000000000000000000000000000000000000000000000000000000000000000000000000000000000000000000000000000000000000000000000000000000000000000000000000000000000000000000000000000000000000000000000000000000000000000000000000000000000000000000000000000000000000000000000000000000000000000000000000000000000000000000000000000000000000000000000000000000000000000000000000000000000000000000000000000000000000000000000000000000000000000000000000000000005400000000000000000000000000000000000000000000000000000000000000000000000000000000000000000000000000000000000000000000000000000000000000000000000000000000000000
#103340:000000000000000000000000000000000000000000000000000000000000000000000000000000000000000000000000000000000000000000000000000000000000000000000000000000000000000000000000000000000000000000000000000000000000000000000000000000000000000000000000000000000000000000000000000000000000000000000000000000000000000000000000000000000000000000000000000000000000000000000000000000000000000000000000000000000000000000000000000000000000000000000000000000000000000000000000000000000000000000000000000000000000000000000000000000000000000000000000000000000000000000000000000000000000000000000000000000000000000000000000000000000000000000000000000000000000000000000000000000000000000000000000000000000000000000000000000000000000000000000000000000000000000000000000000000000000000000000000000000000000000000000000000000000000000000000000000000000000000000000000000000000000000000000000000000000000000000000000000000000000000000000000000000000000000000000000000000000000000000000000000000000000000000000000000000000000000000000000000000000000000000000000000000000000000000000000000000000000000000000000000000000000000000000000000000000000000000000000000000000000000000000000000000000000000000000000000000000000000000000000000000000000000000000000000000000000000000000000000000000000000000000000000000000000000000000000000000000000000000000000000000000000000000000000000000000000000000000000000000000000000000000000000000000000000000000000000000000000000000000000000000000000000000000000000000000000000000000000000000000000000000000000000000000000000000000000000000000000000000000000000000000000000000000000000000000000000000000000000000000000000000000000000000000000000000000000000000000000000000000000000000000000000000000000000000000000000000000000000000000000000000000000000000000000000000000000000000000000000000000000000000000000000000000000000000000000000000000000000000000000000000000000000000000000000000000000000000000000000000000000000000000000000000000000000000000000000000000000000000000000000000000000000000000000000000000000000000000000000000000000000000000000000000000000000000000000000000000000000000000000000000000000000000000000000000000000000000000000000000000000000000000000000000000000000000000000000000000000000000000000000000000000000000000000000000000000000000000000000000000000000000000000000000000000000000000000000000000000000000000000000000000000000000000000000000000000000000000000000000000000000000000000000000000000000000000000000000000000000000000000000000000000000000000000000000000000000000000000000000000000000000000000000000000000000000000000000000000000000000000000000000000000000000000000000000000000000000000000000000000000000000000000000000000000000000000000000000000000000000000000000000000000000000000000000000000000000000000000000000000000000000000000000000000000000000000000000000000000000000000000000000000000000000000000000000000000000000000000000000000000000000000000000000000000000000000000000000000000000000000000000000000000000000000000000000000000000000000000000000000000000000000000000000000000000000000000000000000000000000005500000000000000000000000000000000000000000000000000000000000000000000000000000000000000000000000000000000000000000000000000000000000000000000000000000000000055000000000000000000000000000000000000000000000000000000000000000000000000000000000000000000000000000000000000000000000000000000000000000000000000000000000000000000000000000000000000000000000000000000000000000000000000000000000000000000000000000000000000000000000000000000000000000000000000000000000000000055000000000000000000000000000000000000000000000000000000000000000000000000000000000000000000000000000000000000000000000000000000000000000000000000000000000000550000000000000000000000000000000000000000000000000000000000000000000000000000000000000000000000000000000000000000000000000000000000000000000000000000000000000000
#103370:000000000000000000000000000000000000000000000000000000000000000000000000000000000000000000000000000000000000000000000000000000000000000000000000000000000000000000000000000000000000000000000000000000000000000000000000000000000000000000000000000000000000000000000000000000000000000000000000000000000000000000000000000000000000000000000000000000000000000000000000000000000000000000000000000000000000000000000000000000000000000000000000000000000000000000000000000000000000000000000000000000000000000000000000000000000000000000000000000000000000000000000000000000000000000000000000000000000000000000000000000000000000000000000000000000000000000000000000000000000000000000000000000000000000000000000000000000000000000000000000000000000000000000000000000000000000000000000000000000000000000000000000000000000000000000000000000000000000000000000000000000000000000000000000000000000000000000000000000000000000000000000000000000000000000000000000000000000000000000000000000000000000000000000000000000000000000000000000000000000000000000000000000000000000000000000000000000000000000000000000000000000000000000000000000000000000000000000000000000000000000000000000000000000000000000000000000000000000000000000000000000000000000000000000000000000000000000000000000000000000000000000000000000000000000000000000000000000000000000000000000000000000000000000000000000000000000000000000000000000000000000000000000000000000000000000000000000000000000000000000000000000000000000000000000000000000000000000000000000000000000000000000000000000000000000000000000000000000000000000000000000000000000000000000000000000000000000000000000000000000000000000000000000000000000000000000000000000000000000000000000000000000000000000000000000000000000000000000000000000000000000000000000000000000000000000000000000000000000000000000000000000000000000000000000000000000000000000000000000000000000000000000000000000000000000000000000000000000000000000000000000000000000000000000000000000000000000000000000000000000000000000000000000000000000000000000000000000000000000000000000000000000000000000000000000000000000000000000000000000000000000000000000000000000000000000000000000000000000000000000000000000000000000000000000000000000000000000000000000000000000000000000000000000000000000000000000000000000000000000000000000000000000000000000000000000000000000000000000000000000000000000000000000000000000000000000000000000000000000000000000000000000000000000000000000000000000000000000000000000000000000000000000000000000000000000000000000000000000000000000000000000000000000000000000000000000000000000000000000000000000000000000000000000000000000000000000000000000000000000000000000000000000000000000000000000000000000000000000000000000000000000000000000000000000000000000000000000000000000000000000000000000000000000000000000000000000000000000000000000000000000000000000000000000000000000000000000000000000000000000000000000000000000000000000000000000000000000000000000000000000000000000000000000000000000000000000000000000000000000000000000000000000000000000000000000000000000000000000000000000000000000000000000000000000000000000000000000000000000000000000000000000000000000000000000000000000000000000000000000000000000000000000000000000000000000000530000000000000000000000000000000000000000000000000000000000000000000000000000000000000000000000000000000000000000000000000000000000000000000000330000000000000000000000000000000000000000000000000000000000000000000000000000000000000000000000000000000000000000000000000000000000000000000000000000000000005300000000000000000000000000000000000000000000000000000000000000000000000000000000000000000000000000000000000000000000000000000000000000000000000000000000000000000000000000000000000000000000000000000000000000000000000000000000000000000000000000000000000000000000000000000000000000000000000000000000000000000000000000000000
#104320:24
#104320:000000000000000000000000000000000000000000000000000000000000000000000000000000000000000000000000000000000000000000000000000000000000000000000000000000000000000000000000000000000000000000000000000000000000000000000000000000000000000000000000000000000000000000000000000000000000000000000000000000000000000000000000000000000000000000000000000000000000000000000000000000000000000000000000000000000000000000000000000000000000000000000000000000000000000000000000000000000000000000000000000000000000000000000000000000000000000000000000000000000000000000000000000000000000000000000000000000000000000000000000000000000000000000000000000000000000000000000000000000000000000000000000000000000000000000000000000000000000000000000000000000000000000000000000000000000000000000000000000000000000000000000000000000000000000000000000000000000000000000000000000000000000000000000000000000000000000000000000000000000000000000000000000000000000000000000000000000000000000000000000000000000000000000000000000000000000000000000000000000000000000000000000000000000000000000000000000000000000000000000000000000000000000000000000000000000000000000000000000000000000000000000000000000000000000000000000000000000000000000000000000000000000000000000000000000000000000000000000000000000000000000000000000000000000000000000000000000000000000000000000000000000000000000000000000000000000000000000000000000000000000000000000000000000000000000000000000000000000000000000000000000000000000000000000000000000000000000000000000000000000000000000000000000000000000000000000000000000000000000000000000000000000000000000000000000000000000000000000000000000000000000000000000000000000000000000000000000000000000000000000000000000000000000000000000000000000000000000000000000000000000000000000000000000000000000000000000000000000000000000000000000000000000000000000000000000000000000000000000000000000000000000000000000000000000000000000000000000000000000000000130000000000000000000000000000000000000000000000000000000000000000000000000000000000000000000000000000000000000000000000000000000000000000000000000000000000005359000000000000000000000000000000000000000000000000000000000000000000000000000000000000000000000000000000000000000000000000000000000000000000000000000000000000005900000000000000000000000000000000000000000000000000000000000000000000000000000000000000000000000000000000000000000000000000000000000000000000000000000000000000000000000000000000000000000000000000000000000000000000000000000000000000000000000000000000000000000000000000000000000000000000000000000000000000000000000000000000000000000000000000000000000000000000000000000000000000000000000000000000000000000000000000000000000000000000000000000000000000000000000000000000000000000000000000000000000000000000000000000000000000000000000000000000000000000000000000000000000000000000000000000000000000000000000000000000000000000000000000000000000000000000000000000000000000000000000000000000000000000000000000000000000000000000000000000000000000000000000000000000000000000000000000000000000000000000000000000000000000000000000000000000000000000000000000000000000000000000000000000000000000000000000000000000000000000000000000000000000000000000000000000000000000000000000000000000000000000000000000000000000000000000000000000000000000000000000000000000000000000000000000000000000000000000000000000000000000000000000000000000000000000000000000000000000000000000000000000000000000000000000000000000000000000000000000000000000000000000000000000000000000000000000000000000000000000000000000000000000000000000000000000000000000000000000000000000000000000000000000000000000000000000000000000000000000000000000000000000000000000000000000000000000000000000000000000000000000000000000000000000000000000000000000000000000000000000000000000000000000000000000000000000000000000000000000000000000000000000000000000000000000
#104380:000000000000000000000000000000000000000000000000000000000000000000000000000000000000000000000000000000000000000000000000000000000000000000000000000000000000000000000000000000000000000000000000000000000000000000000000000000000000000000000000000000000000000000000000000000000000000000000000000000000000000000000000000000000000000000000000000000000000000000000000000000000000000000000000000000000000000000000000000000000000000000000000000000000000000000000000000000000000000000000000000000000000000000000000000000000000000000000000000000000000000000000000000000000000000000000000000000000000000000000000000000000000000000000000000000000000000000000000000000000000000000000000000000000000000000000000000000000000000000000000000000000000000000000000000000000000000000000000000000000000000000000000000000000000000000000000000000000000000000000000000000000000000000000000000000000000000000000000000000000000000000000000000000000000000000000000000000000000000000000000000000000000000000000000000000000000000000000000000000000000000000000000000000000000000000000000000000000000000000000000000000000000000000000000000000000000000000000000000000000000000000000000000000000000000000000000000000000000000000000000000000000000000000000000000000000000000000000000000000000000000000000000000000000000000000000000000000000000000000000000000000000000000000000000000000000000000000000000000000000000000000000000000000000000000000000000000000000000000000000000000000000000000000000000000000000000000000000000000000000000000000000000000000000000000000000000000000000000000000000000000000000000000000000000000000000000000000000000000000000000000000000000000000000000000000000000000000000000000000000000000000000000000000000000000000000000000000000000000000000000000000000000000000000000000000000000000000000000000000000000000000000000000000000000000000000000000000000000000000000000000000000000000000000000000000000000000000000000000000000000000000000000000000000000000000000000000000000000000000000000000000000000000000000000000000000000000000000000000000000000000000000000000000000000000000000000000000000000000000000000000000000000000000000000000000000000000000000000000000000000000000000000000000000000000000000000000000000000000000000000000000000000000000000053000000000000000000000000000000000000000000000000000000000000000000000000000000000000000000000000000000000000000000000000000000000000000000000000000000000000230000000000000000000000000000000000000000000000000000000000000000000000000000000000000000000000000000000000000000000000000000000000000000000000000000000000000000000000000000000000000000000000000000000000000000000000000000000000000000000000000000000000000000000000000000000000000000000000000000000000000000000000000000000000000000000000000000000000000000000000000000000000000000000000000000000000000000000000000000000000000000000000000000000000000000000000000000000000000000000000000000000000000000000000000000000000000000000000000000000000000000000000000000000000000000000000000000000000000000000000000000000000000000000000000000000000000000000000000000000000000000000000000000000000000000000000000000000000000000000000000000000000000000000000000000000000000000000000000000000000000000000000000000000000000000000000000000000000000000000000000000000000000000000000000000000000000000000000000000000000000000000000000000000000000000000000000000000000000000000000000000000000000000000000000000000000000000000000000000000000000000000000000000000000000000000000000000000000000000000000000000000000000000000000000000000000000000000000000000000000000000000000000000000000000000000000000000000000000000000000000000000000000000000000000000000000000000000000000000000000000000000000000000000000000000000000000000000000000000000000000000000000000000000000000000000000000000000000000000000000000000000000000000000000000000000000000000000000000000000000
#1043b0:000000000000000000000000000000000000000000000000000000000000000000000000000000000000000000000000000000000000000000000000000000000000000000000000000000000000000000000000000000000000000000000000000000000000000000000000000000000000000000000000000000000000000000000000000000000000000000000000000000000000000000000000000000000000000000000000000000000000000000000000000000000000000000000000000000000000000000000000000000000000000000000000000000000000000000000000000000000000000000000000000000000000000000000000000000000000000000000000000000000000000000000000000000000000000000000000000000000000000000000000000000000000000000000000000000000000000000000000000000000000000000000000000000000000000000000000000000000000000000000000000000000000000000000000000000000000000000000000000000000000000000000000000000000000000000000000000000000000000000000000000000000000000000000000000000000000000000000000000000000000000000000000000000000000000000000000000000000000000000000000000000000000000000000000000000000000000000000000000000000000000000000000000000000000000000000000000000000000000000000000000000000000000000000000000000000000000000000000000000000000000000000000000000000000000000000000000000000000000000000000000000000000000000000000000000000000000000000000000000000000000000000000000000000000000000000000000000000000000000000000000000000000000000000000000000000000000000000000000000000000000000000000000000000000000000000000000000000000000000000000000000000000000000000000000000000000000000000000000000000000000000000000000000000000000000000000000000000000000000000000000000000000000000000000000000000000000000000000000000000000000000000000000000000000000000000000000000000000000000000000000000000000000000000000000000000000000000000000000000000000000000000000000000000000000000000000000000000000000000000000000000000000000000000000000000000000000000000000000000000000000000000000000000000000000000000000000000000000000000000000000000000000000000000000000000000000000000000000000000000000000000000000000000000000000000000000000000000000000000000000000000000000000000000000000000000000000000000000000000000000000000000000000000000000000000000000000000000000000000000000000000000000000000000000000000000000000000000000000000000000000000000000000000000000000000000000000000000000000000000000000000000000000000000000000000000000000000000000000000000000000000000000000000000000000000000000000000000000000000000000000000000000000000000000000000000000000000000000000000000000000000000000000000000000000000000000000000000000000000000000000000000000000000000000000000000000000000000000000000000000000000000000000000000000000000000000000000000000000000000000000000000000000000000000000000000000000000000000000000000000000000000000000000000000000000000000000000000000000000000000000000000000000000000000000000000000000000000000000000000000000000000000000000000000000000000000000000000000000000000000130000000000000000000000000000000000000000000000000000000000000000000000000000000000000000000000000000000000000000000000000000000000000000000000000000000000005300000000000000000000000000000000000000000000000000000000000000000000000000000000000000000000000000000000000000000000000000000000000000000000000000000000000000000000000000000000000000000000000000000000000000000000000000000000000000000000000000000000000000000000000000000000000000000000000000000000000000000000000000000000000000000000000000000000000000000000000000000000000000000000000000000000000000000000000000000000000000000000000000000000000000000000000000000000000000000000000000000000000000000000000000000000000000000000000000000000000000000000000000000000000000000000000000000000000000000000000000000000000000000000000000000000000000000000000000000000000000000000000000000000000000000000000000000000000000000000000000000000000000000000000000000000000000000000000000000000000000000000000000000000
#104350:000000000000000000000000000000000000000000000000000000000000000000000000000000000000000000000000000000000000000000000000000000000000000000000000000000000000000000000000000000000000000000000000000000000000000000000000000000000000000000000000000000000000000000000000000000000000000000000000000000000000000000000000000000000000000000000000000000000000000000000000000000000000000000000000000000000000000000000000000000000000000000000000000000000000000000000000000000000000000000000000000000000000000000000000000000000000000000000000000000000000000000000000000000000000000000000000000000000000000000000000000000000000000000000000000000000000000000000000000000000000000000000000000000000000000000000000000000000000000000000000000000000000000000000000000000000000000000000000000000000000000000000000000000000000000000000000000000000000000000000000000000000000000000000000000000000000000000000000000000000000000000000000000000000000000000000000000000000000000000000000000000000000000000000000000000000000000000000000000000000000000000000000000000000000000000000000000000000000000000000000000000000000000000000000000000000000000000000000000000000000000000000000000000000000000000000000000000000000000000000000000000000000000000000000000000000000000000000000000000000000000000000000000000000000000000000000000000000000000000000000000000000000000000000000000000000000000000000000000000000000000000000000000000000000000000000000000000000000000000000000000000000000000000000000000000000000000000000000000000000000000000000000000000000000000000000000000000000000000000000000000000000000000000000000000000000000000000000000000000000000000000000000000000000000000000000000000000000000000000000000000000000000000000000000000000000000000000000000000000000000000000000000000000000000000000000000000000000000000000000000000000000000000000000000000000000000000000000000000000000000000000000000000000000000000000000000000000000000000000000000000000000000000000000000000000000000000000000000000000000000000000000000000000000000000000000000000000000000000000000000000000000000000000000000000000000000000000000000000000000000000000000000000000000000000000000000000000000000000000000000000000000000000000000000000000000000000000000000000000000000000000000000000000000000000000000000000000000000000000000000000000000000000000000000000000000000000000000000000000000000000000000000000000000000000000000000000000000000000000000000000000000000000000000000000000000000000000000000000000000000000000000000000000000000000000000000000000000000000000000000000000000000000000000000000000000000000000000000000000000000000000000000000000000000000000000000000000000000000000000000000000000000000000000000000000000000000000000000000000000000000000000000000000000000000000000000000000000000000000000000000000000000000000000000000000000000000000000000000000000000000000000000000000000000000000000000000000000000000000000000000000000000000000000000000000000000000000000000000000000000000000000000000000000000000000000000000000000000000000000000000000000000000000000000000000000000000059000000000000000000000000000000000000000000000000000000000000000000000000000000000000000000000000000000000000000000000000000000000000000000000000000000000000005953000000000000000000000000000000000000000000000000000000000000000000000000000000000000000000000000000000000000000000000000000000000000000000000000000000000000230000000000000000000000000000000000000000000000000000000000000000000000000000000000000000000000000000000000000000000000000000000000000000000000000000000000000000000000000000000000000000000000000000000000000000000000000000000000000000000000000000000000000000000000000000000000000000000000000000000000000000000000000000000000000000000000000000000000000000000000000000000000000000000000000000000000000000000000000000000000000000000000000000000000000000000000000000000000000000000000
#105320:130000000000000000000000000000000000000000000000000000000000000000000000000000000000000000000000000000000000000000000000000000000000000000000000000000000000005359000000000000000000000000000000000000000000000000000000000000000000000000000000000000000000000000000000000000000000000000000000000000000000000000000000000000005900000000000000000000000000000000000000000000000000000000000000000000000000000000000000000000000000000000000000000000000000000000000000000000000000000000000000000000000000000000000000000000000000000000000000000000000000000000000000000000000000000000000000000000000000000000000000000000000000000000000000000000000000000000000000000000000000000000000000000000000000000000000000000000000000000000000000000000000000000000000000000000000000000000000000000000000000000000000000000000000000000000000000000000000000000000000000000000000000000000000000000000000000000000000000000000000000000000000000000000000000000000000000000000000000000000000000000000000000000000000000000000000000000000000000000000000000000000000000000000000000000000000000000000000000000000000000000000000000000000000000000000000000000000000000000000000000000000000000000000000000000000000000000000000000000000000000000000000000000000000000000000000000000000000000000000000000000000000000000000000000000000000000000000000000000000000000000000000000000000000000000000000000000000000000000000000000000000000000000000000000000000000000000000000000000000000000000000000000000000000000000000000000000000000000000000000000000000000000000000000000000000000000000000000000000000000000000000000000000000000000000000000000000000000000000000000000000000000000000000000000000000000000000000000000000000000000000000000000000000000000000000000000000000000000000000000000000000000000000000000000000000000000000000000000000000000000000000000000000000000000000000000000000000000000000000000000000000000000000000000000000000000000000000000000000000000000000000000000000000000000000000000000000000000000000000000000000000000000000000000000000000000000000000000000000000000000000000000000000000000000000000000000000000000000000000000000000000000000000000000000000000000000000000000000000000000000000000000000000000000000000000000000000000000000000000000000000000000000000000000000000000000000000000000000000000000000000000000000000000000000000000000000000000000000000000000000000000000000000000000000000000000000000000000000000000000000000000000000000000000000000000000000000000000000000000000000000000000000000000000000000000000000000000000000000000000000000000000000000000000000000000000000000000000000000000000000000000000000000000000000000000000000000000000000000000000000000000000000000000000000000000000000000000000000000000000000000000000000000000000000000000000000000000000000000000000000000000000000000000000000000000000000000000000000000000000000000000000000000000000000000000000000000000000000000000000000000000000000000000000000000000000000000000000000000000000000000000000000000000000000000000000000000000000000000000000000000000000000000000000000000000000000000000000000000000000000000000000000000000000000000000000000000000000000000000000000000000000000000000000000000000000000000000000000000000000000000000000000000000000000000000000000000000000000000000000000000000000000000000000000000000000000000000000000000000000000000000000000000000000000000000000000000000000000000000000000000000000000000000000000000000000000000000000000000000000000000000000000000000000000000000000000000000000000000000000000000000000000000000000000000000000000000000000000000000000000000000000000000000000000000000000000000000000000000000000000000000000000000000000000000000000000000000000000000000000000000000000000000000000000000000000000000000000000000000000000000000000000000000000000000000000000000000000000000000000000000000000000000000000000000000000000000000000000000000000000
#105380:000000000000000000000000000000000000000000000000000000000000000000000000000000000000000000000000000000000000000000000000000000000000000000000000000000000000000000000000000000000000000000000000000000000000000000000000000000000000000000000000000000000000000000000000000000000000000000000000000000000000000000000000000000000053000000000000000000000000000000000000000000000000000000000000000000000000000000000000000000000000000000000000000000000000000000000000000000000000000000000000230000000000000000000000000000000000000000000000000000000000000000000000000000000000000000000000000000000000000000000000000000000000000000000000000000000000000000000000000000000000000000000000000000000000000000000000000000000000000000000000000000000000000000000000000000000000000000000000000000000000000000000000000000000000000000000000000000000000000000000000000000000000000000000000000000000000000000000000000000000000000000000000000000000000000000000000000000000000000000000000000000000000000000000000000000000000000000000000000000000000000000000000000000000000000000000000000000000000000000000000000000000000000000000000000000000000000000000000000000000000000000000000000000000000000000000000000000000000000000000000000000000000000000000000000000000000000000000000000000000000000000000000000000000000000000000000000000000000000000000000000000000000000000000000000000000000000000000000000000000000000000000000000000000000000000000000000000000000000000000000000000000000000000000000000000000000000000000000000000000000000000000000000000000000000000000000000000000000000000000000000000000000000000000000000000000000000000000000000000000000000000000000000000000000000000000000000000000000000000000000000000000000000000000000000000000000000000000000000000000000000000000000000000000000000000000000000000000000000000000000000000000000000000000000000000000000000000000000000000000000000000000000000000000000000000000000000000000000000000000000000000000000000000000000000000000000000000000000000000000000000000000000000000000000000000000000000000000000000000000000000000000000000000000000000000000000000000000000000000000000000000000000000000000000000000000000000000000000000000000000000000000000000000000000000000000000000000000000000000000000000000000000000000000000000000000000000000000000000000000000000000000000000000000000000000000000000000000000000000000000000000000000000000000000000000000000000000000000000000000000000000000000000000000000000000000000000000000000000000000000000000000000000000000000000000000000000000000000000000000000000000000000000000000000000000000000000000000000000000000000000000000000000000000000000000000000000000000000000000000000000000000000000000000000000000000000000000000000000000000000000000000000000000000000000000000000000000000000000000000000000000000000000000000000000000000000000000000000000000000000000000000000000000000000000000000000000000000000000000000000000000000000000000000000000000000000000000000000000000000000000000000000000000000000000000000000000000000000000000000000000000000000000000000000000000000000000000000000000000000000000000000000000000000000000000000000000000000000000000000000000000000000000000000000000000000000000000000000000000000000000000000000000000000000000000000000000000000000000000000000000000000000000000000000000000000000000000000000000000000000000000000000000000000000000000000000000000000000000000000000000000000000000000000000000000000000000000000000000000000000000000000000000000000000000000000000000000000000000000000000000000000000000000000000000000000000000000000000000000000000000000000000000000000000000000000000000000000000000000000000000000000000000000000000000000000000000000000000000000000000000000000000000000000000000000000000000000000000000000000000000000000000000000000000000000000000000000000000000000000000000000000000000000000000000000000000000000000000000000000000
#1063b0:000000130000000000335300
#106360:000000000000000000000000000000000000000000000000000000000000000000000000000000000000000000000000000000000000000000000000000000000000000000000000000000000000000000000000000000000000000000000000000000000000000000000000000000000000000000000000530000540000000000550000000000540000000000550000000000540000000000550000000000540000000000550000000000540000000000550000000000540000000000550000000000540000000000550000000000540000000000550000000000540000000000550000000000540000000000000000330000000000000000000000000000000000000000000000000000000000000000000000000000000000000000000000000000000000000000000000000000000000000000000000000000000000000000000000000000000000000000000000000000000000000000000000000000005300000000530000000000530000000000530000000000530000000000530000
#106340:00000000000000000000000000000000000000000055005500550055005500550055005500550055000000000000000000000000000000000000000000000000
#106350:0000000000000000000000545454545454545454000000000000000000000000
#106390:000000000000000000000000000000003333000000000000
#106380:0000000000000033
#106370:00000000000000000000000000000000000000000000000000000000000000000000000000000000000000000000000000000000000000000000005353535353
#107370:53535353535353530000000000000000000000000000000000000000000000000000000000000000000000000000000000000000000000000000000000000000
#107360:0053005300530053005300530053005333000000000000000000000000000000000000000000000000000000000000000000000000000000000000000000000000000000000000000000000000000000000000000000000000000000000000000000000000000000000000000000000000000000000000000000000000000000
#107380:000000003333000000000000000000000000000000000000
#1073b0:00230000
#106321:000000000000000000000000000000000000000000000000000000000000000000000000000000000000000000000000000000000000000000000000000000000000000000000000000000000000000000000000000000000000000000000000000000000000000000000000000000000000000000000000000000000000000000000000000000000000000000000000000000000000000000000000000000000000000000000000000000000000000000000000000000000000000000000000000000000000000000000000000000000000000000000000000000000000000000000000000000000000000000000000130000000000000000000000000000000000000000000000000000000000000000000000000000000000000000000000000000000000000000000000000000000000000000000000000000000000000000000000000000000000000000000000000000000000000000000000000000005300000000530000000000530000000000530000000000530000000000530000
#106341:000000000000000000000000000000003333000000330000
#106371:000000000000000000335300
#106331:00000000000000000000000000000000000000000000000000000000000000000000000000000000000000000000000000000000000000000000005353535353
#107331:53535353535353532300000000000000000000000000000000000000000000000000000000000000000000000000000000000000000000000000000000000000
#107321:0053005300530053005300530053005300000000000000000000000000000000000000000000000000000000000000000000000000000000000000000000000000000000000000000000000000000000000000000000000000000000000000000000000000000000000000000000000000000000000000000000000000000000
#107361:00130000
#107321:000000000000000000000000000000000000000000000000000000000000000000000000000000000000000000000000000000000000000000000000000000000000000000000000000000000000000000000000000000000000000000000000000000000000000000000000000000005300000000530000000000530000000000530000000000530000000000530000000000530000000000530000000000530000000000530000000000530000000000530000000000530000000000530000240000000000000000000000000000000000000000000000000000000000000000000000000000000000000000000000000000000000000000000000000000000000000000000000000000000000000000000000000000000000000000000000000000000000000000000000000000000000000000000000000000000000000000000000000000000000000000000000000000000000000000000000000000000000000000000000000000000000000000000000000000000000000000000000
#107331:00000000000000000000000000000000000000535353535353535353535353530000000000000000000000000000000000000000000000000000000000000000
#108321:00142400
#108371:0000005500000000
#1083a0:00001424
#108340:0000000000550000
#108321:00000014
#108371:0000000000000055
#109321:24
#1093a1:00143400
#109351:0000003400003400
#109371:0000000000340000
#109341:0000000000000035
#110351:35
#110361:0035000000000000
#110381:00260000
#112321:00162600
#112381:0000005600000000
#112380:00001626
#112320:0000000000560000
#112321:00000016
#112381:0000000000000056
#113321:26
#114321:00000013000000000000000000000000
#115381:00530000
#115351:00000053
#116321:00530000
#116341:00000053
#117361:00530000
#117341:00000053
#118321:00530000
#118341:0000000000000000000000000000000000000000005300000000000000000000
#119361:00530000000000000000000000000000
#119321:00000000002300000000000000000000
#114380:00130000
#1153b0:00530000
#115390:00000053
#116370:00530000
#116390:00000053
#1173b0:00530000
#117380:00000053
#118350:00530000
#118380:0000000000000000000000000000000000000000005300000000000000000000
#1193b0:00530000000000000000000000000000
#119370:00000000002300000000000000000000
