This file was generated by Ched 2.7.0.0.
#TITLE ""
#ARTIST ""
#DESIGNER ""
#DIFFICULTY 0
#PLAYLEVEL
#SONGID ""
#WAVE ""
#WAVEOFFSET 0
#JACKET ""
#REQUEST "ticks_per_beat 480"
#00002: 4
#BPM01: 190
#00008: 01
#TIL00: ""
#HISPEED 00
#MEASUREHS 00
#00914:00000014
#0091a:0014
#00915:0024000000000000
#01019:14
#01018:0014
#01013:00140000
#01518:00000014
#01514:0014
#0151a:0024000000000000
#01612:14
#0161a:00140000
#03314:0014
#0331a:00240014
#03310:00410000
#03414:14
#0341a:00140000
#03412:00000014
#03518:1414
#03512:00140014
#03614:0014
#03619:00000014
#0361a:00240000
#03713:14
#03718:00140000
#03712:00000014
#03818:14
#03813:00140000
#03819:0014
#03814:00000014
#04412:0014
#04415:000000003434
#04712:0000000000140000
#04718:0000000000000014
#0471a:0000002400000000
#04814:0014000000140000
#0481a:0000001400000000
#04818:0000000000000014
#04912:0014000000000000
#04918:0000001400000000
#04914:0000000000140000
#0491a:0000000000000014
#04910:0000004100000000
#05012:0014000000000000
#05014:0000000000000014
#0511a:0000000000140000
#05114:0000000000000014
#05118:0014000000000000
#05112:0000002400000000
#05218:0014000000140000
#05212:0000001400000000
#05214:0000000000000014
#0531a:0014000000000000
#05414:0000000000000014
#05518:0014000000000014
#05514:0000001400000000
#05614:0014000000000000
#05618:0000001400000000
#05612:0000000000000014
#0581a:0000000000000014
#05818:0014000000000000
#05914:0014000000000000
#0591a:0000001400000000
#05912:0000000000140000
#05918:0000000000000014
#06012:0014000000000000
#06114:0000000000000014
#06218:0014000000140000
#06214:0000001400000000
#08512:00140000
#0861a:00140000
#08818:00140000
#0881a:00000014
#08714:00140000
#0901a:0014
#09014:00000014
#09012:00240000
#0901f:00210000
#09118:1414
#09112:00140000
#09114:00000014
#09110:00410000
#0921a:14
#09214:00140000
#09218:0014
#09212:00000014
#0931a:14
#09318:00000014
#09412:0014
#09418:00000014
#09414:14
#0941a:00240000
#09514:1414
#0951a:00140000
#09518:00000014
#09612:14
#10818:00140000
#10812:0014
#1081a:00000014
#10914:14
#10912:0016
#10915:0000000000000016
#10918:00140000
#00514:14
#0051a:0014
#00612:14
#00618:0014
#04515:343434140000
#04512:000000003434
#02912:0014000000000000
#02918:0000001400000000
#02914:0000000000140000
#0291a:0000000000000014
#03012:0014000000000000
#03018:0000001400000000
#03014:0000000000140000
#0301a:0000000000000014
#03114:0014
#06514:0014000000000014
#06518:00140000
#06510:0000000000410000
#0681a:0000001400000000
#06818:0000000000000014
#06819:0000000000340000
#0691a:0000001400000000
#06919:0034000000340000
#06918:0000000000000034
#07018:0014000000000014
#07012:0000000000140000
#06612:0000001400000000
#06614:0000000000000014
#06613:0034000000340000
#06712:0000003400140000
#06713:0034000000000000
#07114:0014000000140000
#07118:0000000000000014
#0711a:0000002400000000
#07218:0000001400000000
#07214:0000000000140000
#07212:0024000000000000
#0721a:0000000000000024
#0761a:0000000000140000
#07616:0000000000000014
#07712:0014000000000000
#07718:0000001400000000
#07710:0000004100000000
#0781a:0000000000000014
#09718:00000014
#09814:14000014
#09818:00140000
#09918:14
#09914:00140000
#0991a:00000014
#10112:00000014
#10114:14
#10218:14
#10212:00140000
#1021a:0014
#10214:00000014
#1031a:14
#10418:00000014
#10514:1424
#10518:00140000
#11415:00160000
#1181a:0014
#11312:00160000
#11318:16
#11212:00160016
#11218:0016
#0631a:00000000000014000000000000340000
#08214:00140000
#08112:00140000
#0811f:00110000
#08418:00140000
#0831a:00140000
#10014:14
#10018:00140014
#10012:0014
#05718:0014000000000000
#05714:0000001400000014
#0571a:0000000000140000
#02512:0014003434343400
#02514:0000000000000014
#0271a:0014003434340000
#02718:0000000000000014
#01112:0024000000001400
#01118:0014
#01219:14
#0121a:0014
#01213:00140000
#01314:0024000000001400
#01318:0014
#0141a:14
#01416:0014
#01412:00140000
#11012:00260000
#11018:00000026
#11112:00260000
#11118:00000026
#07314:0000002400000000
#07318:0000000000240000
#07312:0000000000000024
#0741a:0024000000000000
#07414:0000002400000000
#07518:0024000000000000
#07512:0000000000000024
#00815:00000034000000000034000000000000
#00714:00000000000000000000000000340000
#00713:00000000000000340000000000000000
#04612:343400000000
#0641a:00000034000000000034000000000000
#02612:3434003434000000
#0281a:0034003434000000
#01710:0041000000000000
#04452:0054
#08552:00540000
#0865a:00640000
#08858:00540000
#0885a:00000054
#08754:00640000
#00955:0014000000000000
#01152:0014000000000000
#0475a:0000001400000000
#09052:00140000
#10554:0014
#11052:00160000
#11058:00000016
#04555:0054
#11152:00160000
#11158:00000016
#10952:0056
#10955:0000000000000026
#0345a:00140000
#03552:00000014
#03758:00140000
#03854:00000014
#05552:0000000000140000
#05554:0000005400000000
#0565a:0000000000140000
#05658:0000005400000000
#06258:0000000000640000
#07058:0064000000000000
#0695a:0000006400000000
#06858:0000000000000064
#0685a:0000006400000000
#06554:0000000000000064
#06652:0000006400000000
#06654:0000000000000064
#06752:0000000000640000
#07558:0054000000000000
#07552:0000000000000054
#07454:0000006400000000
#07758:0000005400000000
#0785a:0000000000000024
#09858:00640000
#0985a:0014
#09954:00640000
#09952:0014
#11455:00560000
#1185a:0024
#0635a:0000005400000000
#08254:00540000
#08152:00540000
#08458:00640000
#0835a:00640000
#03154:0054
#02554:0000000000000024
#02552:0054000000000000
#0275a:0064000000000000
#02758:0000000000000024
#01354:0014000000000000
#0155a:0014000000000000
#001320:14
#001340:0000000000340000
#002340:34
#002320:0000000000240000
#0033a0:14
#003380:0000000000340000
#004380:34
#0043a0:0000000000240000
#007320:14
#007330:00000000000000340000000000000000
#007340:00000000000000000000000000340000
#008350:00000034000000000034000034000000
#009350:0024000000000000
#010320:00000014
#011320:0024000000000000
#012340:00000014
#013340:0024000000000000
#0143a0:00000014
#0153a0:0024000000000000
#017320:0014000000000000
#018340:0024000000000000
#0193a0:0014000000000000
#020380:0024000000000000
#021340:0014000000000000
#022320:0024000000000000
#023380:0014000000000000
#0243a0:0024000000000000
#025320:0014003434343400
#025340:0000000000000054
#026320:3434003434240000
#0273a0:0014003434340000
#027380:0000000000000034
#0283a0:0034003434240000
#031340:0014000034000000
#032320:000000340034002400000000
#0393a0:00140000
#039380:0000000000340000
#0403a0:34
#040380:0000002400000000
#040320:00000014
#041340:0034000000000024
#041320:0034
#0423a0:00140000
#042380:0000000000240000
#043320:14
#043340:0000002400000000
#0433a0:00000014
#044380:0024000000000000
#044320:0014
#044350:000000003434
#045350:343434340000
#045320:000000003434
#046320:343424000000
#050380:0000001400240000
#053320:0000001400240000
#053381:0000001400240000
#0543a1:0014002400000000
#054340:0014002400000000
#055340:0000001400000000
#055320:0000000000240000
#056380:0000001400000000
#0563a0:0000000000240000
#058320:0000001400240000
#0603a0:0000001400240000
#060320:0000000000000014
#061320:0024000000000000
#061380:0000001400240000
#062380:0000000000140000
#0633a0:00000000000034000000000000340000
#0643a0:00000034000000000034000000000000
#064380:00000000000000000000000000000024
#065340:0000000000140034
#066330:0034000000340000
#066320:0000003400000000
#066340:0000000000000034
#067330:0034000000000024
#067320:0000003400340000
#0683a0:0014003400000000
#068390:0000000000340000
#068380:0000000000000034
#069390:0034000000340000
#0693a0:0000003400000000
#069380:0000000000000034
#070380:0034000000000000
#070390:0000002400000000
#074340:0000001400000000
#074320:00000024
#075380:0014000000000000
#0753a0:0024
#075320:0000000000000014
#076340:00240000
#077380:0000001400000000
#0783a0:0000000000000054
#080380:0000002400000000
#081320:00140000
#081340:00000034
#082340:00340000
#082320:00000024
#0833a0:00140000
#083380:00000034
#084380:00340000
#0843a0:00000024
#085320:00140000
#085340:00000024
#0863a0:00140000
#086380:00000024
#087340:00140000
#087320:00000024
#088380:00140000
#0883a0:00000034
#089380:00240000
#093340:00142400
#0963a0:00142400
#096341:00142400
#097321:14240000
#097380:14240000
#098380:00140000
#0983a0:0024
#099340:00140000
#099320:0024
#1013a0:00142400
#103320:00142400
#1033a0:00000014
#1043a0:24
#104340:00142400
#106320:00145454
#106330:0000005400540054
#107320:54240000
#107330:0054000000000000
#1063a1:00145454
#106391:0000005400540054
#1073a1:54240000
#107391:0054000000000000
#109321:0016
#109351:0000000000000056
#110321:00260000
#113381:0016
#114351:00360000
#1183a1:0054
#119381:00000000002400000000000000000000
