This file was generated by Ched 2.7.0.0.
#TITLE ""
#ARTIST ""
#DESIGNER ""
#DIFFICULTY 0
#PLAYLEVEL
#SONGID ""
#WAVE ""
#WAVEOFFSET 0
#JACKET ""
#REQUEST "ticks_per_beat 480"
#00002: 4
#BPM01: 132
#00008: 01
#TIL00: ""
#HISPEED 00
#MEASUREHS 00
#0011a:14
#00214:14
#00318:14
#00412:14
#00714:0014
#00818:0014
#00810:0041
#00912:0014
#0101a:0014
#01114:0014
#01218:0014
#01612:14
#01610:41
#01718:14
#01818:14
#01914:14
#02014:14
#0211a:14
#0221a:14
#04112:0016
#04118:26
#0411f:21
#04218:16
#04212:0016
#04210:41
#04518:0016
#04612:16
#04618:0016
#04912:0016
#05018:16
#05012:0016
#05118:16
#05112:0016
#05218:16
#05212:0016
#05914:0014
#06018:0014
#06112:0014
#0621a:0014
#06314:0014
#06418:0014
#06512:0014
#0311f:11
#02310:41
#05310:41
#03010:41
#0053a0:14
#0063a0:3424
#013320:0014
#014320:34
#015320:24
#023320:14
#024320:24
#025380:14
#026380:24
#027340:14
#028340:24
#0293a0:14
#0303a0:24
#031320:15
#032340:35
#033320:35
#034340:25
#035390:15
#036370:35
#037390:35
#038370:25
#039330:14
#040330:24
#043380:1626
#044320:16363636
#045320:26
#047320:1626
#048380:16363636
#049380:26
#053380:16363636
#054380:26
#055320:16
#056320:26
#057380:16
#058380:3626
#0663a0:0014
#0673a0:00000000000000003400003400002400
