This file was generated by Ched 2.7.0.0.
#TITLE ""
#ARTIST ""
#DESIGNER ""
#DIFFICULTY 0
#PLAYLEVEL
#SONGID ""
#WAVE ""
#WAVEOFFSET 0
#JACKET ""
#REQUEST "ticks_per_beat 480"
#00002: 4
#BPM01: 132
#00008: 01
#TIL00: ""
#HISPEED 00
#MEASUREHS 00
#00018:0000000000000013
#00015:00000000000000000000000000000013
#0011b:13000000001300000000000000000000
#00112:00001300000000000000000000130000
#00117:00000013000000000000000013000000
#00116:0000001300000000
#00114:00000000000000000000000000000013
#00119:0000000000000013
#0021b:13000013000000000013000000000000
#00216:0013000000130000
#00217:00000000001300000000000000001300
#00219:00000000000000000000001300000000
#00214:00000013
#00212:0000001300000013
#00317:00130000
#0031b:0000001300001300
#00319:0000000000000013
#00312:00130000
#00316:0000001300001300
#00314:0000000000000013
#00417:1300000000000000000000000000001300000000000000000000000000000000
#00416:00001313000000000000000000000000
#00418:0000000000000013
#00415:00000000000000000000000000000013
#00412:1300000000000000000000000000001300000000000000000000000000000000
#0041b:00001313000000000000000000000000
#00518:13000000000000130000130000000000
#00515:00000000000013000000001300000000
#00512:00001313000000001300000000001313
#0051b:0033000000001300
#00517:00000000000000000000000000001313
#00612:0012
#00615:00000000000000000000001200000000
#00619:00000000000000000000000012120000
#00618:0012
#0071b:0012000000000000
#00716:0000001200000000
#00718:00000000000000120000120000000000
#0071a:0012
#00714:00000000000000000000001200120000
#00812:0012000000000000
#00816:00121200
#0081c:0012
#00819:00000000000000000000001200000000
#00815:00000000000000000000000012120000
#00810:0041
#01018:00001200120000000000001300130000
#01015:0000000000001313
#0101b:0023
#01016:0023
#01012:0032000000000000
#0111b:0013000013000013
#01118:00000000000013000000001300000000
#01115:00000000000000130000000000130000
#01112:0013000000130000
#01217:0013000023000000
#01216:00130000
#01212:0013000023000000
#0121b:00130000
#01215:00000000000000000000001300130000
#01218:0000000000001313
#0141b:0000000000000013
#01412:00000000001300000000000000000000
#01416:0000000000000013
#01418:00000013
#01517:13000000000000130000000000000000
#0151b:00000013000000000000000013000000
#01516:00130000
#01514:0000001300000000
#01519:00000000001300000000000000000000
#01515:0000000000000013
#01512:13000000000000000000333300000000
#01618:13
#01617:00001300000013000000000000000013
#0161b:00000000130000000000001300000000
#01616:00130013
#01619:00000000000000000000000000130000
#01614:0000000000000013
#01612:0013001300000000
#01610:41
#01712:13130000
#01717:00000013000000000000130013000000
#01719:00000000001300000000000000001300
#01714:0000001300000000
#0171b:00000000000000130000000000000000
#01716:0013
#0181b:1300001300000013
#01817:00001300000000000000001300000000
#01819:00130000
#01812:0013000000131300
#01816:13000000000013000000000000000013
#01814:00130000
#0191b:13000000000013000000001300000013
#01912:0013000013000013
#01917:00000013000000001300000000000000
#01916:00000000001300000000000000000000
#01915:00000013
#01918:00000000000000000000000000130000
#02015:1300001300000000
#02017:0013000000000000
#02012:00000013000000001300000000000000
#0201b:00000000001300000000001300130000
#02018:00000000000000130000000000000000
#02016:0000000000001313
#02117:1300130000130000
#02112:0000000000001300000000000000000000000000001300000000000000000000
#02114:00000000001300000000000000000000
#02119:0000001300001300
#02116:00000000000000130000000000000000
#0211b:0000000000000013
#02217:13
#02218:00000000130000000000000013000013
#0221b:0000001300000000
#02215:00001300000000000000001300001300
#02212:13
#02216:0000001300000000
#02312:1300001300000000
#0231b:00001300000000130000000000001300
#02315:00000013000000001300000013000013
#02318:00000000001300000000001300000000
#02310:41
#02418:13000000003300001300000000000000
#02412:00130000000000000000001300000000
#0241b:0013000000000000
#02415:00000013000000330000000000000000
#02417:00000013
#02414:00000000000000000000000000130000
#02419:0000000000000013
#02416:00000000000000000000000000000013
#0251b:13000000130000000013000000130000
#02517:0013000000000000
#02512:0013001300001300
#02518:00000000000000130000001300000013
#02515:0000000013130013
#02516:00130000
#02617:0000000000130000
#0261b:0000001300000000
#02612:0000000000130000
#02718:00130013000000130000000000000000
#02712:0013000000001300
#02715:00000000130013000013000000000000
#0271b:00000000001300000000130000000000
#0281b:00130000000000000000000013000000
#02815:00001300000000130000000000000000
#02818:00000013000013000013000000001300
#02812:0000130000130013
#0291b:13000000000000130000000013000000
#02918:0013130000130000
#02912:00000013000000000013000000003333
#02915:13000000000013000000001300000000
#03017:00001313000000000000000000000000
#03018:0000000000000013
#03015:00000000000000000000000000000013
#03016:00000000001313000000000000000000
#0301b:2300002300000000
#03012:00000023000000000000000000000000
#03010:41
#03118:13000000330000003300000000000013
#03112:00131300
#03115:0000000000001313
#0311b:0000001300000000
#0311f:11
#03218:0000000000001313
#03215:13000000330000003300000000000013
#0321b:00131300
#03212:0000001300000000
#0331b:1300001300000013
#03315:00001300000000130000000000000000
#03318:00000013000000000000000000000000
#03312:00130000
#03317:0000000000130000
#03316:0000000000000013
#0341b:13000000000013000000000000130000
#03417:0013
#03418:00000000000000000000130000000013
#03415:00000000000000000000001300001300
#03416:1300001300000000
#03412:0013
#03517:00000000000013000000001300000000
#0351b:2313
#03512:2313231323132313
#03616:00000000000013000000001300000000
#0361b:2313231323132313
#03612:2313
#0381b:00000000000013000000001300000000
#03817:0000000013000013
#03816:12000000000013000000001300000000
#03812:0013
#04018:00000013
#04015:00000013
#04012:00002400002400002400000000000000
#0401a:00002400002400002400000000000000
#04118:00001300001300000000000000000000
#0411b:23000013
#04115:00000023000023000000000000130000
#04119:0000000000000013
#04113:00000000000000000000000000000013
#04112:23000000000000000013000000000000
#0411f:21
#04217:1300001300000013
#04216:00001323000000000013000000000000
#04212:00000000001323000000000000001300
#0421b:00000013000000000000130000000000
#04214:00000000000000000000001300000000
#04219:00000013
#04210:41
#04317:0000001300000013
#0431b:0000000000130000
#04319:00000013
#04312:0000001300000013
#04316:0000000000130000
#04314:00000013
#0441b:13000000001313000000000000000000
#04412:00001313000000000000000000000000
#04417:00000013000000000000130000000000
#04415:0000000000000013
#04418:00000000000000000000000000000013
#04416:1300001300000000
#04717:1300001300000000
#04715:0000000000130000
#04712:1300001300001300
#0471b:00000000000000000013000000001300
#04718:00000000000000000000001300000000
#04817:13000000000000130000130000001300
#0481b:00000000131300000000000013000000
#04816:00000000131300000000000013000000
#04812:00000000000000000000133300330000
#04918:0000001313000000
#04915:00000000000000130000000000000000
#04912:0000000000130000
#04917:00000000000000000000001300000000
#0491b:00000000000000000000000000130000
#04916:0000130000000013
#0501b:0013130000130000
#05016:00000013000000000000001300000000
#05012:00000000000013001300000000130000
#05017:00000000000000130000000000001300
#05116:13000000000023000000233300000000
#0511b:13000000000023000000232300000000
#05112:00000000000000002300000000000013
#05117:00000000000000002300000000002323
#05218:0000000000001313
#05212:0000001300000000
#05217:0000001300000000
#05215:00000000000000000000000000130000
#05315:0013131300130013
#05318:00000013001300130013000000130000
#05312:00001313
#0531b:00000000000000000000001300000013
#05310:41
#05418:0000001300000000
#05415:00000000000000130000000000000000
#0541b:00000023000000001300000000000000
#05419:00000000000000000000001300000000
#05417:0000000000000013
#05414:00000000000000000000001300000000
#05412:2300000000000013
#0551b:13
#05517:0000001300000000
#05512:0000001300000000
#05516:13
#05615:00000012000000000000120000000000
#05619:00001200120000000012000000000000
#05613:0000001200000000
#05618:00000000000000120000000000000000
#05614:0012
#0561a:00000000000000000000001200000000
#05616:00000012
#0561b:00000000000000000000000000120000
#05617:0000000000000012
#05914:00001300000000000000000000000013
#05916:00000000130000000000001300000000
#05912:0000001313000000
#05917:00000000000000130000000000000000
#0591b:0000130000130000
#0591a:00000013
#05915:00000000000000000000000000130000
#05919:0013000000000013
#06018:13000013000013000000000000001300
#06015:00001300000000130000000000130000
#06012:0000130000130000
#0601b:00001313
#06017:0000000000130000
#06112:1300130000130013
#06118:00130000000013001300001300000000
#06115:00001300000000130000000013000000
#0611b:00000000130000000000000000130000
#0621b:0013130000130000
#06215:00000000000000000000001300000013
#06218:0000000000001313
#06212:00000000000000001300000000130000
#06216:00130000
#06715:00001300000000130000000013000000
#06718:00000013000013000000001300000000
#06712:0000130000130023
#0671b:00000000000000001300000000130000
#00913:0012000000000000
#00918:0000001200000000
#00916:00000000000000120000120000001200
#00914:0012
#0091a:00000000000000000000001200120000
#01312:0013000013000000
#01315:00000000000013000000001300001300
#01318:00000000000000130000000000130000
#0131b:0013000000130000
#0371a:12
#03714:12
#03718:0000001212000000
#03716:00000000000000120000000000000000
#0371b:00000012
#0391b:1300001300000000
#03912:00000013000000000013000000000000
#03918:0000000000001313
#03915:00000000000000000000000000130013
#03916:13230000000013230000000000000000
#03917:00000013230000000013230000000000
#04515:00001300001300000000000000000000
#04512:23000013
#04518:00000023000023000000000000130000
#04514:0000000000000013
#0451a:00000000000000000000000000000013
#0451b:23000000000000000013000000000000
#04616:1300001300000013
#04617:00001323000000000000130000000000
#0461b:00000000001323000000000000001300
#04612:00000013000000000000000000000000
#04619:00000013
#04614:00000013
#05715:0000001300000000
#05718:00000000000000130000000000000000
#05712:0013
#05714:00000000000000000000001300000000
#05716:00000000000000000000000000130000
#05719:0000000000130000
#0571b:2200000000000013
#05713:22000022000000000000000000000000
#05812:13
#05816:0000001300000000
#0581b:0000001300000000
#05817:13
#06319:00001300000000000000000000000013
#06317:00000000130000000000001300000000
#0631b:1300001313000000
#06316:00000000000000130000000000000000
#06312:0000130000130000
#06313:00000013
#06318:00000000000000000000000000130000
#06314:0013000000000013
#06415:13000013000013000000000000001300
#06418:00001300000000130000000000130000
#0641b:0000130000130000
#06412:00001313
#06416:0000000000130000
#0651b:1300130000130013
#06515:00130000000013001300001300000000
#06518:00001300000000130000000013000000
#06512:00000000130000000000000000130000
#06612:0013000000000000
#06615:0000232300000000
#06618:00000000002300230000000000000000
#00156:0000005300000000
#00252:0000005300000053
#00257:0000000000000053
#0035b:0000005300000000
#00356:0000005300000000
#00456:00000053000000000000000000000000
#00452:0000000000000000000000000000002300000000000000000000000000000000
#0045b:00000053000000000000000000000000
#00457:0000000000000000000000000000002300000000000000000000000000000000
#00558:63
#00552:00000000000000000000000000000053
#00557:00000000000000000000000000000053
#00956:0000000000000052
#01052:00120000
#01058:00120000
#01055:0000000000000053
#01152:0023000000000000
#0115b:0000000013000013
#01158:00000000000000000000001300000000
#01256:00130000
#0125b:00130000
#01258:0000000000000063
#01352:0013
#01355:00000000000000000000001300005300
#0135b:0023000000000000
#01452:00000000002300000000000000000000
#01652:0000005300000000
#01752:13
#01756:0053
#0185b:0000005300000000
#01852:00000013
#0195b:1300001300000000
#01957:00000013000000001300000000000000
#02055:13
#02052:00000013000000001300000000000000
#02056:0000000000000053
#02157:13
#02156:00000000000000530000000000000000
#02152:0000000000000000000000000000000000000000002300000000000000000000
#02256:0000001300000000
#0225b:0000001300000000
#02458:0013
#02652:0000000000530000
#02657:0000000000530000
#02758:00000000000000530000000013000000
#0275b:0000000000530000
#02752:00000013
#02855:00000000000000630000000013000000
#02852:0000000000630000
#0285b:00000013
#03158:53
#0315b:0000002300000000
#03255:63
#03252:0000002300000000
#03355:00000000000000530000000000000000
#0345b:53
#03456:53
#0355b:0053
#03557:00000000000000000000005300000000
#03652:0063
#03656:00000000000000000000006300000000
#03758:0052
#0375b:00000022
#03856:00000000000000000000005300000000
#03852:0053
#04152:13000000000000000023000000000000
#0415b:13
#04155:0000005300000000
#04055:00000053
#04257:5300005300000053
#0425b:00000053000000000000000000000000
#04252:0000000000000053
#04357:0000001300000000
#04352:0000001300000000
#04456:0000005300000000
#04452:0000000000130000
#04457:0000000000130000
#04656:6300006300000000
#04652:00000063000000000000000000000000
#0455b:13000000000000000023000000000000
#04552:13
#04558:0000006300000000
#04757:5300001300000000
#04752:5300001300000000
#04852:0000000000530000
#04856:00000023
#04857:0000000000000053
#04957:00000000000000000000001300000000
#04956:0000000000000013
#05056:00000000000000000000001300000000
#05057:0000000000000013
#05156:5300000000530000
#0515b:53
#05152:00000000000000000000000000000053
#05157:00000000000000000000000000000053
#05252:0000005300000000
#05257:0000005300000000
#05258:0000000000000013
#05556:53
#05557:0000005300000000
#05552:0000005300000000
#05856:0000006300000000
#0585b:0000006300000000
#05857:63
#06052:00130000
#06152:0000000000000053
#0625b:00530000
#0645b:00130000
#0655b:0000000000000063
#06752:0000130000000013
#0675b:0013
#0065b:00130000
#00656:00130000
#001360:0000001300000000
#001320:00000023
#002320:0000001300000000
#002360:00000000000000000023000000000000
#002320:0000000000000013
#003360:0023000000000000
#002371:0000000000000013
#0033b1:0023000000000000
#003361:0000001300000000
#003321:0000000000230000
#0033b0:0000001300000000
#003370:0000000000230000
#004360:00000013000000000000000023000000
#004320:0000000000000000000000000000005300000000000000000000000000000000
#0043b1:00000013000000000000000023000000
#004371:0000000000000000000000000000005300000000000000000000000000000000
#005381:13
#0053b1:00003323000000000000000000000000
#005321:00000000000000000000000000000013
#006361:00230000
#005370:00000000000000000000000000000013
#0063b0:00230000
#006350:0000000000000012
#007350:0022000000000000
#007380:0000000000000012
#008380:0032220000000000
#008390:0000000000000012
#009390:0022000000000000
#009360:0000000000000012
#010320:0032220000000000
#010350:0000000000000013
#011320:0033000000000000
#011350:0000002300000000
#012380:0000000000000013
#0133b0:0033000000000000
#013380:0000002300000000
#013350:0000000000000013
#014320:00000000005300000000000000000000
#014350:00000023
#015320:00000000000000000013333300000000
#015360:00000023
#016320:0000001300000000
#016360:00000000000000000000002300000000
#017360:0013
#017320:00000023
#0183b0:0000001300000000
#018370:0000000000230000
#020360:0000000000000013
#021320:23
#021360:00000000000000130000000000002300
#021320:0000000000000000000000000000000000000000005300000000000000000000
#024380:00000000133300000000000000000000
#0243b0:0000002300000000
#024351:00000000000013330000000000000000
#024321:0023
#026321:13
#026341:00330000000000000000000000000000
#026361:0023000000000000
#0263b0:0013000000000000
#026390:00000033000000000000000000000000
#026370:00230000
#026321:00130000
#026341:00000000003300000000000000000000
#026361:0000002300000000
#026361:00000000000000130000000000002300
#026321:0000000000330000
#026370:0000000000130000
#0263b0:0000000000000023
#027380:00000000000000130000000000000000
#0273b0:00000000000000000023000000000000
#0273b0:0000000000130000
#027380:00000023
#028350:00000000000000130000000000000000
#028320:00000000000000000023000000000000
#028320:0000000000130000
#028350:00000023
#029320:00000000000000000000000000133333
#030360:23
#031380:13333323
#0313b0:0000005300000000
#032350:13333323
#032320:0000005300000000
#033350:00000000000000130000000000000000
#033320:0000000000230000
#034360:13
#034320:00230000
#0343b1:13
#034371:00230000
#0353b1:0000000013000023
#035371:00000000000000000000003300000000
#036321:0000000013000023
#036361:00000000000000000000003300000000
#037381:0012
#0373b1:00000052
#038381:22
#038321:0000000013000023
#038361:00000000000000000000003300000000
#040351:00000013
#041321:23
#041351:0000001300002300
#041321:00000000000000000053000000000000
#042371:13000000003333000000000000000000
#0423b1:00003333000000000023000000000000
#042321:0000000000000013
#043361:00230000
#042370:0000000000000013
#0433b0:00230000
#044360:0000001300000000
#044320:0000000000230000
#045380:0000001300002300
#0453b0:00000000000000000053000000000000
#046360:13000000003333000000000000000000
#046320:00003333000000000000230000000000
#047370:13
#0473b0:00230000
#047321:13
#047361:00230000
#047361:0000000000000013
#048321:23
#048321:00000000000000130000333300332300
#048361:00000033
#048370:0000000000000013
#0493b0:00230000
#051360:13
#051320:00230000
#0513b1:13
#051371:00230000
#051361:00000000000000000000133300000000
#051321:00000000000000000000000000003333
#052361:00230000
#051370:00000000000000000000000000000013
#0523b0:00230000
#052320:0000001300000000
#052360:0000000000230000
#052371:0000001300000000
#0523b1:0000000000230000
#054321:13000023000000000000000000000000
#055361:13
#055321:0000003300000000
#056361:23
#055370:0000001300000000
#0563b0:23
#0573b0:12000022000000000000000000000000
#058370:13
#0583b0:0000003300000000
#059370:23
#058361:0000001300000000
#059321:23
#061321:0000000000000013
#062361:0023000000000000
#0623b1:00130000
#062371:0023
#0653b1:0000000000000013
#066371:0023000000000000
