This file was generated by Ched 2.7.0.0.
#TITLE ""
#ARTIST ""
#DESIGNER ""
#DIFFICULTY 0
#PLAYLEVEL
#SONGID ""
#WAVE ""
#WAVEOFFSET 0
#JACKET ""
#REQUEST "ticks_per_beat 480"
#00002: 4
#BPM01: 132
#00008: 01
#TIL00: ""
#HISPEED 00
#MEASUREHS 00
#00112:0013000000000000
#00118:00000013000000000000000000000000
#00115:00000000001300000000000000001300
#0011b:0000001300000000
#0021b:13000013000000000033333300000000
#00215:0013000000000013
#00212:00000000001300000000000000000000
#00218:0000001300000000
#00318:0000130000000013
#00312:0000001300000000
#0031b:00000013
#00412:00000013000000000000000000000000
#00418:0013000000000013
#00415:1300000000000000000000000000001300000000000000000000000000001300
#00515:00000000000013001300001300001300
#00518:00000000000000130000130013000013
#00614:0012
#0061a:0012
#00616:00000000000000000000000032320000
#0071a:0000001212000000
#00716:00000000000000120000120000000000
#00718:00000000000000000000001200120000
#01115:00000000000000130000000000130000
#0111b:0000000013000013
#01112:0000000000130000
#01118:00000000000013000000001300000000
#0141b:0000000000000013
#01518:00000013
#01512:0000000000000013
#01515:1300000000130000
#0151b:00000000333333000000000000000000
#0161b:13
#01618:00130000
#01615:0013000000000000
#01612:0000001300000000
#01616:00000000000000000000000033333333
#01610:41
#01718:0000000000000013
#01712:0000000000130000
#01715:00000013
#0171b:00000000333333330000000000000000
#0181b:13
#01815:0000001300000013
#01818:00130013
#01812:0013000000000000
#0191b:13000000000000000000000033333333
#01915:00001300001300000000000000000000
#01918:00000013000013000000001300000000
#01912:0013
#02015:00001300000033330000000000000000
#02018:00000013000000000000000000000000
#02012:00000000001300000000000000000000
#0201b:00000000000000000000001333333300
#02118:0000000000130000
#02115:00000013
#0211b:0000000000000013
#02112:00000000333333000000000000000000
#02218:00130000
#0221b:0000001300000000
#02215:0013000000000000
#02212:13000000000000000000001333003333
#02318:0013000000000000
#02315:00000013000000000000000000000000
#02317:0000000000000000000000000000000000000000000000000000000000000013
#0231b:00000000000000000000001333333333
#02312:00000000003333330000000000000000
#02310:41
#02515:0000130000130000
#0251b:0000001300000013
#02512:0013
#02518:0013000000001300
#02818:0000000000000013
#02815:13333333333333000000000000000000
#02812:0000000000000013000000000000000000000000000000000000000000000000
#0291b:00001300000000000013333333333333
#02912:00130000
#02915:13000000000000130000000000000000
#02918:0000001300000000
#02917:0000000000000000000000000000000000000000000000000013000000000000
#03012:0013000000000013
#03015:00000000001300000000000000000000
#03018:00000023000000000000000000001300
#0301b:0000002300000000
#03010:41
#0311b:1300330033000013
#03118:0000001300000000
#03115:0000000000000013
#0311f:11
#03218:0000000000000013
#03212:1300330033000013
#03215:0000001300000000
#0331b:13
#03318:0013130000000000
#03315:13000013000013000000000000000000
#03412:0000001300000000
#03415:0000000000130000
#03418:13000000000000001300001300000000
#0341b:00000000000000000000000000333333
#03518:0000001300000000
#03515:00231300
#03512:23000000000000000000001300000000
#04118:00001300001300000000000000000000
#04112:23
#0411b:23000000000000000000000000333333
#04115:00000023000023000000000000000000
#0411f:21
#04318:0000001300000013
#04312:0000000000130000
#04315:00000013
#04415:00001300001300000000000000001300
#04418:00000013000013000000000000000000
#0441b:13
#04718:0000001300000013
#04712:13
#04815:13000000001300000000000000000000
#0481b:00000000000000000000133300331300
#04818:00130013
#04915:00000000000013001300001300000000
#04918:00000000000000130000000000130000
#0491b:0000000000130000
#04912:0000000000000013
#0501b:00000033000000000000130000000000
#05015:00000000000000000000001300000000
#05018:00000000000000000000000000130000
#05012:00000000000000330000000000001300
#05215:0000000000001313
#05218:00000000000013000000000000130000
#0531b:0013000000130000
#05318:00130013
#05315:0000001300000013
#05312:0013
#05310:41
#05418:0000001313000000
#05415:00000000000000130000000000000000
#0541b:0000000000000013
#05412:23000000000000000000001300000000
#05915:00001300000000000000133333333333
#05918:00130000
#05912:0000001300000000
#0591b:0013
#06018:0013000000000013
#06015:00130013
#0601b:0000000000130000
#06112:13
#06118:0013000000000013
#06115:00131300
#0611b:00000000000013000000133333330000
#06218:0000000000130000
#06212:00130013
#0621b:0000130000000013
#06215:0013
#06718:00001300000000000000001300130000
#06712:0000130000131323
#0671b:0000001313000000
#06715:13000000000000130000000000000000
#00918:00000000000000120000120000001200
#00914:0000001212000000
#00916:00000000000000000000001200120000
#03715:12
#03718:0000001212000000
#03716:00000000000000120000000000000000
#0511b:1323
#05118:0000002300230023
#05112:0000002300000000
#05115:00000000000000002300002300000023
#05715:0000001313000000
#05718:00000000000000130000000000000000
#05712:0000000000000013
#0571b:22000000000000000000001300000000
#06312:1313
#06318:00001300000000000000133333333333
#06315:00130000
#0631b:0000001300000000
#0081a:0012
#00814:0012
#00818:00000000000000000000000032320000
#00810:0041
#01218:0013000000000000
#01215:00130000
#0121b:00000000130000002300000033330000
#01212:0013000023000000
#01318:00000000000000130000000000130000
#01312:0000000013000013
#0131b:0000000000130000
#01315:00000000000013000000001300000000
#02412:00000000000000000000001333333333
#0241b:33333333000000000000000000000000
#02718:13333333333333000000000000000000
#0271b:0000000000000013000000000000000000000000000000000000000000000000
#03615:0000001300000000
#03618:00231300
#0361b:23000000000000000000001300000000
#03612:23
#03815:00000000000013000000001300000000
#03818:0013
#0381b:0000000000000013
#04218:13003333000000000000000000000000
#0421b:00000000003300000000000000000000
#04215:00000000000000000000333300000000
#04210:41
#04515:00001300001300000000000000000000
#0451b:23
#04512:23000000000000000000000000333333
#04518:00000023000023000000000000000000
#04615:13003333000000000000000000001300
#0461b:0000000000130000
#04618:00000013
#04612:00000000003300000000000000000000
#05618:0012001200000000
#05616:00120000
#05613:0012
#05615:0000000000120000
#05617:00000012
#05619:0000000000000012
#06415:0013000000000013
#06418:00130013
#06412:0000000000130000
#0651b:13
#06515:0013000000000013
#06518:00131300
#06512:00000000000013000000133333330000
#06618:0000000000130013
#06615:00000013
#06612:00230000
#0661b:00230000
#0101b:0023
#01012:00000000000000002300000033330000
#04014:0024000024000000
#04018:00000000002400000000000000000000
#0001b:00000000000000000000000000000033
#02612:00333333333333000000000000000000
#00258:0000005300000000
#00255:0000000000000053
#00352:0000006300000000
#00452:00000063000000000000000000000000
#00455:0000000000000000000000000000002300000000000000000000000000000000
#00558:00000000000000000000000000000053
#00958:0000000000000062
#0105a:00120000
#0115b:0013
#01652:0000005300000000
#01855:0000005300000000
#01858:00000013
#0195b:13
#01958:00000013000013000000005300000000
#01952:0013
#02058:00000013000000000000000000000000
#0205b:13000000000000000000005300000000
#02052:00000000005300000000000000000000
#02055:0013
#0225b:0000001300000000
#02252:00000000000000000000005300000000
#0315b:63
#03158:0000002300000000
#03555:0053
#03552:00000000000000000000005300000000
#03758:0052
#04152:13
#0415b:13
#04155:0000005300000000
#04358:0000001300000000
#04458:0000006300000000
#0445b:0000000000130000
#0455b:13
#04552:13
#04558:0000006300000000
#0485b:0000000000630063
#04858:00000023
#0515b:53
#05155:00000000000000000000000000000053
#05258:0000005300000000
#06055:00130000
#06752:0000130000000013
#0675b:0013
#0065b:00130000
#0015b:0000005300000000
#01352:0000000013000053
#01752:13
#02158:13
#02355:00000053000000000000000000000000
#0235b:00000000000000000000005300000000
#02357:0000000000000000000000000000000000000000000000000000000000000023
#0245b:0013
#02452:00000000000000000000005300000000
#02758:53000013
#0275b:0000000000000023000000000000000000000000000000000000000000000000
#02855:63000013
#02852:0000000000000023000000000000000000000000000000000000000000000000
#0295b:00000000000000000053000000000000
#02957:0000000000000000000000000000000000000000000000000023000000000000
#03252:53
#03255:0000002300000000
#03458:53000000000000000000005300000000
#03658:0063
#0365b:00000000000000000000006300000000
#0385b:0000000000000053
#04258:53
#04758:0000001300000000
#04752:53
#04655:63
#05955:0000000000530000
#0615b:0000000000530000
#06158:0000000000000053
#06458:00130000
#06358:0000000000630000
#06555:0000000000000063
#06552:0000000000630000
#000380:0000000000000013
#0003b0:00000000000000000000000000000033
#0013b0:23
#0013b0:0000001300000000
#001380:00000023
#002380:0000001300000000
#0023b0:00000000000000000033333323000000
#002350:0000000000000013
#003320:0023000000000000
#003320:0000001300000000
#003350:0000000000230000
#004320:00000013000000000000000023000000
#004350:0000000000000000000000000000005300000000000000000000000000000000
#005380:13003323000000000000000000000000
#005380:00000000000000000000000000000013
#0063b0:00230000
#006320:00000000000000000000001200000000
#006360:00000000000000000000000032323200
#007360:0022000000000000
#007360:0000000000000012
#008340:0032220000000000
#0083c0:00000000000000000000001200000000
#008380:00000000000000000000000032323200
#009380:0022000000000000
#009380:0000000000000012
#0103a0:00220000
#010350:00000000000000000000001300000000
#010320:00000000000000000000000033333300
#011320:0023000000000000
#012380:00000000000000000000001300000000
#0123b0:00000000000000000000000033333300
#0133b0:0023000000000000
#013320:0000000000000013
#014350:00000023
#0153b0:00000013333333000000000000000000
#015380:00000000000000230000000000000000
#016320:0000001300000000
#016360:00000000000000000000003333333333
#017320:23
#0173b0:00000013333333330000000000000000
#017380:0023
#018350:0000001300000000
#018320:0000000000230000
#019380:00000000000000000000001300000000
#0193b0:00000000000000000000000033333333
#0203b0:23
#020320:00000000001300000000000000000000
#020350:00000000000033332300000000000000
#0203b0:00000000000000000000001333333300
#021380:23
#021320:00000013333333000000000000000000
#021350:00000000000000230000000000000000
#022320:00000000000000000000001333003333
#023350:23
#023350:00000013000000000000000000000000
#023320:00000000003333332300000000000000
#0233b0:00000000000000000000001333333333
#023370:0000000000000000000000000000000000000000000000000000000000000053
#0243b0:33333333333333332300000000000000
#024320:00000000000000000000001333333333
#025350:23
#026320:13333333333333000000330000000000
#026350:00000000000000330000000000002300
#027380:13333333333333330033330023000000
#0273b0:0000000000000053000000000000000000000000000000000000000000000000
#028350:13333333333333330033330023000000
#028320:0000000000000053000000000000000000000000000000000000000000000000
#0293b0:00000000000000000013333333333333
#029370:0000000000000000000000000000000000000000000000000053000000000000
#0303b0:23
#0313b0:13333323
#031380:0000005300000000
#032320:13333323
#032350:0000005300000000
#033380:00000000000000130000000000003300
#0333b0:0000000000330000
#034380:33
#0343b0:00230000
#034380:00000000000000000000001300000000
#0343b0:00000000000000000000000000333333
#0353b0:23
#035350:0000000013000023
#035320:00000000000000000000003300000000
#036380:0000000013000023
#0363b0:00000000000000000000003300000000
#037380:0012
#0383a0:22
#0383b0:0000000000000013
#040380:23
#040320:00000013
#041320:23
#0403b1:00000013
#0413b1:23
#041351:0000001300000000
#041321:0000000000230000
#0413b1:00000000000000000000000013333333
#042381:33003333000000000000000000000000
#0423b1:00000000003323000000000000000000
#042351:00000000000000000013333300000000
#042321:0000000000003333
#043351:00230000
#044381:0000001300000000
#0443b1:0000000000230000
#045381:0000001300000000
#0453b1:0000000000230000
#045321:00000000000000000000000013333333
#046351:33003333000000000000000000000000
#046321:00000000003323000000000000000000
#047321:13
#047351:00230000
#047321:00000000000000000013000000000000
#047331:0000000000330000
#047341:00000000000000000000003300000000
#047351:00000023
#0483b1:00000000000000130000333300333300
#048381:00000033
#049381:00230000
#0503b1:00001333000000000000000000000000
#050381:00230000
#050321:00000000000013330000000000000000
#050351:0023
#0513b1:13
#051381:00230000
#051351:00000000000000000000000000000013
#052321:00230000
#052381:0000001300000000
#0523b1:0000000000230000
#054321:13000023000000000000000000000000
#055351:13
#055321:0000003300000000
#056351:23
#0573b1:12000022000000000000000000000000
#058381:13
#0583b1:0000003300000000
#059381:23
#059351:00000000000000000000133333333333
#060321:23
#0613b1:00000000000000000000133333330000
#061381:0000000000000033
#0623b1:0023000000000000
#063381:00000000000000000000133333333333
#0643b1:23
#065321:00000000000000000000133333330000
#065351:0000000000000033
#066321:0023000000000000
