This file was generated by Ched 2.7.0.0.
#TITLE ""
#ARTIST ""
#DESIGNER ""
#DIFFICULTY 0
#PLAYLEVEL
#SONGID ""
#WAVE ""
#WAVEOFFSET 0
#JACKET ""
#REQUEST "ticks_per_beat 480"
#00002: 4
#BPM01: 132
#00008: 01
#TIL00: ""
#HISPEED 00
#MEASUREHS 00
#00016:0000000000000012
#00018:00000000000000000000000000000012
#0011b:13000000001313000000000000000000
#00112:13001313000000000000000000000000
#00116:00000014000014000000000014000013
#00114:00000000000000000000000000130000
#00118:0000000000000014
#0021a:14
#00216:0000000014001400000014001400001300000000000000000000000000000000
#0021b:00000013000000000013000000001300
#00218:0000000000130000
#00215:00000000000000000000001300000000
#00212:1400001300001300
#00217:0000000000000013
#0031b:0000130000000013
#00317:0000000000001313
#00316:0000131300000000
#00312:0000001300001300
#00417:13001313000000000000000000000000
#00412:1300000000000000000000000000001300000000000000000000000013000000
#00415:00000000000000000000000000000013
#0041b:00001313000000000000000000000000
#00416:0000000000000000000000000000001300000000000000000000000000000000
#00518:13000000000000140000000000000000
#00516:00000000000014000000140000001313
#0051a:00001414
#00514:00000000000000000000001400000000
#00512:00000013000000001400000014001313
#00515:0013000000000000
#0051b:0033000000000000
#00612:0012
#00614:00000000000000000000001200000000
#00619:00000000000000000000000012120000
#00617:0012
#0071c:0012000012000000
#00716:00000000000012001200000000121200
#00719:00000000000000120000000000000000
#00718:00000000120000000000121200000000
#00712:00000000120000000000001200000000
#00812:0012000000000000
#00816:00120000
#0081c:0012
#0081a:00000000000000000000001200000000
#00815:00000000000000000000000012120000
#00817:0012
#00810:0041
#01015:0000000000130013
#0101b:00002313
#01018:00000000000000000013000000130000
#0101c:0012120000000000
#01012:00000000000000002300001300000000
#01016:0032000000000000
#0111b:1313000013000000
#01115:0000001300000000
#01118:00000000000000130000000000000000
#01112:00000000130000000000141400000000
#01116:00000000000000000000001400141400
#0111a:0000000000000014
#0121b:00001300000013002300001300000000
#01217:13130000
#01212:13002313
#01218:0000000000130013
#01215:00000000000000000013000000130000
#01216:0000001300000000
#01418:00001300000013001414140013001300
#0141b:13130000
#01415:00130000001300000000000000130013
#01412:00000013000000130000001300000000
#01414:0000000000000000000000000000000000140014000000000000000000000000
#0151b:13000013000000000000000000000000
#01515:00130000
#01512:13000000000013130000140014001300
#01518:00000000001300000000000000000000
#0151a:00000014
#01516:00000000000000000014001400000000
#01517:0000000000000013
#0161b:1300001300000000
#01616:13001300000000000000000000140000
#01617:0000131300000000
#01618:00000014
#01614:0000000000000014
#01612:00001300130000000000000000000014
#0161a:00000000000000000000001400000000
#01610:41
#0171a:14000000000000140000000000000000
#01712:00000014000000001400000000000000
#01714:00140000
#01716:00000000001400000000000000001300
#01718:0000001400000000
#0171b:0000000000131313
#01812:13000000000013000000141418000000
#01816:00000000130013000000000000001414
#01817:1313000000000000
#0181b:0013130000000000
#01916:18000014001414001400000000000000
#01912:00001414000000001400000000001300
#0191a:00000000000014000000000000000014
#0191b:00000000000000000000001300000000
#01918:00000013
#01915:00000000000000000000000000130000
#02016:14001414000000140000000014140000
#02012:00000014000014001400000000001400
#0201a:14000000001400001400001400000000
#0211a:14000000001400000000000000000000
#02112:00000014000000140000000000001400
#02116:0000141400000000
#0211b:0000000000130000
#02119:00000013
#02117:0000000000000013
#02114:00000014
#0221b:1300131300000000
#02216:00140014001400000000000000000000
#02215:00000000000000000000001300130013
#02218:0000000000131313
#02212:0013001300000000
#02312:13000000001600130000000000130000
#0231b:1313000000000013
#02315:00000013000000000000000013000000
#02318:00000000160013001600001300000000
#02316:00000000000000000000000000000013
#02310:41
#02419:13
#02414:00130000000000000000000016130000
#02417:0013000000000000
#02412:00000013000000000000001300000000
#02415:00000000000013131600000000000000
#02416:00000000000000000000000000001613
#0241b:00000000131300000000000000000000
#02518:16001313
#02516:0014140000000000
#0251b:00000000130000000013001300000000
#02512:0013001300000013
#02515:00000000000000130000160000130016
#02716:00140014140014130000000000000000
#02712:1313000000130013
#0271b:00000000001300130000000000000000
#02717:0000000000130013
#0281b:1313000000130013
#02816:00140014140014000000130000001300
#02812:00000000001300130000000000000000
#02817:00000000000000130000000000000000
#02917:13000000000012120000000000000000
#0291b:0013000000000000
#02918:00000013000000000000000000000013
#02915:0000130000000013
#02912:13000000000014000000140000130000
#0291a:00000000000000000014000014000000
#02916:00000000000000000000001400000000
#03015:0013000000000000
#0301a:0000000000001414
#03012:2c00002c00002c000000000000140014
#03018:00000000001300000000120000000000
#03016:00000000000000000000001200000000
#03010:41
#03116:0000120000001212
#03112:0012
#03118:00000000000000000000000000000012
#0311f:11
#03218:0000120000001212
#03216:00000000000000000000000000000012
#0321c:1212
#0331c:1200000000120000
#03316:00001200000000120000000000000000
#03318:00000012000012000000000000000000
#0331a:00120000
#03312:1200000000000012
#03412:1213
#0341b:00000000000013000000131300000000
#03417:1213
#03418:00000000000000000000000000130013
#03415:0000000000000013
#03416:00000000000013000000131300000000
#0381b:00000000000013000000001300000000
#03816:0013
#03812:0000000013000013
#03817:0000001300000000
#04112:00001313000000000014000000000013
#0411b:23000000001313000000000013000000
#04118:00000000000000000000000000130000
#04115:0000000000000013
#04116:23000024000024000000000000000000
#0411f:21
#04216:00001424000000000013180000000000
#04212:1c000000001424000000001318000000
#04217:00000000001313000000000000001300
#0421b:0013000000000013
#04210:41
#0431b:0000001300001300
#04317:0000000000131313
#04316:0000001300000000
#04312:0000000000130013
#0441b:1300001300001300
#04418:00130000001300000000000000130013
#04415:0013130000000013
#04416:0000000000130000
#04417:1300001300000000
#04412:00000013000000000000000000000000
#04718:00000000000000000000130000000013
#04712:1300001300001300
#04715:00000000000000000000001300001600
#0471b:00000000000000000013000000000000
#04716:13
#04717:0000001300000000
#04815:13000013000000000000000000000000
#0481b:00000000001300000000001300000013
#04818:00130000
#04816:00000000000000140000140014001400
#04812:00001300000000000000000000130000
#04918:0000001400000000
#04916:00000000000000140000000000001800
#04914:0014
#04912:00000000000000000000141800000000
#0491a:00000000000000000000000000140000
#0491b:00130000
#0501b:00001313000000000000000000000000
#05016:00000000160000000000001800000000
#05012:13000000000013130000000000141800
#05014:0016
#05017:13
#0501a:0000000000140000
#05117:13000000000000000000000000002323
#0511b:13000000000023000000232300000000
#05112:00000000000000002300000000003414
#05116:00000000000024002400242400000000
#0521b:0000001300000000000000001300000000000000000000001300000000000000
#05215:00000000000000000013000000001300
#05218:00000000000000000000130000130000
#05216:0000001400000000000000001300000000000000000000000000000000000000
#05212:0013
#05318:00000012000000120000001200000000
#0531c:00000000001200000000000000000012
#05312:1300220000000022
#0531b:13
#0531a:00000000000000000012000000120000
#05316:0022002200220000
#05314:00002222
#05310:41
#05415:00000000000013000000000000130000
#05418:00000000000000130000000000001300
#0541b:23002323000000001300000000000000
#05417:00000000000000000000001300000000
#05412:23000000000000000000001300000000
#0551b:13
#05518:00001300130014141400000000000000
#05514:0000000000000000000000000014001400000000000000000000000000000000
#05515:00130013001300000013000000000000
#05519:00000000000000000000001300000000
#05516:00000013
#05513:00000000000000000000000000130000
#0551a:0000000000000013
#05517:00000000000000000000000000000013
#05512:1300000000130000
#05617:00000012000000000000000000000000
#05615:00001200000000120000000000000000
#05619:00000000120000000000000012000012
#05612:0000001200000000
#05618:0012
#0561b:00000000000000000012000000000000
#05613:0000000000120000
#05616:00000000000000000000001200000000
#0561c:00000000000000000000000000120000
#05614:1300000000000012
#05918:0013000000000000
#05912:000000001c0014000000000000000014
#05916:00000000000000140000001400000000
#0591a:0014
#0591b:00130000000000000000130000000000
#05919:00000013
#05914:00000000000000000000000000140000
#05917:0000000000000013
#05915:13000013000000000000000000000000
#06015:13
#06012:0014140000130000
#06016:00000014000000120000140000141400
#0601b:0000000000001313
#06018:0000001212000000
#0601a:00140000
#06112:1313001300130013
#06116:00141400140000000000000000000000
#06115:00000000000000130000001300000000
#06118:00001313
#0611b:00000000130000000000000000130000
#0621b:0013000023001300
#06212:00000000130013002300000000001913
#06217:00000000001300130000000000000000
#06215:00000000000000000013001900130000
#06218:0000000000130000
#06718:00001313160000130000001600130000
#06715:0000000000130013000000001300000000000000130000001300000000000000
#06712:0000000016000026
#00912:0012000012000012
#00918:00000000000012001200000000121200
#00915:00000000000000120000000000000000
#00916:00000000120000000000121200000000
#0091c:00000000120000000000001200000000
#03512:2313231323132313
#03516:0014001400000000
#0351b:23000000230000002313000000000000
#03517:00000000000000000000001323000000
#03519:0000000000000013
#0371c:12000012
#03712:12000012
#03718:0000001212000000
#03716:00000000000000121200000000000000
#0391b:1300001300000000
#03912:00000013280000000013280000000000
#03916:13280000000013280000000014141414
#03917:00000013000000000013000000000000
#04012:00002400002400002400000013000000
#04016:14
#04018:00000013000000130000000000000000
#04015:0000131300000000
#04017:00000013
#0401a:00002400002400002400000000000000
#05716:0000001212000000
#05718:00000000000000120000000000000000
#05717:00000000000000000000001200001200
#05713:00000000000000000000000000120000
#0571b:0000000000120000
#05712:22002222000000000000000000000000
#0571c:22
#01312:1313000013000014
#01318:0000001300000000
#01315:00000000000000130000000000000000
#0131a:00000000000000000000141400000000
#01316:00000000000000000000001400141400
#0131b:00130000
#0261b:0000001300001300
#02616:00000000000000130000000013000000
#02617:0000000000130000
#02612:0000000000130000
#0361b:2313231323132313
#03616:00001400000014000000001323000000
#03612:23000000230000002313000000000000
#03614:0000000000000013
#0451b:23001313000000000000000000000013
#04512:23000000001313000000000013000000
#04515:00000000000000000000000000130000
#04518:0000000000000013
#0451a:00000000000000000014000000000000
#04516:00000024000024000000000000000000
#04616:00001424001313000000000000000000
#0461a:00000000001424000000000000000000
#04617:0000000000130000
#0461b:00000000000000000000001300001300
#04614:00000000000000000000000018000018
#04612:1c001300000000000000000000130000
#0581c:12
#05812:00000000000012002300001913000000
#05817:12
#05818:00000000000000000013000000130000
#05815:0000000000130019
#0581b:00000000000000002300000000000013
#06315:0013000000000000
#0631a:00000000000014000000000000000014
#06316:00000000000000140000001400001300
#06312:001300001c0000001400130000000000
#06314:00000013
#06318:13000013000000000000000000140000
#06418:13000000000000120000000000000000
#0641a:0014140000000000
#06416:00000014000012001200140000141400
#0641b:0000000000130000
#06412:0000140000001313
#0651b:1313001300130013
#06516:00141400140000000000000000000000
#06518:00000000000000130000001300000000
#06515:00001313
#06512:00000000130000000000000000130000
#06612:0013000000000000
#06618:0000242400000000
#06614:00000000002400240000000000000000
#00156:0000005400000000
#00152:00000013000000000000000000000000
#0015b:0000001300000000
#00252:0000005300000000
#0025b:0000000000000063
#00257:0000000000000063
#00256:0000000000001400000000001400002300000000000000000000000000000000
#00457:00000053000000000000000000000000
#00452:0000000000000000000000000000002300000000000000000000000000000000
#0045b:00000053000000000000000000000000
#00456:0000000000000000000000000000002300000000000000000000000000000000
#00558:63
#00552:00000000000000000000000000000053
#00556:00000000000000000000000000000053
#00952:0000000000000062
#01056:00120000
#01055:0000000000000053
#0105c:00120000
#01257:00130000
#01252:00130000
#01258:0000000000000063
#01657:0000005300000000
#0175a:14
#01752:0054
#0215a:14
#02152:00000000000000540000000000000000
#02052:00000034000000003400000000005400
#02056:34
#02252:0000001300000000
#0225b:0000001300000000
#02756:00000000000000530000000013000000
#0275b:00000000000000530000000013000000
#02757:0000000000630000
#02752:0000000000630000
#03356:00000000000000520000000000000000
#0335c:0000000000520000
#03452:62
#03457:62
#03456:00000000000000000000005300000000
#03758:0052
#0375c:00000022
#03756:0062
#03752:00000022
#03852:0053
#0385b:00000000000000000000005300000000
#04156:1300005400000000
#04152:00000000000000000024000000000000
#0415b:13
#04052:0034000034005300
#0405a:00000000004400000000000000000000
#04057:00000053
#0425b:0000000000000063
#04257:0000005300000063
#0435b:0000001300000000
#04356:0000001300000000
#04457:0000005300000000
#04452:0000000000130000
#04456:0000000000130000
#0455b:13
#04552:13
#0455a:00000000000000000024000000000000
#04556:0000006400000000
#05157:53000000000000000000000000000053
#0515b:53
#05152:00000000000000000000000000000054
#05156:00000000000000000000005400000000
#05255:0000000000000013
#05256:0000002400000000000000000000000000000000000000000000000000000000
#0525b:0000002300000000000000005300000000000000000000000000000000000000
#06052:00140000
#06152:0000000000000053
#06158:0053
#00356:0000005300000000
#00352:0000005300000000
#0065b:00130000
#00657:00130000
#0115b:0053000043000000
#0115a:0000000000000044
#01156:00000000000000000000004400000000
#01352:0063000033000034
#01356:00000000000000000000003400000000
#01856:0000006300000000
#01852:00000048
#01956:48000044000000004400000000000000
#0195a:0000004400000000
#02358:0046
#02455:0046
#02652:0000000000530000
#02657:0000000000530000
#0265b:00000023
#02656:00000023
#02857:00000000000000630000000013000000
#02852:00000000000000630000000013000000
#02856:0000000000530000
#0285b:0000000000530000
#03052:3c00004c00003c000000000000000000
#04756:53
#04752:5300001300000000
#04757:0000001300000000
#04656:0000006300000000
#04956:0000140000000038
#04952:00000000000000000000004800000000
#05056:00000000000000000000003800000000
#05052:0000000000000048
#0585c:52
#05952:001c0000
#0645a:00140000
#06555:0063
#0655b:0000000000000063
#06352:001c0000
#06758:00000000460000000000004600000000
#06752:0000000036000036
#001360:0000001400000000
#001320:00000024
#002320:00000000000013000023000000000000
#002360:0000000000000000000000000000005300000000000000000000000000000000
#0023b0:0000000000000013
#003360:0023000000000000
#002371:0000000000000013
#003321:0023000000000000
#003321:0000001300000000
#003371:0000000000230000
#003360:0000001300000000
#0033b0:0000000000230000
#004370:00000013000000000000000023000000
#004320:0000000000000000000000000000005300000000000000000000000000000000
#0043b1:00000013000000000000000023000000
#004361:0000000000000000000000000000005300000000000000000000000000000000
#005381:13
#0053b1:00003323000000000000000000000000
#005321:00000000000000000000000000000013
#006371:00230000
#005360:00000000000000000000000000000013
#0063b0:00230000
#006360:0000000000000012
#007320:52
#007360:0022000000000000
#0073c0:0000000000000012
#008380:0032000000000000
#0083c0:00220000
#008380:0000000000000012
#0093c0:52
#009380:0022000000000000
#009320:0000000000000012
#010360:0032220000000000
#010350:0000000000000013
#011320:0023000000000000
#0113b1:0013000000000000
#011381:0000002300000000
#012361:0013000000000000
#012321:00230000
#012381:0000000000000013
#0133b1:0023000000000000
#013320:0013000000000000
#013350:0000002300000000
#0153a0:00000000000000140024000000000000
#016370:0000001300000000
#016320:00000000000000000000002300000000
#017320:0014
#017360:00000024
#018360:0000001300000000
#0183b0:0000000000230000
#020320:0000000000000014
#021360:24
#021320:00000000000000140000000000000000
#021360:0000000000240000
#026320:13
#026360:00332300000000000000000000000000
#0263b1:0013000000000000
#026371:00000033230000000000000000000000
#026320:00130000
#026360:00000000003323000000000000000000
#0263b0:00000000000000130000000053000000
#026370:0000000000330023
#026321:0000000000130023
#026361:00000053
#027361:00000000000000130000000000000000
#027321:00000000000000000023000000000000
#0273b0:00000000000000130000000000000000
#027370:00000000000000000023000000000000
#027370:0000000000130000
#0273b0:00000023
#027321:0000000000130000
#027361:00000023
#028371:00000000000000130000000000000000
#0283b1:00000000000000000023000000000000
#028320:00000000000000130000000000000000
#028360:00000000000000000023000000000000
#028360:0000000000130000
#028320:00000023
#0283b1:0000000000130000
#028371:00000023
#029321:00000000000000140024000000000000
#031381:1232
#0313c1:00320022
#032361:1232
#032321:00320022
#033361:00000000000000120000000000000000
#033321:0000000000220000
#0333c0:0000000000120000
#033370:0000000000000022
#034370:12
#0343c0:00220000
#034321:12
#034371:00220000
#034361:00000000000000000000001300000000
#034321:00000000000000000000000000230000
#037381:0012
#0373c1:00000052
#038381:22
#037360:0012
#037320:00000052
#038360:22
#038320:0013
#038370:00000000000000000000002300000000
#0383b1:00000000000000000000001300000000
#038361:0000000000000023
#040321:00000013
#041361:23
#040370:00000013
#0413b0:23
#041360:0000001400002400
#041320:00000000000000000054000000000000
#042370:0000001300000000
#0423b0:00000000000000000023000000000000
#0423b0:0000000000000013
#043360:00230000
#042371:0000000000000013
#043321:00230000
#044371:0000001300000000
#044321:0000000000230000
#045361:0000001400002400
#0453a1:00000000000000000054000000000000
#046361:0000001300000000
#046321:0000000000230000
#047321:13
#047371:00230000
#047360:13
#0473b0:00230000
#048320:00000000000000130000230000000000
#049360:14240000
#051370:13
#051320:00230000
#0513b1:13
#051361:00230000
#051361:00000000000000000000001400000000
#051321:00000000000000000000000000003434
#052361:0000005400000000000000000000000000000000000000000000000000000000
#052321:00240000
#051370:00000000000000000000000000000013
#0523b0:0000005300000000000000000000000000000000000000000000000000000000
#052370:00230000
#0523b0:0000001300000000
#052370:0023
#054320:13003323000000000000000000000000
#0573c0:12003222000000000000000000000000
#0583c0:12
#058370:0000002200000000
#061380:0013
#0613b0:0000000000230000
#061320:0000000000000013
#062370:0023000000000000
#065350:0013
#065320:0000000000230000
#0653b0:0000000000000013
#066360:0023000000000000
