This file was generated by Ched 2.7.0.0.
#TITLE ""
#ARTIST ""
#DESIGNER ""
#DIFFICULTY 0
#PLAYLEVEL
#SONGID ""
#WAVE ""
#WAVEOFFSET 0
#JACKET ""
#REQUEST "ticks_per_beat 480"
#00002: 4
#BPM01: 132
#00008: 01
#TIL00: ""
#HISPEED 00
#MEASUREHS 00
#0671a:00140000
#06712:00140000
#0661a:00140000
#06614:14
#06518:00000014
#06512:0014
#06418:00140000
#06412:14
#0631a:00000014
#06314:0014
#06318:34
#06212:00140000
#06218:14000034
#06114:00000014
#0611a:0014
#06014:00140000
#0601a:14
#05912:00000014
#05918:0014
#05914:00140000
#05318:00140014
#05312:1414
#05310:41
#0501a:00140014
#05012:1414
#04918:00140014
#04914:0014
#04812:14
#04814:00343434
#04618:00000014
#04614:1414
#0461a:00140000
#0451a:00000014
#04514:0014
#04518:00140000
#04512:24
#0441a:14
#04418:00343400
#04214:00000014
#04218:1414
#04212:00140000
#04210:41
#04112:00000014
#04118:0014
#04114:00140000
#0411a:24
#0411f:21
#03814:0014
#03612:00140014
#03618:1414
#03514:00140014
#0351a:1414
#03412:14
#0331a:14
#03212:14
#0311a:14
#0311f:11
#02918:00000014
#02912:0014
#0291a:00140000
#02914:14
#02818:00000014
#0281a:24
#02812:24
#02716:00000014
#0271a:24
#02712:24
#02514:0014
#0251a:0014
#02518:14
#02512:14
#02418:0014
#02414:00140000
#0241a:14
#02314:0014
#02318:00140000
#02312:14
#02310:41
#0221a:00000014
#02214:0014
#02218:00140000
#02212:14
#0201a:00140014
#02014:1414
#01918:00140014
#01912:1414
#01718:0014
#01712:0014
#01714:14
#0171a:14
#01614:0014
#01618:00140000
#01612:14
#01610:41
#01518:0014
#01514:00140000
#0151a:14
#0131a:00000014
#01314:0014
#01318:00140000
#01312:14
#01218:00000014
#01212:0014
#01112:00000014
#01118:0014
#01114:00140000
#0111a:14
#01014:00000014
#0101a:0014
#01012:14
#00918:0014
#00914:14
#0081a:0014
#00812:14
#00810:0041
#00718:0014
#00714:14
#0061a:0014
#00512:14
#0051a:14
#05719:24
#05713:24
#0541a:0024
#05412:24
#02612:00343400
#0181a:00343400
#00414:00343400
#00318:00343400
#00214:00343400
#00118:00343400
#03010:41
#0675a:0000000000000014
#06752:0000000000000014
#03054:0000001400000000
#05452:14
#04552:14
#0415a:14
#0665a:00140000
#06252:00140000
#04852:64
#0445a:54
#03452:64
#0335a:54
#03252:64
#0315a:54
#0013a0:14
#001380:00343424
#002320:14
#002340:00343424
#0033a0:14
#003380:00343424
#004320:14
#004340:00343424
#005320:0014
#006320:00240000
#0053a1:0014
#0063a1:00240000
#012381:14240000
#014341:14342400
#0183a1:14343400
#018381:00000024
#021321:14
#021341:00240000
#0213a1:0014
#021381:00000024
#026321:14343400
#026341:00000024
#030341:14000034000024000000000000000000
#0313a1:14
#031381:00000024
#032321:14
#032341:00000024
#0333a1:14
#033381:00000024
#034321:14
#034341:00000024
#0373a1:14
#038381:24
#039321:14
#040321:24
#0393a0:14
#0403a0:24
#0433a0:14
#043380:00240000
#043320:0014
#043340:00000024
#0443a0:14
#044380:00343424
#047320:14
#047340:00240000
#0473a0:0014
#047380:00000024
#048320:14
#048340:00343434
#049340:24
#051320:14240000
#051380:00001424
#052340:14240000
#0523a0:00001424
#055340:1400003400000000
#056340:24
#0573a0:0014
#0583a0:3400003400000000
#0593a0:24
#060380:00001424
#061340:14240000
#0623a0:0014
#062380:00000034
#063380:34240000
#064340:00001424
#065380:14240000
#0673a0:00000000000000001400003400002400
#067321:00000000000000001400003400002400
