This file was generated by Ched 2.7.0.0.
#TITLE ""
#ARTIST ""
#DESIGNER ""
#DIFFICULTY 0
#PLAYLEVEL
#SONGID ""
#WAVE ""
#WAVEOFFSET 0
#JACKET ""
#REQUEST "ticks_per_beat 480"
#00002: 4
#BPM01: 124
#BPM02: 120
#BPM03: 125
#00008: 01
#00808: 02
#01608: 03
#TIL00: ""
#HISPEED 00
#MEASUREHS 00
#0081a:14
#00914:14
#01018:14
#01112:14
#0121a:14
#01314:14
#01418:14
#01512:14
#0161a:14
#01712:14
#01710:41
#01812:14
#01918:14
#02018:14
#02114:14
#02214:14
#0231a:14
#0241a:14
#03314:14
#03310:41
#03418:14
#03514:14
#03618:14
#03712:14
#03818:14
#0411a:14
#04110:41
#04214:14
#04512:14
#04618:14
#04714:14
#0481a:14
#04810:41
#04912:14
#0491f:11
#05018:14
#05114:14
#0521a:14
#05312:14
#05412:0016
#05418:26
#0541f:21
#05518:16
#05512:0016
#05510:41
#05818:2616
#05912:1616
#06212:0016
#06218:26
#06318:16
#06312:0016
#06618:2616
#06712:1616
#0701a:14
#07114:14
#07218:14
#07312:14
#02510:41
#025320:14
#026320:24
#027380:14
#028380:24
#029340:14
#030340:24
#0313a0:14
#0323a0:24
#039320:14
#040320:24
#0433a0:14
#0443a0:24
#056380:1626
#057320:1626
#060380:1626
#061320:1626
#064380:1626
#065320:1626
#068380:1626
#069320:1626
#073390:00001424
#074330:14240000
#074390:00001424
#075330:14240000
