This file was generated by Ched 2.7.0.0.
#TITLE ""
#ARTIST ""
#DESIGNER ""
#DIFFICULTY 0
#PLAYLEVEL
#SONGID ""
#WAVE ""
#WAVEOFFSET 0
#JACKET ""
#REQUEST "ticks_per_beat 480"
#00002: 4
#BPM01: 124
#BPM02: 120
#BPM03: 125
#00008: 01
#00808: 02
#01608: 03
#TIL00: ""
#HISPEED 00
#MEASUREHS 00
#02515:00001300000000130000130000000013
#02518:00000013000013000000001300001300
#02512:23
#02510:41
#0261b:1300001313000000
#02615:0013130000131300
#02618:00000013000000000000000000001300
#02612:00000000000000130000000000000013
#01712:1400001313000013
#0171a:14
#0171b:0013130000131300
#01715:00000013000000000000001300000000
#01718:00000000000000130000000000000013
#01710:41
#0181b:00001300000000000000230023000013
#01815:00000013000000000000000000001300
#01812:0000001313000000
#01818:00000000000000130000000000000000
#01918:0013130000131300
#01912:14000013000000000000001300000000
#01915:0000001313000013
#0191b:00000000000000130000000000000013
#02018:0013000000000013
#02012:00000013000000000000230023000000
#02015:00000000000013001300000000000013
#0201b:00000000000000130000230023000000
#02112:0013130000131300
#02118:00000013000000000000001300000000
#0211b:0000001313000013
#02115:00000000000000130000000000000013
#0211a:14
#02212:00001300000000000000230023000013
#02218:00000013000000000000000000001300
#0221b:0000001313000000
#02215:00000000000000130000000000000000
#02315:0013130000131300
#0231b:00000013000000000000001300000000
#02318:0000001313000013
#02312:00000000000000130000000000000013
#0231a:14
#02415:0013000000001300
#0241b:00000013000000000000130000000000
#02418:0000001313000000
#02412:00000000000000130000000000000000
#0301b:0013130000131300
#03012:00000013000000000000000000001300
#03015:1300001313000000
#03018:00000000000000130000000000000013
#0291b:00001300000000130000130000000013
#02912:00000013000013000000001300001300
#02918:23
#02715:0013000000130000
#02718:00000013000013000000001300001300
#02712:00000000000000130000000000000013
#0281b:1300001300232300
#02812:0013000000232300
#02818:00000013000000001300000000000033
#02815:00000000130000130000000000000000
#0311b:0013000000130000
#03112:00000013000013000000001300001300
#03118:00000000000000130000000000000013
#03215:1300001300130000
#03218:0013000000000000
#03212:00000013000000001300000000000000
#0321b:00000000130000130000000013000000
#03315:13000000000000130013001300000000
#03318:00130000000000001300000000000000
#0331b:00000013001300000000000013000000
#03312:00000013001300000000000000001300
#03310:41
#03418:13000000000000130013001300000000
#03415:00130000000000001300000000000000
#03412:00000013001300000000000000000000
#0341b:00000013001300000000000000000000
#03515:13000000000000130013001300000000
#03518:00130000000000001300000000000000
#0351b:00000013001300000000000013000000
#03512:00000013001300000000000000001300
#03618:13000000000000130024002400000000
#03615:00130000000000000000000000000000
#03612:00000013001300000000000000000000
#0361b:00000013001300000000000000000000
#03614:00002424
#0371b:00130000
#03712:14
#0371a:14
#03715:00000013000000130000000000001300
#03718:00001300000013000000000000000013
#0381a:14
#03812:14130000
#03815:00001300000013000000000000000013
#03818:00000013000000130000000000001300
#03912:14000013000000130000000000000000
#0391a:14
#0391b:0013001300000000
#03918:00000000130000000000000000000013
#03915:0000000000000013
#04112:1413000000130000
#0411a:14
#04115:00000000130000130000000000001300
#04118:00000013000000001300000000000013
#0411b:0000001300001300
#04117:0000000000230000
#04116:00000023
#04110:41
#04212:13000000000000001300000013000013
#04218:00001300000000130000000000000000
#04215:00000013000013000000000000000000
#0421b:0000130000130013
#04216:0000000000230000
#04217:00000023
#04318:1300000013230000
#04312:00001300000000130000000013000000
#0431b:00000013000013000000000023000013
#04315:0000130000130013
#04412:13000013000000001300000023000000
#04418:0013000000130013
#0441b:00000000130000130000000013000000
#04415:00000000000013000000230000000013
#04512:0013000000000000
#0451b:00000013000000000000000000000013
#04518:0000001313001300
#04515:00000000000000130000000000001300
#04618:00001300000000000000000000000013
#04615:00000013000000000000000000001300
#0461b:00130013
#04616:00000000001300000000000000000000
#04619:0000001300130000
#04614:00000000000000130000001300000000
#04617:0013
#04612:00000000000000000013000000000000
#0471b:0013000000000000
#04712:00000013000000000000000000000013
#04715:0000001313001300
#04718:00000000000000130000000000001300
#04815:00001300000000000000000000000013
#04818:00000013000000000000000000001300
#04812:00130023
#04817:00000000001300000000000000000000
#04814:0000001300230000
#04819:00000000000000130000002300000000
#04816:0023
#0481b:00000000000000000023000000000000
#04810:41
#04912:2313000013130000
#04915:0000131300001313
#04918:00000000000000330000000000000013
#0491f:11
#0491b:00000033000000000000003300000000
#0501b:0013000013130000
#05018:0000131300001313
#05015:00000000000000330000000000000013
#05012:00000033000000000000003300000000
#05112:0013000000131300
#05118:00000013000000000000001300000000
#0511b:0000001300000013
#05115:00000000000000130000000000000013
#05218:13001300000013000000000000000013
#0521b:00130000
#05215:00000013000000130000000000000000
#05212:00000000001300000000240000001300
#0521a:0024
#05216:00000024
#05412:2413000000130000
#05415:00000000130000130000000013000013
#05418:00000013000000001300001300000000
#0541b:0000001300000013
#0541a:24
#0541f:21
#05512:00001300000000000000230023000013
#05518:13000013000000000000000000000000
#0551b:0000001313000000
#05515:00000000130000130000000000000000
#05517:0000000000000013
#05510:41
#05615:0013000000130000
#05612:00000000130000130000000013000013
#0561b:00000013000000001300001300000000
#05618:0000001300000013
#0561a:14
#05715:0013000000130013
#0571b:13000013000000001300000013000000
#05718:00000000000013000000230000000013
#05712:00000000130000130000000023000000
#06112:13000013000000000000130000000000
#06118:0013000000001300
#06115:0000001313000000
#0611b:00000000130000130000000000000000
#06218:00001300000000130000130000000013
#06215:00000013000013000000001300001300
#0621b:23
#06312:1300001313000000
#06318:0013130000131300
#06315:00000013000000000000000000001300
#0631b:00000000000000130000000000000013
#06418:00001300000000130000130000000013
#06415:00000013000013000000001300001300
#06512:1300001300232300
#0651b:0013000000232300
#06515:00000013000000001300000000001300
#06518:00000000130000130000000000000013
#06715:00001300000000130000000000000013
#06712:0000130000131300
#0671b:13000013000000000000000000001300
#06718:0000001313000000
#06612:00001300000000130000130000000013
#06618:00000013000013000000001300001300
#06615:23
#06815:00001300000000130000130000000013
#0681b:00000013000013000000001300001300
#06918:1300001300130000
#06915:0013000000000000
#0691b:00000013000000002300000000000000
#06912:00000000130000130000000013000000
#07018:14000000000000001400001400001600
#07014:00140000000000140014000000000000
#07012:00000014001400000000000016000000
#0701a:00000014001400000000000000000000
#07114:1414
#07118:00140000000000140014000000000000
#0711a:00000014001400000000000000000000
#07112:00000014001400000000001400000000
#07218:14000000000000001400001400001600
#07214:00140000000000140014000000000000
#07212:00000014001400000000000016000000
#0721a:00000014001400000000000000000000
#07314:14
#07318:00140000000000140024002400000000
#0731a:00000014001400000000000000000000
#07312:00000014001400002400000024000000
#00815:00130013
#00818:13
#00812:23
#0081b:0033
#00918:00130013
#00915:13
#00912:0033
#01015:00130013
#01018:13
#0101b:0033
#01115:13000013
#01118:00131300
#01218:00130000
#0121b:00000013
#01215:13
#01212:0013
#01315:00130000
#01312:00000013
#01318:13
#0131b:0013
#01418:00130000
#0141b:00000013
#01415:13
#01412:0013
#01518:13
#01512:00130013
#01515:0013
#0151b:00130013
#01618:13
#01616:0000000000002424
#05315:13001300000013000000000026000013
#05312:00132600
#05318:00000013000000130000260000001300
#0531b:00000000001300000000000000000000
#04015:00000000130000000000000000000013
#0401a:14
#04012:1413001300000000
#0401b:00000013000000130000000000000000
#04018:0000000000000013
#0581b:0013000000130000
#05818:00000000130000130000000013000013
#05815:00000013000000001300001300000000
#05812:2400001300000013
#0581a:24
#0591b:00001300000000000000230023000013
#05915:13000013000000000000000000000000
#05912:0000001313000000
#05918:00000000130000130000000000000000
#05916:0000000000000013
#06018:0013000000130000
#0601b:00000000130000130000000013000013
#06012:14000013000000001300001300000000
#06015:0000001300000013
#0741a:24240000
#07414:00240024000000000000000000000000
#07412:00002626
#07418:00000000000000000026002600000000
#07518:26260000
#07512:00260026000000000000000000000000
#0265b:0063
#02655:00000013
#01752:14
#0175a:14
#01852:0053
#01952:14
#0225b:0063
#0235a:14
#02458:00006313
#0245b:0000000000230000
#02455:00000013
#0215a:14
#03055:0053
#0305b:00000013
#03252:00005333
#03255:0000000000230000
#0325b:00000043
#03352:0000000000000013
#0335b:00000013
#0355b:00000013
#03552:0000000000000013
#04558:00000013
#04755:00000013
#0465b:00000013
#0495b:00000013
#05052:00000013
#05152:00000013
#0525a:0014
#05252:0000000000140000
#05256:00000014
#05352:0016
#05358:0000000000160000
#05355:00000016
#0555b:0063
#05552:00000013
#05558:53
#05555:00530000
#0565a:14
#06152:5300000000230000
#06158:00000013
#06155:00005313
#0615b:00530000
#06352:0053
#06358:00000013
#06758:0063
#06752:00000013
#06958:0000000000230000
#06952:00000033
#0695b:00005343
#07052:00000016
#07058:0000000000000016
#07252:00000016
#07258:0000000000000016
#07352:00000014
#0745a:00140000
#07452:00000016
#00858:53
#00955:63
#01058:53
#01155:63
#01158:0053
#01255:63
#01252:0023
#01358:53
#0135b:0023
#01455:63
#01452:0023
#01558:53
#01555:0063
#01552:00000023
#0155b:00230000
#01658:53
#05452:14
#0545a:14
#02552:13
#04852:00000013
#05952:0053
#0595b:00000013
#05955:53
#05958:00530000
#06052:14
#0585a:14
#05852:14
#0625b:13
#06655:13
#07558:00160000
#02958:13
#0575b:53
#05752:00530013
#008380:13
#0083b0:0033
#0093b0:23
#009351:13
#009321:0033
#010321:23
#010380:13
#0103b0:0033
#0113b0:23
#011351:13
#011321:0023
#011380:0013
#0123b0:23
#012351:13
#012321:0033
#013351:23
#013380:13
#0133b0:0033
#014380:23
#014351:13
#014321:0033
#015351:23
#015380:1323
#0153b0:00530000
#015351:0013
#015321:00000053
#016351:23
#016380:13
#0163b0:00000023
#018320:1323000000000000
#0183b0:0000132300000000
#018320:0013
#018350:00000023
#020350:1323000000000000
#020380:0000132300000000
#0223b0:1323000000000000
#022320:0000132300000000
#0223b0:0013
#022380:00000023
#024380:1323000000000000
#024350:0000132300000000
#024380:00001323
#0243b0:0000000000530000
#0253b0:13
#025380:0023000000000000
#025320:0000132300000000
#0253b0:0013
#025380:0000000000230000
#025320:0000000000001323
#0263b0:0013
#026380:00000023
#0273b0:13
#027380:0023000000000000
#027350:0000132300000000
#0273b0:0013
#027380:0000000000230000
#027350:0000000000001323
#0283b0:0000000000000013
#028380:00000000000000000000000000000033
#029380:23
#029351:13
#029321:0023000000000000
#029381:0000132300000000
#029351:0013
#029321:0000000000230000
#029381:0000000000001323
#030351:0013
#030321:00000023
#031351:13
#031321:0023000000000000
#0313b1:0000132300000000
#031351:0013
#031321:0000000000230000
#0313b1:0000000000001323
#032321:00001323
#032351:0000000000530000
#034321:0000000000001323
#0343b0:0000000000000013
#0353b0:23
#0373b0:0000000013230000
#037321:0000000000132300
#037380:0000000000001323
#038320:0000000013230000
#0383b1:0000000000132300
#038350:0000000000001323
#039380:0013
#0393b0:0000000000230000
#039321:0000000000130000
#039351:00000023
#0393b0:00000013
#039380:0000000000000023
#040350:0013
#040320:0000000000230000
#0403b1:0000000000130000
#040381:00000023
#040320:00000013
#040350:0000000000000023
#045380:13
#0453b0:0023000000000000
#045320:00130000
#045350:0000002300000000
#045320:0000000000130000
#045350:00000023
#046320:1323000000000000
#047350:13
#047320:0023000000000000
#0473b0:00130000
#047380:0000002300000000
#0473b0:0000000000130000
#047380:00000023
#0483b0:1323000000000000
#049380:13003300000000333300330000000000
#0493b0:00000033330033000000003323000000
#050350:13003300000000333300330000000000
#050320:00000033330033000000003323000000
#0513b0:1323000000000000
#051320:0000132300000000
#0513b0:0000000013230000
#055380:13
#0553b0:0023000000000000
#055350:00130000
#055320:0000002300000000
#0553b0:0013
#055370:00000023
#0573b0:13
#057380:0023000000000000
#057320:00130000
#057350:0000002300000000
#059350:13
#059320:0023000000000000
#059380:00130000
#0593b0:0000002300000000
#059320:0013
#059360:00000023
#061320:13
#061350:0023000000000000
#0613b0:00130000
#061380:0000002300000000
#061350:00001323
#061320:0000000000530000
#062320:13
#062350:0023000000000000
#0623b0:00130000
#062380:0000002300000000
#062320:0013
#062350:0000000000230000
#0623b0:00000013
#062380:0000000000000023
#063320:0013
#063350:00000023
#064350:13
#064320:0023000000000000
#064380:00130000
#0643b0:0000002300000000
#064350:0013
#064320:0000000000230000
#064380:00000013
#0643b0:0000000000000023
#066380:13
#0663b0:0023000000000000
#066320:00130000
#066350:0000002300000000
#066380:0013
#0663b0:0000000000230000
#066320:00000013
#066350:0000000000000023
#067380:0013
#0673b0:00000023
#0683b0:13
#068380:0023000000000000
#068350:00130000
#068320:0000002300000000
#0683b0:0013
#068380:0000000000230000
#068350:00000013
#068320:0000000000000023
#0693b0:00001323
#069380:0000000000530000
#071360:00000014
#0713a0:0000000000000024
#071361:0000000000000014
#072321:24
