This file was generated by Ched 2.7.0.0.
#TITLE ""
#ARTIST ""
#DESIGNER ""
#DIFFICULTY 0
#PLAYLEVEL
#SONGID ""
#WAVE ""
#WAVEOFFSET 0
#JACKET ""
#REQUEST "ticks_per_beat 480"
#00002: 4
#BPM01: 124
#BPM02: 120
#BPM03: 125
#00008: 01
#00808: 02
#01608: 03
#TIL00: ""
#HISPEED 00
#MEASUREHS 00
#02615:00001300000000130000000000001300
#02612:00130000
#02618:00000013000013000000330000000000
#0261b:0013
#01712:13
#0171b:00000033000000000000003300000000
#01718:00000000000000330000000000000033
#01710:41
#01815:00001300000000130000000000001300
#01818:00000013000013000000330000000013
#0181b:0013
#01812:00130000
#01912:13
#01918:00000033000000000000003300000000
#0191b:00000000000000330000000000000033
#02018:00000013000013000000000000000000
#02015:00001300000000130000000000001300
#0201b:0013
#02012:0000130000240000
#0201a:00000024
#02812:0013000000242400
#02818:00000013000000001300000000001300
#02815:00000000130000130000000000000000
#0281b:0000001300000000
#0281a:0000000000242400
#03318:13000000000000130013000000000000
#03315:00130000000000001300001300000000
#0331a:00000014000000000000000014000000
#03312:00000000001400000000000000001400
#03310:41
#03415:00130000000000001300001300000000
#03418:13000000000000130013000000000000
#0341a:00000014000000000000000000000000
#03412:00000000001400000000000000000000
#03615:13000000000000130000000000000000
#03618:00130000000000002400002400000000
#03612:00000014000000000000000000000000
#0361a:00000000001400000000000000000000
#03614:00000000000000000024000024000000
#03712:00130000
#0371b:1313
#03715:00001300000000130000130000001300
#03718:00000013000013000000000013000013
#0391b:13000000000000330000000000000000
#03918:00000000000000000000000013000013
#03915:00000033000000000000130000001300
#0411b:1300001300000000
#04112:0013000000240000
#04115:00000000130000130000000000001300
#04118:00000013000000001300000000000013
#0411a:00000024
#04110:41
#04318:13000000000000330000000000000013
#04315:00000033000000000000000000001300
#04312:0000000000240000
#0431a:00000024
#0441b:0000000000000013
#04415:13000000000000330000000000000013
#0441a:0000000000240000
#04412:00000024
#04418:00000033000000000000000000000000
#04512:0013130000130000
#04518:00000013000000000000000000001300
#0451b:2300001313000000
#04515:00000000000000130000000000000013
#04615:0013000000000000
#04618:00000013000000000000000000000013
#0461b:13
#04612:00000000003333330033333300001300
#04915:00000033000000000000003300000013
#04918:0000000000000013
#0491f:11
#04912:00000000000000330000000000000000
#05015:0000000000000013
#05018:00000033000000000000003300000013
#0501b:00000000000000330000000000000000
#05118:00001300000000130000130000000013
#05115:00000013000013000000001300001300
#0511b:00130013
#05112:1313
#0521b:0013001300000000
#05218:0000130024000013
#05215:00000013000000130000000000000013
#05212:13000000001300000000240000000000
#0521a:00000024
#05412:0013000000130000
#05415:00000000130000130000000013000013
#05418:00000013000000001300001300000000
#0541b:2300001300000013
#0541f:21
#05515:0000000000000013
#05518:00000000000000000000000023000013
#0551b:00000033000000330000000000000000
#05510:41
#05618:00001300000000130000130000000013
#0561b:00130013
#05615:00000013000013000000001300001300
#05612:1313
#06218:00001300000000130000130000000013
#06215:00000013000013000000001300001300
#0621b:00130013
#06212:2313
#06315:00000033000000000000130000001300
#06318:00000013
#0631b:00000000000000000000000000000013
#06312:00000000000000330000000000000000
#06418:0013130000131300
#06412:00000013000000000000001300000000
#06415:1300001313000013
#0641b:00000000000000130000000000000013
#00818:13
#0081b:00333300
#01115:13
#01118:0013
#01215:13
#01212:0000331333000000
#01515:0013
#01518:13
#01618:13
#04815:00000013000000000000000000001300
#04818:00001300000000000000000000000013
#04812:13
#0481b:00000000003333330033333323000000
#04810:41
#05318:00000013000000130000000000001300
#05315:00000000130000000000000000000013
#05312:0013001300002400
#0531b:13000000001300000000000000000000
#05314:0024
#0531a:0000000000240000
#05715:00000033000000330000130000001300
#05718:00000000000000000000000023000013
#00915:13
#00912:00333300
#01018:13
#0101b:00333300
#01318:13
#0131b:0000331333000000
#01415:13
#01412:0000331333000000
#0211b:13
#02112:00000033000000000000003300000000
#02115:00000000000000330000000000000033
#02218:00001300000000130000000000001300
#02215:00000013000013000000330000000013
#02212:0013
#0221b:00130000
#0231b:13
#02315:00000033000000000000003300000000
#02312:00000000000000330000000000000033
#02415:00000013000013000000330000000000
#02418:00001300000000130000000000000000
#0241b:00130000
#02412:0013
#03018:00001300000000130000000000001300
#0301b:00130000
#03015:00000013000013000000330000000000
#03012:0013
#0321b:0013000000000000
#03215:00000013000000001300000000000000
#03218:00000000130000130000000000000000
#03212:0000001300000000
#03515:13000000000000130013000000000000
#03518:00130000000000001300001300000000
#03512:00000014000000000000000014000000
#0351a:00000000001400000000000000001400
#0381b:00130000
#03812:1313
#03818:00001300000000130000130000001300
#03815:00000013000013000000000013000013
#04012:13000000000000330000000000000000
#04015:00000000000000000000000013000013
#04018:00000033000000000000130000001300
#04212:1300001300002400
#0421b:0013000000000000
#04218:00000000130000130000000000001300
#04215:00000013000000001300000000000013
#0421a:0000000000240000
#0471b:0013130000130000
#04715:00000013000000000000000000001300
#04712:2300001313000000
#04718:00000000000000130000000000000013
#0581b:0013000000130000
#05818:00000000130000130000000013000013
#05815:00000013000000001300001300000000
#05812:2300001300000013
#05918:0000000000000013
#05915:00000000000000000000000023000013
#05912:00000033000000330000000000000000
#06015:00001300000000130000130000000013
#06012:00130013
#06018:00000013000013000000001300001300
#0601b:1313
#06615:00001300000000130000130000000013
#06618:00000013000013000000001300001300
#06612:00130013
#0661b:2313
#06718:00000033000000000000130000001300
#06715:00000013
#06712:00000000000000000000000000000013
#0671b:00000000000000330000000000000000
#06815:0013130000131300
#0681b:00000013000000000000001300000000
#06818:1300001313000013
#06812:00000000000000130000000000000013
#06518:0000000000000013
#06515:00000000000000330000000000000013
#0651a:0000000000240000
#06512:00000033000000000000000024000000
#07015:13000000000000130013000000000000
#07018:00130000000000001300001300000000
#07012:00000014000000000000000014000000
#0701a:00000000001400000000000000001400
#07118:00130000000000001300001300000000
#07115:13000000000000130013000000000000
#07112:00000014000000000000000000000000
#0711a:00000000001400000000000000000000
#07318:13000000000000130024000024000000
#07315:00130000000000000000000000000000
#0731a:00000014000000000000000000000000
#07312:00000000001400000000000000000000
#07314:00000000000000002400002400000000
#07218:13000000000000130013000000000000
#07215:00130000000000001300001300000000
#0721a:00000014000000000000000014000000
#07212:00000000001400000000000000001400
#0271b:13000000000000000000003300000000
#02715:00000033000000000000000000000000
#02712:00000000000000330000000000000000
#02718:00000000000000000000000000000033
#03112:13000000000000000000003300000000
#03118:00000033000000000000000000000000
#0311b:00000000000000330000000000000000
#03115:00000000000000000000000000000033
#0251b:23000000000000000000000000000033
#02512:00000033000000000000000000000000
#02515:00000000000000330000000000000000
#02518:00000000000000000000003300000000
#02510:41
#02912:23000000000000000000000000000033
#0291b:00000033000000000000000000000000
#02918:00000000000000330000000000000000
#02915:00000000000000000000003300000000
#06918:00000000000000330000000023000000
#0691b:00000033000000000000000000000000
#07414:00240000240000000000002400000000
#07418:24000024000000000024000000000000
#07412:0024
#0741a:00000024
#07514:00240000000000000000000000000000
#0751a:24
#07518:00000024000000000000000000000000
#07512:00240000
#06118:00000033000000330000000000000000
#0265b:0063
#02658:00000013
#01752:13
#0185b:0063
#01952:13
#03252:00000013
#03255:0053
#03352:0000000000000014
#0335a:00000014
#04955:00000013
#05058:00000013
#0515b:00000013
#05258:0014
#05252:0000000000140000
#0525a:00000014
#05652:13
#06358:00000013
#00858:53
#01155:63
#01158:0053
#01255:63
#01252:0000002300000000
#01555:0063
#01558:53
#01658:53
#0545b:13
#0255b:13
#06252:13
#00955:63
#01058:53
#01358:53
#0135b:0000002300000000
#01455:63
#01452:0000002300000000
#0215b:13
#02252:0053
#0235b:13
#02452:0053
#02455:00000013
#03052:0053
#03055:00000013
#02952:13
#03552:00000014
#0355a:0000000000000014
#04552:0000000000530000
#04555:00000013
#04652:00000013
#0475b:0000000000630000
#04758:00000013
#0485b:00000013
#05354:0014
#0535a:0000000000140000
#05352:00000014
#05558:00000013
#05758:00000013
#0605b:13
#05852:13
#05955:00000013
#0615b:00000013
#06755:00000013
#0665b:13
#06958:00000013
#07052:00000014
#0705a:0000000000000014
#0725a:00000014
#07252:0000000000000014
#07358:00000014
#07454:00140000
#0745a:00000014
#07552:00140000
#0275b:13
#03152:13
#008380:13
#0083b0:00333323
#009350:13
#009320:00333323
#010380:13
#0103b0:00333323
#011350:13
#011320:00230000
#011380:0013
#0113b0:00000023
#012350:13000023
#012320:0000335333000000
#013380:13000023
#0133b0:0000335333000000
#014350:13000023
#014320:0000335333000000
#015380:13
#0153b0:00230000
#015350:0013
#015320:00000023
#016380:13
#0163b0:00000023
#017380:00001300000000333300330000000033
#0173b0:00000033330033000000003333003300
#018380:23
#0183b0:0013
#018380:0000000000332300
#0193b0:00001300000000333300330000000033
#019380:00000033330033000000003333003300
#0203b0:23
#021350:00001300000000333300330000000033
#021320:00000033330033000000003333003300
#022350:23
#022320:0013
#022350:0000000000332300
#023320:00001300000000333300330000000033
#023350:00000033330033000000003333003300
#024320:23
#024320:0013
#024350:0000000000332300
#025350:00001300000000332300000000000000
#025320:00000033330033000000000000000000
#0253b0:00000000000000000000130000000033
#025380:00000000000000000000003333003300
#0263b0:23
#0263b0:0013
#026380:0000000000332300
#027320:00001300000000332300000000000000
#027350:00000033330033000000000000000000
#027380:00000000000000000000130000000033
#0273b0:00000000000000000000003333003300
#028380:23
#029380:00001300000000332300000000000000
#0293b0:00000033330033000000000000000000
#029320:00000000000000000000130000000033
#029350:00000000000000000000003333003300
#030320:23
#030320:0013
#030350:0000000000332300
#0313b0:00001300000000332300000000000000
#031380:00000033330033000000000000000000
#031350:00000000000000000000130000000033
#031320:00000000000000000000003333003300
#032350:23
#032350:0013
#032320:00000023
#034380:0000000000001323
#039320:0013000000000000
#039350:00000033230000000000000000000000
#039380:0000001300000000
#0393b0:00000000000000332300000000000000
#0403b0:0013000000000000
#040380:00000033230000000000000000000000
#040350:0000001300000000
#040320:00000000000000332300000000000000
#043320:0013000000000000
#043350:00000033230000000000000000000000
#0433b0:0000001300000000
#043380:00000000000000332300000000000000
#0443b0:0013000000000000
#044380:00000033230000000000000000000000
#044320:0000001300000000
#044350:00000000000000332300000000000000
#045320:0000000000130000
#045350:00000023
#046320:00000000133333330033333323000000
#046360:0033
#0473b0:0000000000130000
#047380:00000023
#0483b0:00000000133333330033333323000000
#048370:0033
#049320:13003300000000333300330000000000
#049350:00000033330033000000003323000000
#0503b0:13003300000000333300330000000000
#050380:00000033330033000000003323000000
#055380:1333000033332300
#0553b0:00000033330033330000000000000000
#057320:1333000023000000
#057350:00000033330033330000000000000000
#059350:1333000033332300
#059320:00000033330033330000000000000000
#0613b0:1333000033002300
#061380:00000033330033330000000000000000
#063320:13003300000000332300000000000000
#063350:00000033330033000000000000000000
#065350:13003300000000332300000000000000
#065320:00000033330033000000000000000000
#0673b0:13003300000000332300000000000000
#067380:00000033330033000000000000000000
#069380:13003300000000333300000023000000
#0693b0:00000033330033000000000000000000
#071350:0000000000001323
