This file was generated by Ched 2.7.0.0.
#TITLE ""
#ARTIST ""
#DESIGNER ""
#DIFFICULTY 0
#PLAYLEVEL
#SONGID ""
#WAVE ""
#WAVEOFFSET 0
#JACKET ""
#REQUEST "ticks_per_beat 480"
#00002: 4
#BPM01: 124
#BPM02: 120
#BPM03: 125
#00008: 01
#00808: 02
#01608: 03
#TIL00: ""
#HISPEED 00
#MEASUREHS 00
#01712:0000001300000013
#0171b:00001300130000130000130013000013
#01716:13000013000000001300001300000000
#01710:41
#0211b:0000001300000013
#02112:00001300130000130000130013000013
#02117:13000013000000001300001300000000
#01917:0013130000131300
#01912:00000013000000000000001300000000
#01916:1300001313000013
#0191b:00000000000000130000000000000013
#02012:13130024
#0201b:00001313000013130000230000000000
#02016:00000000000000001300001400000000
#02018:0000000000000014
#02014:00000000000000000000000000000014
#0201a:00000024
#01818:00001300000000130000000000000000
#01815:00000013000013000000000000000000
#01812:0000130013000014
#01816:0000000000130000
#0181a:00000000000000000000000000000014
#0181b:0000000000230000
#01817:00000023
#02316:0013130000131300
#0231b:00000013000000000000001300000000
#02317:1300001313000013
#02312:00000000000000130000000000000013
#0241b:1300130000130000
#02412:00001313000013130000000013000000
#02417:00001313
#02416:0000000000130000
#02215:00001300000000130000000000000000
#02218:00000013000013000000000000000000
#0221b:00131300
#0221a:0000000000000014
#02212:00000000000000000000230000000014
#02217:0000000000130000
#02216:00000023
#02515:00000013000013000000001300001300
#02518:00001300000000130000130000000013
#02512:00130013
#0251b:2313
#02516:23
#02510:41
#0261b:1300000013130000
#02616:00001414000014140000130000000000
#02612:0000130013000014
#0261a:00000000000000000000000000000014
#02918:00000013000013000000001300001300
#02915:00001300000000130000130000000013
#0291b:00130013
#02912:2413
#0291a:24
#03012:13000000000000001300130000000014
#03016:00001414000014140000000000000000
#0301b:00131300
#03017:0000000000130000
#0301a:0000000000000014
#02718:0000001300000013
#02715:1313
#02712:00001300000000130000130000000013
#02716:00000014000000000000001400000000
#0271b:00130013
#03312:13130000000000001800001300001700
#03317:13000000000000130000000017000000
#0331b:00000000001300000000000000000000
#03310:41
#03417:13130000000000000000000000001700
#03412:13000000000000130000000017000000
#03416:00000000001300001800000000000000
#0341b:00000000000000000000001300000000
#03715:00001300130000130000000000000000
#03712:1300000000130013
#03718:13000013000013000000000000000000
#0371b:00000000000000001300000000000013
#03716:00000013
#03717:0000000000130000
#03818:00001300000000130000130000000013
#03815:00000013000013001300000000000000
#03812:1300000000130013
#0381b:00130013
#03918:00001300130000130000000000000000
#0391b:1300000000130013
#03915:13000013000013000000000000000000
#03912:00000000000000001300000000000013
#03917:00000013
#03916:0000000000130000
#04015:00001300000000130000130000000000
#04018:00000013000013001300000000000000
#0401b:1300000000130000
#04012:00000000130000000000000013000013
#04016:0000000000000014
#04516:00001414000014140000000013000014
#04517:0000000000130000
#04512:0000000000000013
#0451b:23
#04616:13000014000000001400001400000014
#0461b:0013130000131313
#04618:00000000001300000000000000000000
#04615:0000001300000000
#04612:00000000000000130013000013000000
#04717:00000013
#04716:00001414000014140000130000000014
#0471b:0000000000000013
#04712:23
#04817:13
#04812:00001300130000002600000000000013
#04816:00000014000000000026000026000000
#04815:00000000001300000000000000000000
#04818:00000000000013000000002600000000
#0481b:00000000000000130000000000001300
#04814:0000000000260000
#04810:41
#0491b:00000000130000001300000000000013
#04917:13000013
#04912:00001313000013130000131300001300
#0491f:11
#05012:00000000130000001300000000000013
#05016:13000013
#0501b:00001313000013130000131300001300
#05112:00001300000000140000001300000000
#05116:00000014000000000000000000000000
#0511a:0000001400000000
#05118:00000000000000000013000016000013
#05115:0000000000130013
#0511b:0013
#05218:00001300000000130000000000001300
#05215:00000013000013000000000000000013
#0521b:13
#05212:0000130024240000
#0521a:00002424
#05315:00001300000000130000000000000000
#05318:00000013000013000000000000001400
#05312:13002424
#0531b:00130000
#05314:00000000000000000000000000000014
#0531a:0000000024240000
#05512:00000000000000180000000000000014
#05517:1300001313000000
#05516:00001318130000000000230000000000
#0551b:0000000000130000
#0551a:0000000000000014
#05510:41
#0281b:0013001300130000
#02817:0013
#02812:00131323
#02816:14000014000000140000000000000014
#0281a:0000000000000014
#02815:0000000000230000
#03212:0013001300130000
#03216:14000014000000141300000000000000
#0321b:00131313
#03217:0000000000130000
#04116:1414140000230000
#0411b:00000013000013000000130000000000
#04112:00000000000000131300000023000000
#04117:0013
#04115:0000000000000013
#04118:00000000000000000000000000000013
#04110:41
#04215:13000013000013001300000023000000
#0421b:13000000000000001300000000000013
#04218:00001300130000130000000000000000
#04212:0000130000230000
#04217:0000000000130000
#04216:0000000000000014
#04415:00001300130000130000000000001300
#04418:13000013000013001300000023000013
#04412:1313
#0441b:0000130000230000
#04416:0000000000130000
#05412:2c001400000000180000140000000018
#05416:00000018140000001400001814000000
#0541a:0000001400000014
#0541f:21
#05916:13000000000013181300000000000000
#05917:0013130000230000
#05912:00000018000000000000130000001400
#0591a:00000000000000000000000000000014
#0631b:0000001313000000
#06312:00001318130000001300000000001400
#06316:00000000000000180000000000000014
#0631a:14
#06318:0000000000330000
#06315:0000000000330000
#0351b:13130000000000000000001300000000
#03516:13000000000000131800000000000000
#03512:00000000001300000000000017000000
#03517:0000000000000017
#03616:13130000000000000000000000000000
#0361b:13000000000000130000000000000000
#03617:00000000001300000000002727000000
#03612:00000000000000002727000000000000
#05716:00000000130014140000001400000000
#05712:0013000000132400
#05714:0000000000000014
#05718:00000000000000000000000000000014
#0571b:13000013000000001300000000000000
#0571a:00000024
#05617:1313
#05612:0013000000130000
#05616:00000014130000140000001413000014
#0561b:0000001300000013
#06016:13000014000000141300001400000014
#0601b:0013000000130000
#06017:00130013
#06012:0000001300000013
#06516:00000000000014140000001400001400
#0651b:0013000000230000
#06512:13000013000000001300000024000014
#06517:00130000
#0651a:00000024
#0671b:0013130013000000
#06716:00000018000000000000000000000000
#06712:14000000000013181300000000001600
#06718:00000000000000000000330000000016
#06715:0000000000330000
#06116:00001814000000140000130000000000
#06112:0000001813001300
#0611b:0000000000130000
#06117:00000013
#06412:0000180014000013
#06416:00000014000000140000001418000014
#0641a:1400001400000000
#06815:1616
#06818:0000001600000000
#06812:00000018000000160000000018001800
#06816:00000000180000000000001800000018
#06918:0000000026130000
#06912:1816
#06916:00001414180014140000000000000000
#06915:0000000000130000
#0701b:13130000000000130000000000000000
#07016:13000000000000000000001318000000
#07012:000000001c000018
#07116:13130000000000130000000000000000
#0711b:13000000000000000000001300000000
#07112:000000001c001c1c
#07212:13130000000000131c00000018000000
#07217:13000000000000000000001300000000
#07216:0000000000000018
#07317:13130000000000130000000000000000
#07312:13000000000000002c2400242c000000
#0081c:12
#00816:00120012
#00812:2212
#0091c:00120012
#00918:0012
#00912:12
#01018:12
#01012:00120012
#01016:0012
#01118:00120000
#0111c:0012
#01116:12000012
#0121c:00120000
#0121a:0012
#01218:00000012
#01216:0012
#01212:12
#01318:0012
#0131c:12
#01316:00120000
#01314:0012
#01312:00000012
#01418:00120000
#0141a:0012
#0141c:00000012
#01412:0012
#01416:12
#0151c:00120012
#01518:12
#01512:00120012
#01516:0012
#01618:12000000000000000000000000000022
#01612:00000022
#01616:0000000000000022
#03115:0000001300000013
#03118:1313
#0311b:00001300000000130000130000000013
#03116:00000014000000000000001400000000
#03112:00130013
#04316:1414140013000000
#04312:00000013000013000000130000000000
#0431b:00000000000000131300000023000000
#04318:0000000000000013
#04315:00000000000000000000000000000013
#04317:0000000000230000
#0581a:0014000000140000
#05812:2c000018000014000000001800001400
#05816:00000000140000181400000014000018
#06212:00180014
#06216:2318
#0621b:23
#06616:28180000
#06612:0018
#0661a:00000014
#07416:00000000000000000024002400000000
#07412:2c2c2c2c
#0741a:00240024000000000000000000000000
#07516:00240024000000000000000000000000
#07512:2c2c0000
#01756:5353
#0175b:00530053
#02157:6363
#02152:00630063
#01956:5353
#01957:00630063
#02052:63630014
#02056:0053
#0205a:00000014
#01856:0000000000230000
#01852:00005333
#01857:00000013
#02357:6363
#02356:00530053
#0245b:5300530000230000
#02457:00006353
#02452:00000013
#02656:0000000000230000
#02652:00005333
#0265b:0000000000230000
#02657:00000033
#03052:0000000000230000
#03057:0000000000230000
#0305b:00006343
#03056:00000043
#03352:0000000000000037
#03357:00000047
#03452:00000037
#03457:0000000000000047
#03758:53
#03755:00630000
#0375b:00006343
#03757:0000000000230000
#03756:00000043
#03852:5300000000530000
#0385b:00630013
#03855:00006313
#03955:63
#03958:00530000
#03952:00005333
#03956:0000000000230000
#03957:00000033
#0405b:6300000000630000
#04052:00530013
#04058:00005313
#04556:00000013
#0455b:00000013
#04557:0000000000530000
#04656:53
#04652:00000063
#0465b:00000013
#04757:00000013
#04756:0000000000630000
#04752:00000013
#04857:63
#04856:00000016
#0495b:00535300
#04957:63000063
#05052:00636300
#05056:53000053
#05158:00000016
#0525a:00005444
#05256:0000000000443400
#05252:0000000034640000
#0285b:0000000000230000
#02857:00005333
#02852:00000033
#03252:0000000000230000
#03256:00006343
#0325b:00000043
#0415b:0000000000230000
#04157:00005333
#04152:00000033
#0425b:00006343
#04257:0000000000230000
#04255:00000013
#05452:1c
#05557:53006313
#05552:00000013
#05556:0000630000530000
#0555b:0000000000530000
#05956:63005313
#05957:0000530000630000
#05952:0000000000630000
#0595b:00000013
#0635b:0053
#06358:00000013
#06352:00536300
#06355:00000013
#03552:00000037
#03557:0000000000000047
#0575b:2323
#05756:00530000
#0575a:00000014
#05752:00000014
#05657:5353
#05656:00630063
#06056:6363
#06057:00530053
#06552:23002314
#06557:00630000
#0655a:00000014
#0675b:00635300
#06752:0063
#06758:00000013
#06755:00000013
#06152:00006353
#06156:0000000000230000
#06157:00000013
#06452:00181400
#0645a:14
#06456:00000018
#06855:1616
#06856:00180000
#06852:00000018
#06958:0000000056234600
#06952:58005636
#06956:00680000
#06955:0000000000230000
#07056:00000048
#07052:0000000000000038
#07152:0000000000003c4c
#07252:00000038
#07256:0000000000000048
#0085c:62
#01058:52
#0115c:0062
#01156:62
#01358:0022
#0135c:52
#0155c:00220000
#01558:62
#01552:00000022
#01556:0052
#00952:52
#01256:0022
#01252:62
#01452:0022
#01456:52
#01658:52
#07452:001c001c
#07552:001c0000
#07352:0000001c
#04452:00005333
#04456:0000000000230000
#04458:00000013
#0535a:0000000044540000
#05352:00006434
#05356:0000000000344400
#05852:1c
#02257:0000000000230000
#0225b:00006343
#02256:00000013
#02556:13
#0255b:13
#0295a:14
#02952:14
#04356:00006343
#04352:0000000000230000
#0435b:00000043
#0625b:13
#06256:13
#06656:18
#02755:13
#03158:13
#0083c0:12
#009380:22
#009321:12
#010361:22
#010380:12
#0113c0:22
#011361:12
#011321:0022
#0113c0:0012
#012380:22
#012321:12
#012361:0052
#013321:22
#0133c0:12
#013380:0052
#0143c0:22
#014361:12
#014321:0052
#015361:22
#015380:1222
#0153c0:00520000
#015361:0012
#015321:00000052
#016361:22
#016380:12
#0163c0:00000022
#017360:13
#017320:0023000000000000
#0173b0:00130000
#017370:0000002300000000
#017360:0013
#017320:0000000000230000
#0173b0:00000013
#017370:0000000000000023
#018320:1323000000000000
#0183b0:0000132300000000
#018320:00001323
#018360:0000000000530000
#019360:13
#019320:0023000000000000
#019370:00130000
#0193b0:0000002300000000
#019360:0013
#019320:0000000000230000
#019370:00000013
#0193b0:0000000000000023
#020320:13
#020360:0023000000000000
#020320:00130000
#020360:0000002300000000
#020360:0013
#020320:0000000000230000
#021370:13
#0213b0:0023000000000000
#021320:00130000
#021360:0000002300000000
#021370:0013
#0213b0:0000000000230000
#021320:00000013
#021360:0000000000000023
#0223b0:1323000000000000
#022320:0000132300000000
#0223b0:00001323
#022370:0000000000530000
#023370:13
#0233b0:0023000000000000
#023360:00130000
#023320:0000002300000000
#023370:0013
#0233b0:0000000000230000
#023360:00000013
#023320:0000000000000023
#0243b0:13
#024370:0023000000000000
#0243b0:00130000
#024370:0000002300000000
#024370:00001333
#0243b0:0000000000530000
#0253b0:23
#025380:00130000
#0253b0:0000002300000000
#025350:0013
#025320:0000000000230000
#025380:00000013
#0253b0:0000000000000023
#026320:1323000000000000
#0263b0:0000132300000000
#026320:00001323
#026360:0000000000530000
#0263b1:0000000000130000
#026371:00000023
#027381:13
#0273b1:0023000000000000
#027321:00130000
#027351:0000002300000000
#027381:0013
#0273b1:0000000000230000
#027321:00000013
#027351:0000000000000023
#028371:00001323
#0283b1:0000000000530000
#029351:00130000
#029321:0000002300000000
#029381:0013
#0293b1:0000000000230000
#029351:00000013
#029321:0000000000000023
#0303b1:1323000000000000
#030321:0000132300000000
#0303b1:00001323
#030371:0000000000530000
#030320:0000000000130000
#030360:00000023
#031350:13
#031320:0023000000000000
#0313b0:00130000
#031380:0000002300000000
#031350:0013
#031320:0000000000230000
#0313b0:00000013
#031380:0000000000000023
#032360:00001323
#032320:0000000000530000
#033370:00130023000000000000000000000000
#033321:00000013000000230000000000000000
#033361:00000000003300000000000000000000
#0333b1:00000000000000000013000000000000
#033371:00000000000000000000002300000000
#034321:00130023000000000000000000000000
#034370:00000013000000230000000000000000
#0343b0:00000000003300000000000000000000
#034360:00000000000000000013000000000000
#034320:00000000000000000000002300000000
#035360:00130023000000000000000000000000
#0353b1:00000013000000230000000000000000
#035371:00000000003300000000000000000000
#035321:00000000000000000013000000000000
#035361:00000000000000000000002300000000
#0363b1:00130023000000000000000000000000
#036360:00000013000000230000000000000000
#036320:00000000003300000000000000000000
#037380:13
#0373b0:0023000000000000
#037350:00130000
#037320:0000002300000000
#0373b0:00001323
#037370:0000000000530000
#038320:13
#038350:0023000000000000
#0383b0:00130000
#038380:0000002300000000
#038350:00001323
#038320:0000000000330000
#039350:13
#039320:0023000000000000
#039380:00130000
#0393b0:0000002300000000
#039320:00001323
#039360:0000000000530000
#0403b0:13
#040380:0023000000000000
#040320:00130000
#040350:0000002300000000
#040380:00001323
#0403b0:0000000000330000
#041370:00001323
#0413b0:0000000000530000
#0423b0:00001323
#042370:0000000000530000
#043360:00001323
#043320:0000000000530000
#044320:00001323
#044360:0000000000530000
#045320:1323000000000000
#0453b0:0000132300000000
#045320:0000000013230000
#045371:0000000000130000
#0453b1:00000023
#046361:13
#046321:0023000000000000
#046321:00000013
#046361:0000000000000023
#0473b1:1323000000000000
#047321:0000132300000000
#0473b1:0000000013230000
#047360:0000000000130000
#047320:00000023
#048370:13
#0483b0:0023000000000000
#049370:13
#0493b0:0023000000000000
#0493b0:00130000
#049370:0000002300000000
#0493b0:0013
#049370:0000000000230000
#049370:00000013
#0493b0:0000000000000023
#050360:13
#050320:0023000000000000
#050320:00130000
#050360:0000002300000000
#050320:0013
#050360:0000000000230000
#050360:00000013
#050320:0000000000000023
#051370:13
#0513b0:0023000000000000
#051360:00130000
#051320:0000002300000000
#052350:13
#052320:0023000000000000
#0523b0:00130000
#052380:0000002300000000
#0523a0:0014
#052360:0000000000240000
#052321:0000000000140000
#052361:00000024
#053381:13
#0533b1:0023000000000000
#053321:00130000
#053351:0000002300000000
#053321:0014
#053361:0000000000240000
#0533a0:0000000000140000
#053360:00000024
#055370:13
#0553b0:0023000000000000
#055360:00130000
#055320:0000002300000000
#055370:00001323
#0553b0:0000000000330000
#055361:0000000000130000
#055321:00000023
#056371:13
#0563b1:0023000000000000
#056361:00130000
#056321:0000002300000000
#056371:0013
#0563b1:0000000000230000
#056361:00000013
#056321:0000000000000023
#0573b1:13
#057371:0023000000000000
#057361:00130000
#057321:0000002300000000
#0573b1:0013
#057371:0000000000230000
#059361:13
#059321:0023000000000000
#059371:00130000
#0593b1:0000002300000000
#059361:00001323
#059321:0000000000330000
#059370:0000000000130000
#0593b0:00000023
#060360:13
#060320:0023000000000000
#060370:00130000
#0603b0:0000002300000000
#060360:0013
#060320:0000000000230000
#060370:00000013
#0603b0:0000000000000023
#061320:1323000000000000
#0613b0:0000132300000000
#061320:00001333
#061360:0000000000530000
#062360:23
#062320:00001424000000000000000000000000
#0623a1:00000014240000000000000000000000
#0623a1:00000000000014240000000000000000
#062320:00000000000000142400000000000000
#062320:00000000000000000000142400000000
#062361:00000000000000000000001424000000
#0623a1:00000000000000000000000000001424
#062360:00000000000000000000000000000014
#063360:24
#063320:00130000
#063360:0000002300000000
#0633b0:0013
#063380:0000000000332300
#063321:0013
#063351:0000000000332300
#064321:00001424000000000000000000000000
#0643a1:00000000000000000000142400000000
#065321:13
#065361:0023000000000000
#065371:00130000
#0653b1:0000002300000000
#065321:0013
#065361:0000000000230000
#0663a1:00001424000000000000000000000000
#066320:00000014240000000000000000000000
#066320:00000000000014240000000000000000
#0663a1:00000000000000142400000000000000
#0663a1:00000000000000000000142400000000
#066320:00000000000000000000001828000000
#066320:00000000000000000000000000001424
#066361:00000000000000000000000000000018
#067361:28
#0673b1:00130000
#067371:0000002300000000
#0673b1:0013
#067381:0000000000332300
#067320:0013
#067350:0000000000332300
#0683a0:00001424000000000000000000000000
#068320:00000000000000000000142400000000
#069320:1823000000000000
#069360:00180000
#0693b0:0000002300000000
#069320:00001626
#069380:0000000000530000
#069381:00001626
#069351:0000000000530000
#070361:00130023000000000000000000000000
#0703b0:00000013000000000000000000000000
#070370:00000000002300000000000000000000
#070321:00000000001300000000000000000000
#070361:00000000000000230000000000000000
#070371:00000000000000000013000000000000
#0703b1:00000000000000000000002300000000
#0713b1:00130023000000000000000000000000
#071360:00000013000000000000000000000000
#071320:00000000002300000000000000000000
#071371:00000000001300000000000000000000
#0713b1:00000000000000230000000000000000
#071321:00000000000000000013000000000000
#071361:00000000000000000000002300000000
#072371:00130023000000000000000000000000
#072320:00000013000000000000000000000000
#072360:00000000002300000000000000000000
#0723b1:00000000001300000000000000000000
#072371:00000000000000230000000000000000
#072361:00000000000000000013000000000000
#072321:00000000000000000000002300000000
#073321:00130023000000000000000000000000
#073370:00000013000000000000000000000000
#0733b0:00000000002300000000000000000000
#073361:00000000001300000000000000000000
#073321:00000000000000230000000000000000
