This file was generated by Ched 2.7.0.0.
#TITLE ""
#ARTIST ""
#DESIGNER ""
#DIFFICULTY 0
#PLAYLEVEL
#SONGID ""
#WAVE ""
#WAVEOFFSET 0
#JACKET ""
#REQUEST "ticks_per_beat 480"
#00002: 4
#BPM01: 124
#BPM02: 120
#BPM03: 125
#00008: 01
#00808: 02
#01608: 03
#TIL00: ""
#HISPEED 00
#MEASUREHS 00
#0081a:14
#00818:00343400
#00912:14
#00914:00343400
#0101a:14
#01018:00343400
#01114:14
#01118:0014
#01212:14
#01214:00343400
#0131a:14
#01318:00343400
#01412:14
#01414:00343400
#01518:14
#01514:0014
#01618:14
#01712:14
#01718:00140000
#01714:0014
#0171a:00000014
#01710:41
#01814:14
#01818:00140000
#0191a:14
#01914:00140000
#01918:0014
#01912:00000014
#02018:14
#02014:00140000
#02112:14
#02118:00140000
#02114:0014
#0211a:00000014
#02214:14
#02218:00140000
#0231a:14
#02314:00140000
#02318:0014
#02312:00000014
#02418:14
#02414:00140000
#0241a:00001424
#02412:00000024
#02614:14
#02618:00140000
#02818:14
#02814:00140000
#03014:14
#03018:00140000
#03218:1414
#03214:00140000
#0321a:00000024
#03212:00000024
#03712:14
#03718:0000140000140000
#03714:00001414
#0381a:14
#03814:0000140000140000
#03818:00001414
#03912:14
#03918:0000140000140000
#03914:00001414
#0401a:14
#04014:0000140000140000
#04018:00001414
#04112:14
#04118:00140000
#04110:41
#0421a:14
#04214:00140000
#04312:14
#04318:00140000
#0441a:14
#04414:00140000
#04514:14000014
#0451a:00140000
#04512:0014
#04518:0000000000140000
#04618:14000014
#04612:00140000
#0461a:0014
#04614:0000000000140000
#04714:14000014
#0471a:00140000
#04712:0014
#04718:0000000000140000
#04818:14000014
#04812:00140000
#0481a:0014
#04814:0000000000140000
#04810:41
#04912:14
#04918:00140000
#04914:0014
#0491a:00000014
#0491f:11
#05012:14
#05018:00140000
#05014:0014
#0501a:00000014
#05412:14
#05418:00140000
#05414:0014
#0541a:00000014
#0541f:21
#05514:14
#05518:0000141400000000
#05510:41
#0561a:14
#05614:00140000
#05618:0014
#05612:00000014
#05718:14
#05714:0000141400000000
#05812:14
#05818:00140000
#05814:0014
#0581a:00000014
#05914:14
#05918:0000141400000000
#0601a:14
#06014:00140000
#06018:0014
#06012:00000014
#06118:14
#06114:0000141400000000
#0611a:00001424
#06112:00000024
#06314:14
#06318:0000141400000000
#06518:14
#06514:0000141400000000
#06714:14
#06718:0000141400000000
#06918:1414
#06914:0000141400000000
#0691a:00000024
#06912:00000024
#0521a:00000024
#05318:00000024
#03313:00000000003400000000000000000000
#03310:41
#03419:00000000003400000000000000000000
#03513:00000000003400000000000000000000
#03619:00000000003400000000000000000000
#07019:00000000003400000000000000000000
#07113:00000000003400000000000000000000
#07219:00000000003400000000000000000000
#07313:00000000003400000000000000000000
#02510:41
#0085a:54
#00952:64
#0105a:54
#01252:64
#0135a:54
#01452:64
#03354:00000014
#03458:00000014
#03554:00000014
#03658:00000014
#04554:00000014
#04658:00000014
#04754:00000014
#04858:00000014
#0525a:00000014
#05358:00000014
#07058:00000014
#07154:00000014
#07258:00000014
#07354:00000014
#07458:00140000
#07454:00000014
#07558:00140000
#0083a0:14
#008380:00343424
#009320:14
#009340:00343424
#0103a0:14
#010380:00343424
#012320:14
#012340:00343424
#0133a0:14
#013380:00343424
#014320:14
#014340:00343424
#018320:00001424
#0203a0:00001424
#022320:00001424
#025320:14240000
#025380:00001424
#026320:00001424
#0273a0:14240000
#027340:00001424
#0283a0:00001424
#029320:14240000
#029380:00001424
#030320:00001424
#0313a0:14240000
#031340:00001424
#033320:14340034000000000000000000000000
#033330:00000000003400000000000000000000
#033340:00000000000000343434003424000000
#0343a0:14340034000000000000000000000000
#034390:00000000003400000000000000000000
#034380:00000000000000343434003424000000
#035320:14340034000000000000000000000000
#035330:00000000003400000000000000000000
#035340:00000000000000343434003424000000
#0363a0:14340034000000000000000000000000
#036390:00000000003400000000000000000000
#036380:00000000000000343434003424000000
#041340:0014
#041330:0000000000340000
#041320:00000024
#042380:0014
#042390:0000000000340000
#0423a0:00000024
#043320:0014
#043330:0000000000340000
#043340:00000024
#0443a0:0014
#044390:0000000000340000
#044380:00000024
#051320:14240000
#051380:00001424
#052340:14240000
#0523a0:0000000014342400
#053320:14240000
#053380:0000000014342400
#055320:00001424
#0573a0:00001424
#059320:00001424
#062320:14
#062340:00240000
#062380:0014
#0623a0:00000024
#063320:00001424
#0643a0:14
#064380:00240000
#064340:0014
#064320:00000024
#0653a0:00001424
#066320:14
#066340:00240000
#066380:0014
#0663a0:00000024
#067320:00001424
#0683a0:14
#068380:00240000
#068340:0014
#068320:00000024
#0703a0:14340034000000000000000000000000
#070390:00000000003400000000000000000000
#070380:00000000000000343434003424000000
#071320:14340034000000000000000000000000
#071330:00000000003400000000000000000000
#071340:00000000000000343434003424000000
#0723a0:14340034000000000000000000000000
#072390:00000000003400000000000000000000
#072380:00000000000000343434003424000000
#073320:14340034000000000000000000000000
#073330:00000000003400000000000000000000
#073340:00000000000000343434003424000000
#074380:14340034240000000000000000000000
#074340:00000000000000001434003424000000
#075380:14340034240000000000000000000000
